Teddy Pendergrass - Teddy (1979) [2010, Japanese Mini-LP CD] *Re-Up* *New Rip*

Posted By: BlondStyle
Teddy Pendergrass - Teddy (1979) [2010, Japanese Mini-LP CD] *Re-Up* *New Rip*

Teddy Pendergrass - Teddy (1979) [2010, Japanese Mini-LP CD]
R&B, Funk/Soul, Disco | EAC Rip | FLAC, Img+CUE+LOG+Full Scans-600dpi (PNG) | 41:56 Min | 447,68 Mb
Label: Sony Music Japan International Inc. (Japan) | Released: 2010, April, 21
Teddy Pendergrass - Teddy (1979) [2010, Japanese Mini-LP CD] *Re-Up* *New Rip*

In the midst of his late-'70s hot streak, Teddy Pendergrass slowed down his groove somewhat for most of Teddy, his third excellent album in three years, and reprised the hushed tone and bedroom motifs that had made "Close the Door" such a success a year earlier. Pendergrass had sung bedroom ballads before "Close the Door," but that song in particular resonated -- and still resonates - with his listeners, Philly soul and quiet storm fans alike. It's not surprising, then, that Teddy begins with back-to-back seducers penned by Kenny Gamble and Leon Huff - "Come Go With Me" and "Turn Off the Lights" - that are clearly modeled after "Close the Door," and wonderfully so at that. Next come "I'll Never See Heaven Again" and "All I Need Is You," which keep the tempo laid-back and the mood sentimental, closing out the first side smoothly. The second side gets off to a jumping start with "If You Know Like I Know," one of the most ferocious songs Pendergrass ever recorded, a sweaty disco workout driven by a funky bassline that just doesn't stop and a long-winded rant of bellowed pleading. "Do Me" likewise jumps along but does so more lightly and playfully, and then "Set Me Free" and "Life Is a Circle" again up the intensity level and showcase Pendergrass in a frantic mood. The bipolar nature of Teddy, with its quiet storm first side and disco-soul second, gives it a consistent flow that prolongs the mutually stimulating moods of each side. This is a marked difference from the likewise rock-solid Teddy Pendergrass (1977) and Life Is a Song Worth Singing (1978), which generally alternated up-tempo steppers cuts with down-tempo slow jams. As such, Teddy does foreshadow Pendergrass' drift toward mass-market studiocraft, but he's far from being formulaic here on Teddy, where he's still ablaze and bearing the distinct mark of top-shelf Philly International.
Teddy Pendergrass - Teddy (1979) [2010, Japanese Mini-LP CD] *Re-Up* *New Rip*

Teddy Pendergrass - Teddy (1979) [2010, Japanese Mini-LP CD] *Re-Up* *New Rip*


Release of the album: 1979, June, 23 [LP Philadelphia International Records, Cat.# FZ 36003, USA]
Release of this CD: 2010, April, 21 [CD Sony Music Japan International Inc. (Japan), Cat.# EICP-1334 / EAN: 04547366053425]
Note: Limited Edition, Remastered, Paper Sleeve. A part of the "New Standard Of Philadelphia" series.
Ⓒ & Ⓟ 1979 Assorted Music, Inc.
d/b/a Philadelphia International Records
Manufactured by Sony Music Japan International Inc.

Backing Vocals – Barbara Ingram, Carl Helm, Carla Benson, Evette Benton, Joseph Jefferson
Backing Vocals, Keyboards – Thom Bell
Bass – Bob Babbit, James Williams
Design – Ed Lee
Drums – Charles Collins, Keith Benson, Quinton Joseph
Engineer – Dirk Devlin, Jeffery Stewart, Jim Gallagher, Joseph Tarsia
Engineer [Assistant] – Bill Dorman, Bruce Bluesteen, Frank Luria
Guitar – Bobby Eli, Dennis Harris, Roland Chambers, Anthony Bell
Keyboards – Leon Huff
Organ – Lenny Pakula
Percussion – David Cruse
Photography By – Frank Laffitte
Strings, Horns – Don Renaldo & His Horns And Strings


Tracklist:

01. Come Go With Me (05:50)
(K. Gamble - L. Huff)
02. Turn Off The Lights (05:57)
(K. Gamble - L. Huff)
03. I'll Never See Heaven Again (04:48)
(L. Bell - C. James)
04. All I Need Is You (04:37)
(D. Jordan, S. Marshall)
05. If You Know Like I Know (05:06)
(J. Cohen, G. McFadden - J. Whitehead)
06. Do Me (04:42)
(K. Gamble - L. Huff)
07. Set Me Free (05:08)
(L. Bell - C. James)
08. Life Is A Circle (05:49)
(K. Gamble - L. Huff)

Exact Audio Copy V1.0 beta 3 from 29. August 2011

EAC extraction logfile from 18. August 2016, 19:56

Teddy Pendergrass / Teddy

Used drive : PIONEER BD-RW BDR-208D Adapter: 1 ID: 0

Read mode : Secure
Utilize accurate stream : Yes
Defeat audio cache : Yes
Make use of C2 pointers : No

Read offset correction : 667
Overread into Lead-In and Lead-Out : No
Fill up missing offset samples with silence : Yes
Delete leading and trailing silent blocks : No
Null samples used in CRC calculations : Yes
Used interface : Native Win32 interface for Win NT & 2000

Used output format : Internal WAV Routines
Sample format : 44.100 Hz; 16 Bit; Stereo


TOC of the extracted CD

Track | Start | Length | Start sector | End sector
––––––––––––––––––––––––––––-
1 | 0:00.00 | 5:50.13 | 0 | 26262
2 | 5:50.13 | 5:57.34 | 26263 | 53071
3 | 11:47.47 | 4:48.20 | 53072 | 74691
4 | 16:35.67 | 4:36.56 | 74692 | 95447
5 | 21:12.48 | 5:05.66 | 95448 | 118388
6 | 26:18.39 | 4:41.40 | 118389 | 139503
7 | 31:00.04 | 5:07.50 | 139504 | 162578
8 | 36:07.54 | 5:48.60 | 162579 | 188738


Range status and errors

Selected range

Filename D:\BlondStyle\Teddy Pendergrass - Teddy.wav

Peak level 99.9 %
Extraction speed 6.5 X
Range quality 100.0 %
Test CRC B87A219A
Copy CRC B87A219A
Copy OK

No errors occurred


AccurateRip summary

Track 1 accurately ripped (confidence 3) [A857B7DE] (AR v2)
Track 2 accurately ripped (confidence 3) [2D8D0368] (AR v2)
Track 3 accurately ripped (confidence 3) [581C62BB] (AR v2)
Track 4 accurately ripped (confidence 3) [77D94F59] (AR v2)
Track 5 accurately ripped (confidence 3) [F1756D60] (AR v2)
Track 6 accurately ripped (confidence 3) [1A76039F] (AR v2)
Track 7 accurately ripped (confidence 3) [DE30A0FB] (AR v2)
Track 8 accurately ripped (confidence 3) [24D4741E] (AR v2)

All tracks accurately ripped

End of status report

–– CUETools DB Plugin V2.1.3

[CTDB TOCID: s6AVzwRZxGR0_.FlbvMPchdpmdA-] found, Submit result: s6AVzwRZxGR0_.FlbvMPchdpmdA- has been confirmed
[54e54cce] (01/12) Accurately ripped
[1eeaa729] (11/12) No match


==== Log checksum 814CEAA402420384959428C6497B9968E21AC7CF34C1EDA78BCD0E347E98B630 ====

[Disc ID: 000d1a3e-005693a8-7409d408]
Track [ CRC ] Status
01 [327a31dd] (04/10) Accurately ripped as in pressing(s) #1
02 [8e3b6e3e] (04/10) Accurately ripped as in pressing(s) #1
03 [697ea5be] (04/10) Accurately ripped as in pressing(s) #1
04 [417c639e] (04/10) Accurately ripped as in pressing(s) #1
05 [9ab79ade] (04/10) Accurately ripped as in pressing(s) #1
06 [32b1fdae] (04/10) Accurately ripped as in pressing(s) #1
07 [568bdda5] (04/10) Accurately ripped as in pressing(s) #1
08 [1c6e8781] (04/10) Accurately ripped as in pressing(s) #1
Offsetted by -14:
01 [397c0c91] (00/10) No matches
02 [8a3d2388] (03/10) Partial match to pressing(s) #2
03 [53e624d6] (03/10) Partial match to pressing(s) #2
04 [24078bde] (03/10) Partial match to pressing(s) #2
05 [e2b04226] (03/10) Partial match to pressing(s) #2
06 [4fce09c4] (03/10) Partial match to pressing(s) #2
07 [b4bb5857] (03/10) Partial match to pressing(s) #2
08 [7c3cdcad] (03/10) Partial match to pressing(s) #2

foobar2000 1.3.9 / Dynamic Range Meter 1.1.1
log date: 2016-08-18 20:19:48

––––––––––––––––––––––––––––––––––––––––
Analyzed: Teddy Pendergrass / Teddy
––––––––––––––––––––––––––––––––––––––––

DR Peak RMS Duration Track
––––––––––––––––––––––––––––––––––––––––
DR11 -0.01 dB -13.65 dB 5:50 01-Come Go With Me
DR11 -0.01 dB -13.58 dB 5:57 02-Turn Off The Lights
DR11 -0.01 dB -13.39 dB 4:48 03-I'll Never See Heaven Again
DR10 -0.01 dB -12.61 dB 4:37 04-All I Need Is You
DR12 -0.01 dB -13.26 dB 5:06 05-If You Know Like I Know
DR11 -0.01 dB -12.15 dB 4:42 06-Do Me
DR10 -0.01 dB -11.71 dB 5:08 07-Set Me Free
DR11 -0.01 dB -12.40 dB 5:49 08-Life Is A Circle
––––––––––––––––––––––––––––––––––––––––

Number of tracks: 8
Official DR value: DR11

Samplerate: 44100 Hz
Channels: 2
Bits per sample: 16
Bitrate: 878 kbps
Codec: FLAC
================================================================================
Nitroflare
password: BlondStyle