Subcategories

Ten - Illuminati (2018) {Japanese Edition}

Posted By: popsakov
Ten - Illuminati (2018) {Japanese Edition}

Ten - Illuminati (2018) {Japanese Edition}
EAC Rip | FLAC (Img) + Cue + Log ~ 482 Mb | MP3 CBR320 ~ 150 Mb
Full Scans ~ 118 Mb | RAR 5% Recovery
Melodic Hard Rock | King Records KICP-1945

Hot on the heels of last year's "Gothica", UK hard rock stalwarts are returning with a new album, "Illuminati" in 2018! The album promises to be one of the hallmarks of their 22+ years career, where fans will easily spot all the trademark textures and flavours they have come to expect from TEN, with a consistent and solid spark of creativity throughout. "Illuminati" continues to build upon the rich legacy that the great British rockers have established in their 20+ year career."Illuminati" is said to be an elite, secret organization of world leaders, business authorities, innovators, artists, and other influential members of the global society. A coalition that unites influencers of all political, religious, and geographical backgrounds to further the prosperity of the human species as a whole. The album "Illuminati" brings the band's atmospheres and sounds and weaves them into a reel of mysteries, esoteric tales, and elaborate spells, evoking embers that spark the imagination courtesy of the classic songwriting of vocalist Gary Hughes.Following the success of the recent string of albums, from "Albion" to "Gothica", Hughes is joined once again by guitarists Dann Rosingana, Steve Grocott and John Halliwell along with bass player Steve McKenna, keyboard maestro Darrel Treece-Birch, and drummer Max Yates. On their fourth outing as a collective unit, the musicians in TEN have raised the bar even higher than they had previously. The album is full of stunning guitar work over a rich keyboard, bass, and drum tapestry with Hughes' rich vocals once again bringing the nuances of the intricate lyrics to life."Illuminatii" was produced by Gary Hughes and mixed and mastered by Dennis Ward. TEN's longstanding professional association with Dennis has been ongoing since he mixed their 2011 album, "Stormwarning" and has always guaranteed albums with stunning sound and production. FOR FANS OF: Rainbow, Whitesnake, Thunder, Royal Hunt, Giant, UFO.

***************

Ten - Illuminati (2018) {Japanese Edition}

Track List:

01. Be As You Are Forever [8:06]
02. Shield Wall [5:39]
03. The Esoteric Ocean [5:06]
04. Jericho [5:48]
05. Rosetta Stone [6:14]
06. Illuminati [5:43]
07. Heaven And The Holier-Than-Thou [5:29]
08. Exile [5:16]
09. Mephistophels [5:13]
10. Of Battles Lost And Won [5:46]
11. Rosetta Stone (Remix) [4:00]

Personnel:
Gary Hughes – lead & backing vocals, guitars & programming
Dann Rosingana – guitars
Steve Grocott - guitars
John Halliwell – guitars & acoustic guitars and 12 strings
Steve McKenna – bass guitars
Darrel Treece-Birch – keyboards
Max Yates – drums and percussion
Karen Fell, Scott Hughes - additional backing vocals

Exact Audio Copy V1.0 beta 3 from 29. August 2011

EAC extraction logfile from 19. November 2018, 19:42

Ten / Illuminati

Used drive : SlimtypeDVD A DS8A5SH Adapter: 0 ID: 0

Read mode : Secure
Utilize accurate stream : Yes
Defeat audio cache : Yes
Make use of C2 pointers : No

Read offset correction : 6
Overread into Lead-In and Lead-Out : No
Fill up missing offset samples with silence : Yes
Delete leading and trailing silent blocks : No
Null samples used in CRC calculations : Yes
Used interface : Installed external ASPI interface

Used output format : User Defined Encoder
Selected bitrate : 320 kBit/s
Quality : High
Add ID3 tag : No
Command line compressor : C:\Program Files (x86)\Exact Audio Copy\Flac\flac.exe
Additional command line options : -V -8 -T "Date=%year%" -T "Genre=%genre%" %source%


TOC of the extracted CD

Track | Start | Length | Start sector | End sector
––––––––––––––––––––––––––––-
1 | 0:00.00 | 8:06.34 | 0 | 36483
2 | 8:06.34 | 5:39.19 | 36484 | 61927
3 | 13:45.53 | 5:05.64 | 61928 | 84866
4 | 18:51.42 | 5:47.51 | 84867 | 110942
5 | 24:39.18 | 6:14.14 | 110943 | 139006
6 | 30:53.32 | 5:42.69 | 139007 | 164725
7 | 36:36.26 | 5:28.69 | 164726 | 189394
8 | 42:05.20 | 5:15.69 | 189395 | 213088
9 | 47:21.14 | 5:13.35 | 213089 | 236598
10 | 52:34.49 | 5:45.66 | 236599 | 262539
11 | 58:20.40 | 3:59.46 | 262540 | 280510


Range status and errors

Selected range

Filename D:\My Music\Ten - 2018 Illuminati\Ten - Illuminati.wav

Peak level 97.7 %
Extraction speed 1.9 X
Range quality 100.0 %
Test CRC 7D4C5E71
Copy CRC 7D4C5E71
Copy OK

No errors occurred


AccurateRip summary

Track 1 not present in database
Track 2 not present in database
Track 3 not present in database
Track 4 not present in database
Track 5 not present in database
Track 6 not present in database
Track 7 not present in database
Track 8 not present in database
Track 9 not present in database
Track 10 not present in database
Track 11 not present in database

None of the tracks are present in the AccurateRip database

End of status report

==== Log checksum EE82EDDBC47B6D438BB38113F15ED83AB53CDE8266D8DD886E9DC19BDC3FCDF9 ====

Ten - Illuminati (2018) {Japanese Edition}

See also:
Ten - Gothica (2017) {Japanese Edition}
Ten - Albums Collection (1996-2011) {Japanese Editions}

All thanks go to kolushew

>>> My Blog <<<

Download from icerbox.com: