Subcategories

Tetzlaff Quartett - Beethoven: String Quartets, Opp. 132 & 130/133 (2020)

Posted By: ArlegZ
Tetzlaff Quartett - Beethoven: String Quartets, Opp. 132 & 130/133 (2020)

Tetzlaff Quartett - Beethoven: String Quartets, Opp. 132 & 130/133 (2020)
EAC | FLAC | Image (Cue & Log) ~ 403 Mb | Total time: 100:31 | Scans included
Classical | Label: Ondine ‎| ODE 1347-2D | Recorded: 2019

This new album of Beethovens late String Quartets by the prestigious Tetzlaff Quartett offers a fitting tribute to Beethovens 250th anniversary year. These monumental works which are given fresh interpretations by the quartet are among the greatest achievements in the history of Western art music written by a composer who had already largely lost contact with the world. When writing his final String Quartets (Op. 127135) Beethoven was quickly becoming increasingly ill and understood that he would never be able to recover fully. Beethoven had just completed his 9th Symphony when he received a commission to write String Quartets. What resulted was a string of totally unique masterpieces highly individual in their language and unusual in their form. String Quartet in A minor, Op. 132 is a work in 5 movements with movements Nos. 1, 3, and 5 being the central bearers of meaning. The quartets hub and pivot is the middle part of the work, Heiliger Dankgesang eines Genesenen an die Gottheit, in der lidischen Tonart (Holy Song of Thanksgiving of a Convalescent to the Divinity, in the Lydian Mode). The biographical context of this title is obvious and specifically refers to the severe bout of illness experienced by Beethoven from the middle of April to the beginning of May 1825. The Grosse Fuge, Op. 133 is a work that has fascinated listeners for two centuries. Originally, String Quartet in B flat major, Op. 130 and Grosse Fuge Op. 133 were part of one and same work. Beethoven had written the Fuge as the final movement for the String Quartet, but his publisher urged him to write a new ending. For this album, Tetzlaff Quartett performs the String Quartet Op. 130 together with the Grosse Fuge, thus bringing the work back to its original form.

Performer:
Tetzlaff Quartett
Christian Tetzlaff, violin
Elisabeth Kufferath, violin
Hanna Weinmeister, viola
Tanja Tetzlaff, cello

Track List:
CD1:
String Quartet No. 15 in A Minor, Op. 132
01. I. Assai sostenuto - Allegro
02. II. Allegro ma non tanto
03. III. Molto adagio
04. IV. Alla marcia, assai vivace
05. V. Allegro appassionato
CD2:
String Quartet No. 13 in B-Flat Major, Op. 130
01. I. Adagio ma non troppo (12:45)
02. II. Presto
03. III. Andante con moto ma non troppo
04. IV. Alla danza tedesca. Allegro assai
05. V. Cavatina. Adagio molto espressivo
06. Große Fuge, Op. 133 (Original finale of Op. 130)


Exact Audio Copy V1.5 from 20. February 2020

EAC extraction logfile from 25. July 2020, 0:01

Tetzlaff Quartett / Beethoven - String Quartet Op.132

Used drive : ASUS SDRW-08U7M-U Adapter: 1 ID: 0

Read mode : Secure
Utilize accurate stream : Yes
Defeat audio cache : Yes
Make use of C2 pointers : No

Read offset correction : 6
Overread into Lead-In and Lead-Out : No
Fill up missing offset samples with silence : Yes
Delete leading and trailing silent blocks : No
Null samples used in CRC calculations : Yes
Used interface : Native Win32 interface for Win NT & 2000

Used output format : User Defined Encoder
Selected bitrate : 128 kBit/s
Quality : High
Add ID3 tag : No
Command line compressor : C:\Program Files (x86)\Exact Audio Copy\Flac\flac.exe
Additional command line options : -V -8 -T "Date=%year%" -T "Genre=%genre%" %source%


TOC of the extracted CD

Track | Start | Length | Start sector | End sector
––––––––––––––––––––––––––––-
1 | 0:00.00 | 9:18.11 | 0 | 41860
2 | 9:18.11 | 8:42.70 | 41861 | 81080
3 | 18:01.06 | 15:55.43 | 81081 | 152748
4 | 33:56.49 | 2:09.19 | 152749 | 162442
5 | 36:05.68 | 6:33.34 | 162443 | 191951


Range status and errors

Selected range

Filename C:\temp\Beethoven - String Quartets Opp. 132 & 130-133 - 2020\CD1\Beethoven - String Quartet Op.132.wav

Peak level 91.0 %
Extraction speed 4.2 X
Range quality 99.9 %
Test CRC 10A09B18
Copy CRC 10A09B18
Copy OK

No errors occurred


AccurateRip summary

Track 1 accurately ripped (confidence 1) [150F0ADF] (AR v2)
Track 2 accurately ripped (confidence 1) [47228BAA] (AR v2)
Track 3 accurately ripped (confidence 1) [9BA87788] (AR v2)
Track 4 accurately ripped (confidence 1) [0A22A9F0] (AR v2)
Track 5 accurately ripped (confidence 1) [ED6CCB41] (AR v2)

All tracks accurately ripped

End of status report

==== Log checksum 706B07948C080767DAE7BFE977B51720C585207A75A34FD8C17AA37A45083BF4 ====


Exact Audio Copy V1.5 from 20. February 2020

EAC extraction logfile from 25. July 2020, 0:27

Tetzlaff Quartett / Beethoven - String Quartet Op.130/133

Used drive : ASUS SDRW-08U7M-U Adapter: 1 ID: 0

Read mode : Secure
Utilize accurate stream : Yes
Defeat audio cache : Yes
Make use of C2 pointers : No

Read offset correction : 6
Overread into Lead-In and Lead-Out : No
Fill up missing offset samples with silence : Yes
Delete leading and trailing silent blocks : No
Null samples used in CRC calculations : Yes
Used interface : Native Win32 interface for Win NT & 2000

Used output format : User Defined Encoder
Selected bitrate : 128 kBit/s
Quality : High
Add ID3 tag : No
Command line compressor : C:\Program Files (x86)\Exact Audio Copy\Flac\flac.exe
Additional command line options : -V -8 -T "Date=%year%" -T "Genre=%genre%" %source%


TOC of the extracted CD

Track | Start | Length | Start sector | End sector
––––––––––––––––––––––––––––-
1 | 0:00.00 | 12:45.42 | 0 | 57416
2 | 12:45.42 | 2:03.42 | 57417 | 66683
3 | 14:49.09 | 6:25.57 | 66684 | 95615
4 | 21:14.66 | 2:54.11 | 95616 | 108676
5 | 24:09.02 | 5:31.34 | 108677 | 133535
6 | 29:40.36 | 14:34.14 | 133536 | 199099


Range status and errors

Selected range

Filename C:\temp\Beethoven - String Quartets Opp. 132 & 130-133 - 2020\CD2\Beethoven - String Quartet Op.130,133.wav

Peak level 90.9 %
Extraction speed 4.3 X
Range quality 99.9 %
Test CRC 7D0308FB
Copy CRC 7D0308FB
Copy OK

No errors occurred


AccurateRip summary

Track 1 accurately ripped (confidence 1) [3B56CE65] (AR v2)
Track 2 accurately ripped (confidence 1) [0689689A] (AR v2)
Track 3 accurately ripped (confidence 1) [5D2165FB] (AR v2)
Track 4 accurately ripped (confidence 1) [0408563E] (AR v2)
Track 5 accurately ripped (confidence 1) [7F3BB43C] (AR v2)
Track 6 accurately ripped (confidence 1) [73F5B59B] (AR v2)

All tracks accurately ripped

End of status report

==== Log checksum CD384092E7719E7FA7937EEEC85F582A24DA3BD6CAA92AE1361A361123803BD3 ====

Tetzlaff Quartett - Beethoven: String Quartets, Opp. 132 & 130/133 (2020)

Thanks to the original releaser