Subcategories

The Albion Dance Band - The Prospect Before Us (1977) Expanded Reissue 2000

Posted By: Designol
The Albion Dance Band - The Prospect Before Us (1977) Expanded Reissue 2000

The Albion Dance Band - The Prospect Before Us (1977) Expanded Reissue 2000
EAC | FLAC | Tracks (Cue&Log) ~ 274 Mb | Mp3 (CBR320) ~ 122 Mb | Scans included
British Folk, Celtic, British Folk-Rock | Label: BGO | # BGOCD486 | 00:48:15

One thing is certain in this uncertain world – you can trust Ashley Hutchings to do interesting things with various areas of British folk and rock music. In the case of the Albion Dance Band, under its various names, the focus was on mutating traditional English dance and folk music, which led to escapades involving traditional tunes, Morris dancers, double drummers, dance callers, Philip Pickett's entire collection of medieval instruments, and serious rock guitar front lines that tend to leap onto the hay cart and start blazing away. The Prospect Before Us is particularly unusual, even for Hutchings and the Albions – a number of the tracks were recorded live in the studio, complete with dancing by the Albion Morris Men, an effort that resulted in some especially raucous moments: the bonus version of "Merry Sherwood Rangers" is far more staid than the live rendition that made it to the original version of this album. An essential purchase, we think.

Review by Steven McDonald, Allmusic.com

The Albion Dance Band - The Prospect Before Us (1977) Expanded Reissue 2000



Recorded at Sound Techniques and Olympic No.1, London, 1976
Tracks 2, 5, 8, 9 & 14 recorded at dances held at Olympic in September, 1976

Includes bonus tracks
15: previously unreleased out-take from 'The Prospect Before Us' sessions
16: alternate take previously released on a single (HAR 5113)

Tracklist:

01. Uncle Bernard's / Jenny Lind (3:47)
02. The Hunt Is Up (1:54)
03. Varsovinna (2:51)
04. Masque (1:02)
05. Huntsman's Chorus (4:32)
06. Minuet (2:11)
07. Wassail Song (2:37)
08. Picking Of Sticks / The Old Mole (3:16)
09. Merry Sherwood Rangers (3:24)
10. La Sexte Estampie Real (1:58)
11. I Wish I Was Single Again (3:43)
12. The Whim (3:33)
13. Hopping Down In Kent (2:47)
14. Horse's Brawl (3:48)

Extra Tracks:
15. On Christmas Night All Christians Sing (3:43)
16. Merry Sherwood Rangers (3:07)


Exact Audio Copy V0.99 prebeta 3 from 28. July 2007

EAC extraction logfile from 23. January 2010, 21:36

Albion Dance Band / The Prospect Before Us

Used drive : HL-DT-STDVD-RAM GH22LP20 Adapter: 0 ID: 0

Read mode : Secure
Utilize accurate stream : Yes
Defeat audio cache : Yes
Make use of C2 pointers : No

Read offset correction : 102
Overread into Lead-In and Lead-Out : No
Fill up missing offset samples with silence : Yes
Delete leading and trailing silent blocks : No
Null samples used in CRC calculations : Yes
Used interface : Native Win32 interface for Win NT & 2000
Gap handling : Appended to previous track

Used output format : Internal WAV Routines
Sample format : 44.100 Hz; 16 Bit; Stereo


TOC of the extracted CD

Track | Start | Length | Start sector | End sector
––––––––––––––––––––––––––––-
1 | 0:00.00 | 3:46.40 | 0 | 16989
2 | 3:46.40 | 1:54.37 | 16990 | 25576
3 | 5:41.02 | 2:51.13 | 25577 | 38414
4 | 8:32.15 | 1:02.07 | 38415 | 43071
5 | 9:34.22 | 4:32.33 | 43072 | 63504
6 | 14:06.55 | 2:11.32 | 63505 | 73361
7 | 16:18.12 | 2:37.33 | 73362 | 85169
8 | 18:55.45 | 3:16.30 | 85170 | 99899
9 | 22:12.00 | 3:24.22 | 99900 | 115221
10 | 25:36.22 | 1:57.50 | 115222 | 124046
11 | 27:33.72 | 3:43.05 | 124047 | 140776
12 | 31:17.02 | 3:32.38 | 140777 | 156714
13 | 34:49.40 | 2:47.27 | 156715 | 169266
14 | 37:36.67 | 3:47.60 | 169267 | 186351
15 | 41:24.52 | 3:43.13 | 186352 | 203089
16 | 45:07.65 | 3:07.00 | 203090 | 217114


Track 1

Filename I:\The Albion Dance Band - The Prospect Before Us (1976) [FLAC]\01 - Uncle Bernard's , Jenny Lind.wav

Pre-gap length 0:00:02.00

Peak level 96.2 %
Track quality 100.0 %
Test CRC 2CA7CA8E
Copy CRC 2CA7CA8E
Cannot be verified as accurate (confidence 1) [F62FF25D], AccurateRip returned [467F9FDA]
Copy OK

Track 2

Filename I:\The Albion Dance Band - The Prospect Before Us (1976) [FLAC]\02 - The Hunt Is Up.wav

Peak level 98.8 %
Track quality 100.0 %
Test CRC BAA2DE88
Copy CRC BAA2DE88
Cannot be verified as accurate (confidence 1) [A3EC6A4D], AccurateRip returned [E874124E]
Copy OK

Track 3

Filename I:\The Albion Dance Band - The Prospect Before Us (1976) [FLAC]\03 - Varsovinna.wav

Pre-gap length 0:00:01.49

Peak level 98.8 %
Track quality 100.0 %
Test CRC 86CB94DA
Copy CRC 86CB94DA
Cannot be verified as accurate (confidence 1) [7DB495CA], AccurateRip returned [AA2F9834]
Copy OK

Track 4

Filename I:\The Albion Dance Band - The Prospect Before Us (1976) [FLAC]\04 - Masque.wav

Pre-gap length 0:00:02.00

Peak level 78.5 %
Track quality 99.8 %
Test CRC FD446777
Copy CRC FD446777
Cannot be verified as accurate (confidence 1) [0FBAEF02], AccurateRip returned [22870EAE]
Copy OK

Track 5

Filename I:\The Albion Dance Band - The Prospect Before Us (1976) [FLAC]\05 - Huntsman's Chorus.wav

Pre-gap length 0:00:01.36

Peak level 98.8 %
Track quality 100.0 %
Test CRC 08DBCA92
Copy CRC 08DBCA92
Cannot be verified as accurate (confidence 1) [B327BE35], AccurateRip returned [61D46FDA]
Copy OK

Track 6

Filename I:\The Albion Dance Band - The Prospect Before Us (1976) [FLAC]\06 - Minuet.wav

Peak level 60.7 %
Track quality 100.0 %
Test CRC 1BF6C35C
Copy CRC 1BF6C35C
Cannot be verified as accurate (confidence 1) [EAC22122], AccurateRip returned [00DE3D8F]
Copy OK

Track 7

Filename I:\The Albion Dance Band - The Prospect Before Us (1976) [FLAC]\07 - Wassail Song.wav

Pre-gap length 0:00:02.09

Peak level 98.8 %
Track quality 100.0 %
Test CRC 517135D2
Copy CRC 517135D2
Cannot be verified as accurate (confidence 1) [51590EC6], AccurateRip returned [C7714A64]
Copy OK

Track 8

Filename I:\The Albion Dance Band - The Prospect Before Us (1976) [FLAC]\08 - Picking Of Sticks , The Old Mole.wav

Peak level 98.8 %
Track quality 100.0 %
Test CRC 29AD885A
Copy CRC 29AD885A
Cannot be verified as accurate (confidence 1) [46034FA3], AccurateRip returned [58C0BBE5]
Copy OK

Track 9

Filename I:\The Albion Dance Band - The Prospect Before Us (1976) [FLAC]\09 - Merry Sherwood Rangers.wav

Pre-gap length 0:00:01.97

Peak level 98.8 %
Track quality 100.0 %
Test CRC 5B78F793
Copy CRC 5B78F793
Cannot be verified as accurate (confidence 1) [77EBF9B8], AccurateRip returned [B1545B28]
Copy OK

Track 10

Filename I:\The Albion Dance Band - The Prospect Before Us (1976) [FLAC]\10 - La Sexte Estampie Real.wav

Pre-gap length 0:00:02.96

Peak level 98.8 %
Track quality 100.0 %
Test CRC 42E70D08
Copy CRC 42E70D08
Cannot be verified as accurate (confidence 1) [56A5472B], AccurateRip returned [5BCD897D]
Copy OK

Track 11

Filename I:\The Albion Dance Band - The Prospect Before Us (1976) [FLAC]\11 - I Wish I Was Single Again.wav

Pre-gap length 0:00:02.02

Peak level 98.8 %
Track quality 100.0 %
Test CRC CABCDFD7
Copy CRC CABCDFD7
Cannot be verified as accurate (confidence 1) [F7E4EC81], AccurateRip returned [C56BE98F]
Copy OK

Track 12

Filename I:\The Albion Dance Band - The Prospect Before Us (1976) [FLAC]\12 - The Whim.wav

Peak level 98.8 %
Track quality 99.9 %
Test CRC 294C0DDF
Copy CRC 294C0DDF
Cannot be verified as accurate (confidence 1) [9642F95B], AccurateRip returned [72846349]
Copy OK

Track 13

Filename I:\The Albion Dance Band - The Prospect Before Us (1976) [FLAC]\13 - Hopping Down In Kent.wav

Pre-gap length 0:00:01.00

Peak level 98.8 %
Track quality 99.9 %
Test CRC CE8A093D
Copy CRC CE8A093D
Cannot be verified as accurate (confidence 1) [3F97FBDB], AccurateRip returned [30E0BE09]
Copy OK

Track 14

Filename I:\The Albion Dance Band - The Prospect Before Us (1976) [FLAC]\14 - Horse's Brawl.wav

Peak level 98.8 %
Track quality 99.9 %
Test CRC 2E1F174C
Copy CRC 2E1F174C
Cannot be verified as accurate (confidence 1) [8CA26449], AccurateRip returned [A6792105]
Copy OK

Track 15

Filename I:\The Albion Dance Band - The Prospect Before Us (1976) [FLAC]\15 - On Christmas Night All Christians Sing.wav

Pre-gap length 0:00:01.66

Peak level 98.8 %
Track quality 100.0 %
Test CRC C46B1664
Copy CRC C46B1664
Cannot be verified as accurate (confidence 1) [A35BC661], AccurateRip returned [8AB0DB47]
Copy OK

Track 16

Filename I:\The Albion Dance Band - The Prospect Before Us (1976) [FLAC]\16 - Merry Sherwood Rangers.wav

Pre-gap length 0:00:01.00

Peak level 98.8 %
Track quality 100.0 %
Test CRC 3087F918
Copy CRC 3087F918
Cannot be verified as accurate (confidence 1) [8E1B5E2A], AccurateRip returned [2AEA7554]
Copy OK


No tracks could be verified as accurate
You may have a different pressing from the one(s) in the database

No errors occurred

End of status report

[CUETools log; Date: 07.04.2018 20:42:21; Version: 2.1.4]
[CTDB TOCID: uLV9JvAHTxpw4ErJ24HOKsvkko4-] found.
Track | CTDB Status
1 | (8/8) Accurately ripped
2 | (8/8) Accurately ripped
3 | (8/8) Accurately ripped
4 | (8/8) Accurately ripped
5 | (8/8) Accurately ripped
6 | (8/8) Accurately ripped
7 | (8/8) Accurately ripped
8 | (8/8) Accurately ripped
9 | (8/8) Accurately ripped
10 | (8/8) Accurately ripped
11 | (8/8) Accurately ripped
12 | (8/8) Accurately ripped
13 | (8/8) Accurately ripped
14 | (8/8) Accurately ripped
15 | (8/8) Accurately ripped
16 | (8/8) Accurately ripped
[AccurateRip ID: 001ad570-014510e5-ee0b4e10] found.
Track [ CRC | V2 ] Status
01 [f62ff25d|d4f6eb82] (02+02/10) Accurately ripped
02 [a3ec6a4d|c954f642] (02+02/10) Accurately ripped
03 [7db495ca|c247750c] (02+02/10) Accurately ripped
04 [0fbaef02|eeec2be6] (02+02/10) Accurately ripped
05 [b327be35|cdc16b73] (02+02/10) Accurately ripped
06 [eac22122|51550fd4] (02+02/10) Accurately ripped
07 [51590ec6|22a29486] (02+02/10) Accurately ripped
08 [46034fa3|2d14cda6] (02+02/10) Accurately ripped
09 [77ebf9b8|145da7e5] (02+02/10) Accurately ripped
10 [56a5472b|387bbf51] (02+02/10) Accurately ripped
11 [f7e4ec81|3cbe647f] (02+02/10) Accurately ripped
12 [9642f95b|adc275c2] (02+02/10) Accurately ripped
13 [3f97fbdb|3ccac477] (02+02/10) Accurately ripped
14 [8ca26449|04b9fb6a] (02+02/10) Accurately ripped
15 [a35bc661|7fec8d1b] (03+02/11) Accurately ripped
16 [8e1b5e2a|24b388cc] (02+02/10) Accurately ripped
Offsetted by -712:
01 [fd57a285] (00/10) No match (V2 was not tested)
02 [08aef115] (00/10) No match (V2 was not tested)
03 [b95b5c82] (00/10) No match (V2 was not tested)
04 [93274792] (00/10) No match (V2 was not tested)
05 [2dcc6b1e] (00/10) No match (V2 was not tested)
06 [593edd25] (00/10) No match (V2 was not tested)
07 [58bc2158] (00/10) No match (V2 was not tested)
08 [ff123d11] (00/10) No match (V2 was not tested)
09 [bc68c4f8] (00/10) No match (V2 was not tested)
10 [d6674bc3] (00/10) No match (V2 was not tested)
11 [7ec38469] (00/10) No match (V2 was not tested)
12 [98b0dfc3] (00/10) No match (V2 was not tested)
13 [5fb65d43] (00/10) No match (V2 was not tested)
14 [4f59cf99] (00/10) No match (V2 was not tested)
15 [2380e569] (00/11) No match (V2 was not tested)
16 [ccdca5e2] (00/10) No match (V2 was not tested)
Offsetted by -664:
01 [41d687b9] (00/10) No match (V2 was not tested)
02 [02389181] (00/10) No match (V2 was not tested)
03 [e63bfbb2] (00/10) No match (V2 was not tested)
04 [117c0532] (00/10) No match (V2 was not tested)
05 [6e218cf5] (00/10) No match (V2 was not tested)
06 [bd8f30aa] (00/10) No match (V2 was not tested)
07 [71a12ad5] (00/10) No match (V2 was not tested)
08 [4aab4214] (00/10) No match (V2 was not tested)
09 [f4325578] (00/10) No match (V2 was not tested)
10 [e4cd45b3] (00/10) No match (V2 was not tested)
11 [e5d9e779] (00/10) No match (V2 was not tested)
12 [dd8f93d3] (00/10) No match (V2 was not tested)
13 [38275f53] (00/10) No match (V2 was not tested)
14 [8d02a8b9] (00/10) No match (V2 was not tested)
15 [e1561fb9] (00/11) No match (V2 was not tested)
16 [7256cf12] (00/10) No match (V2 was not tested)

Track Peak [ CRC32 ] [W/O NULL] [ LOG ]
– 98,8 [98447687] [9D2E085B]
01 96,2 [2CA7CA8E] [8FE079AF] CRC32
02 98,8 [BAA2DE88] [B4BF2D68] CRC32
03 98,8 [86CB94DA] [D0EC0814] CRC32
04 78,5 [FD446777] [5D78E086] CRC32
05 98,8 [08DBCA92] [6C96D361] CRC32
06 60,7 [1BF6C35C] [3CF28142] CRC32
07 98,8 [517135D2] [FEA72BBD] CRC32
08 98,8 [29AD885A] [96693AD9] CRC32
09 98,8 [5B78F793] [205B5665] CRC32
10 98,7 [42E70D08] [AA374859] CRC32
11 98,8 [CABCDFD7] [8A80B508] CRC32
12 98,8 [294C0DDF] [3133B7C2] CRC32
13 98,8 [CE8A093D] [F9855065] CRC32
14 98,8 [2E1F174C] [D43E70B4] CRC32
15 98,8 [C46B1664] [967CC30C] CRC32
16 98,8 [3087F918] [D78F6083] CRC32

foobar2000 1.2 / Dynamic Range Meter 1.1.1
log date: 2018-04-07 20:59:17

––––––––––––––––––––––––––––––––––––––––
Analyzed: The Albion Dance Band / The Prospect Before Us
––––––––––––––––––––––––––––––––––––––––

DR Peak RMS Duration Track
––––––––––––––––––––––––––––––––––––––––
DR14 -0.33 dB -15.72 dB 3:47 01-Uncle Bernard's , Jenny Lind
DR14 -0.10 dB -16.31 dB 1:54 02-The Hunt Is Up
DR14 -0.10 dB -17.32 dB 2:51 03-Varsovinna
DR13 -2.10 dB -17.01 dB 1:02 04-Masque
DR13 -0.10 dB -15.41 dB 4:32 05-Huntsman's Chorus
DR10 -4.33 dB -17.65 dB 2:11 06-Minuet
DR13 -0.10 dB -15.53 dB 2:37 07-Wassail Song
DR13 -0.10 dB -16.10 dB 3:16 08-Picking Of Sticks , The Old Mole
DR14 -0.10 dB -16.54 dB 3:24 09-Merry Sherwood Rangers
DR13 -0.11 dB -15.99 dB 1:58 10-La Sexte Estampie Real
DR14 -0.10 dB -15.88 dB 3:43 11-I Wish I Was Single Again
DR14 -0.10 dB -19.01 dB 3:33 12-The Whim
DR12 -0.10 dB -14.69 dB 2:47 13-Hopping Down In Kent
DR13 -0.10 dB -16.74 dB 3:48 14-Horse's Brawl
DR15 -0.10 dB -17.26 dB 3:43 15-On Christmas Night All Christians Sing
DR12 -0.10 dB -14.81 dB 3:07 16-Merry Sherwood Rangers
––––––––––––––––––––––––––––––––––––––––

Number of tracks: 16
Official DR value: DR13

Samplerate: 44100 Hz
Channels: 2
Bits per sample: 16
Bitrate: 702 kbps
Codec: FLAC
================================================================================

The Albion Dance Band - The Prospect Before Us (1977) Expanded Reissue 2000

The Albion Dance Band - The Prospect Before Us (1977) Expanded Reissue 2000