Tags
Language
Tags

The Beatles - Anthology 3 (1996) Repost

Posted By: v3122
The Beatles - Anthology 3 (1996) Repost

The Beatles - Anthology 3 (1996)
EAC | Flac(Image) + Cue + Log & MP3 CBR 320Kbps
2CD | Apple/EMI, 7243 8 34451 2 7/CDPCSP 729 | ~ 784 or 344 Mb | Artwork(png) -> 89 Mb
Rock, Rock & Roll, Psychedelic, Pop Rock, Beat

The final installment of the Anthology series has two discs of previously unreleased material from the White Album era through the group's demise in early 1970. In terms of sheer listenability, this may be the strongest volume of the three, if only because it focuses almost solely upon studio recordings rather than mixing live concerts/broadcasts and outtakes. Also, by this time the Beatles had perfected their approach to recording, meaning that even the early/alternate versions of many of their cuts were often of outstanding quality. There's some prime stuff here: "unplugged" White Album demos from mid-1968, radically different versions of "While My Guitar Gently Weeps" and "Helter Skelter," a stringless "The Long and Winding Road," three beautifully sung and played Harrison solo demos from early 1969, and several songs the Beatles never released, like "All Things Must Pass," "Not Guilty," "Teddy Boy," "Come and Get It," and "Junk." Not everything here is so great that the casual consumer will be fascinated, of course. As on previous Anthology sets, some of these alternates are only very slightly different from the official versions; the oldies covers from the Let It Be era are off-the-cuff jams that aren't up to the group's usual level of brilliance. It's still a fascinating collection, both for the insight it affords you into the group's creative process at the end of their career, and for the considerable excellence of the music itself.

by Richie Unterberger, allmusic
The Beatles - Anthology 3 (1996):

The Beatles - Anthology 3 (1996) Repost

Tracklist CD1:

01. A Beginning (00:50)
02. Happiness Is A Warm Gun (02:15)
03. Helter Skelter (04:38)
04. Mean Mr. Mustard (01:58)
05. Polythene Pam (01:26)
06. Glass Onion (01:51)
07. Junk (02:25)
08. Piggies (02:01)
09. Honey Pie (01:19)
10. Don't Pass Me By (02:42)
11. Ob-La-Di Ob-La-Da (02:56)
12. Good Night (02:38)
13. Cry Baby Cry (02:47)
14. Blackbird (02:19)
15. Sexy Sadie (04:06)
16. While My Guitar Gently Weeps (03:27)
17. Hey Jude (04:21)
18. Not Guilty (03:22)
19. Mother Nature's Son (03:17)
20. Glass Onion (02:08)
21. Rocky Raccoon (04:13)
22. What's The New Mary Jane (06:12)
23. Step Inside Love Los Paranoias (02:31)
24. I'm So Tired (02:14)
25. I Will (01:55)
26. Why Don't We Do It In The Road (02:15)
27. Julia (01:57)

Exact Audio Copy V1.0 beta 3 from 29. August 2011

EAC extraction logfile from 6. July 2013, 15:48

The Beatles / Anthology 3 (Disc 1)

Used drive : PLEXTOR DVDR PX-891SA Adapter: 1 ID: 0

Read mode : Secure
Utilize accurate stream : Yes
Defeat audio cache : Yes
Make use of C2 pointers : No

Read offset correction : 6
Overread into Lead-In and Lead-Out : No
Fill up missing offset samples with silence : Yes
Delete leading and trailing silent blocks : No
Null samples used in CRC calculations : Yes
Used interface : Native Win32 interface for Win NT & 2000

Used output format : User Defined Encoder
Selected bitrate : 1024 kBit/s
Quality : High
Add ID3 tag : No
Command line compressor : C:\Program Files\Exact Audio Copy\Flac\flac.exe
Additional command line options : -V -8 -T "Genre=%genre%" -T "Artist=%artist%" -T "Title=%title%" -T "Album=%albumtitle%" -T "Date=%year%" -T "Tracknumber=%tracknr%" -T "Comment=%comment%" %source%


TOC of the extracted CD

Track | Start | Length | Start sector | End sector
––––––––––––––––––––––––––––-
1 | 0:00.00 | 0:50.10 | 0 | 3759
2 | 0:50.10 | 2:14.67 | 3760 | 13876
3 | 3:05.02 | 4:37.65 | 13877 | 34716
4 | 7:42.67 | 1:57.65 | 34717 | 43556
5 | 9:40.57 | 1:26.25 | 43557 | 50031
6 | 11:07.07 | 1:51.05 | 50032 | 58361
7 | 12:58.12 | 2:24.53 | 58362 | 69214
8 | 15:22.65 | 2:01.00 | 69215 | 78289
9 | 17:23.65 | 1:19.00 | 78290 | 84214
10 | 18:42.65 | 2:42.12 | 84215 | 96376
11 | 21:25.02 | 2:56.08 | 96377 | 109584
12 | 24:21.10 | 2:37.70 | 109585 | 121429
13 | 26:59.05 | 2:46.40 | 121430 | 133919
14 | 29:45.45 | 2:18.65 | 133920 | 144334
15 | 32:04.35 | 4:06.10 | 144335 | 162794
16 | 36:10.45 | 3:27.27 | 162795 | 178346
17 | 39:37.72 | 4:21.05 | 178347 | 197926
18 | 43:59.02 | 3:22.30 | 197927 | 213106
19 | 47:21.32 | 3:17.18 | 213107 | 227899
20 | 50:38.50 | 2:08.32 | 227900 | 237531
21 | 52:47.07 | 4:12.43 | 237532 | 256474
22 | 56:59.50 | 6:12.07 | 256475 | 284381
23 | 63:11.57 | 2:30.70 | 284382 | 295701
24 | 65:42.52 | 2:14.28 | 295702 | 305779
25 | 67:57.05 | 1:55.17 | 305780 | 314421
26 | 69:52.22 | 2:15.15 | 314422 | 324561
27 | 72:07.37 | 1:57.25 | 324562 | 333361


Range status and errors

Selected range

Filename H:\dafnaplus\Beatles - Anthology 1-3\Anthology 3\Disc 1\The Beatles - Anthology 3 (Disc 1).wav

Peak level 93.7 %
Extraction speed 9.1 X
Range quality 99.9 %
Test CRC 8300CFA2
Copy CRC 8300CFA2
Copy OK

No errors occurred


AccurateRip summary

Track 1 accurately ripped (confidence 27) [A1C0067F] (AR v2)
Track 2 accurately ripped (confidence 27) [5D3063FA] (AR v2)
Track 3 accurately ripped (confidence 27) [41D934E5] (AR v2)
Track 4 accurately ripped (confidence 27) [837183F4] (AR v2)
Track 5 accurately ripped (confidence 27) [ED257CE2] (AR v2)
Track 6 accurately ripped (confidence 27) [7407AA43] (AR v2)
Track 7 accurately ripped (confidence 27) [49E905EA] (AR v2)
Track 8 accurately ripped (confidence 27) [5C404CAC] (AR v2)
Track 9 accurately ripped (confidence 27) [225C7586] (AR v2)
Track 10 accurately ripped (confidence 27) [A319570E] (AR v2)
Track 11 accurately ripped (confidence 27) [D9389490] (AR v2)
Track 12 accurately ripped (confidence 27) [895CB913] (AR v2)
Track 13 accurately ripped (confidence 27) [8BCA7E8B] (AR v2)
Track 14 accurately ripped (confidence 27) [5E33E523] (AR v2)
Track 15 accurately ripped (confidence 27) [F979CD52] (AR v2)
Track 16 accurately ripped (confidence 26) [27A84A66] (AR v2)
Track 17 accurately ripped (confidence 27) [D56FFF42] (AR v2)
Track 18 accurately ripped (confidence 27) [B7A3AEB6] (AR v2)
Track 19 accurately ripped (confidence 27) [E222AF90] (AR v2)
Track 20 accurately ripped (confidence 27) [117E1FEF] (AR v2)
Track 21 accurately ripped (confidence 26) [23FF7078] (AR v2)
Track 22 accurately ripped (confidence 26) [65467288] (AR v2)
Track 23 accurately ripped (confidence 27) [F4849FCF] (AR v2)
Track 24 accurately ripped (confidence 26) [98BF6B3D] (AR v2)
Track 25 accurately ripped (confidence 26) [C776A2BD] (AR v2)
Track 26 accurately ripped (confidence 26) [715086FC] (AR v2)
Track 27 accurately ripped (confidence 26) [D4E3733B] (AR v2)

All tracks accurately ripped

End of status report

==== Log checksum E737127A8C1FA9A7AA5AF913DF42AB1ECD82A8D13E014EC64E9C4FD2392DEFAB ====


[CUETools log; Date: 17.09.2013 19:00:39; Version: 2.1.4]
[CTDB TOCID: oXuZdFrK4vj08U_H1QreFYldm8w-] found.
Track | CTDB Status
1 | (188/190) Accurately ripped
2 | (187/190) Accurately ripped
3 | (187/190) Accurately ripped
4 | (185/190) Accurately ripped
5 | (185/190) Accurately ripped
6 | (186/190) Accurately ripped
7 | (187/190) Accurately ripped
8 | (187/190) Accurately ripped
9 | (187/190) Accurately ripped
10 | (187/190) Accurately ripped
11 | (187/190) Accurately ripped
12 | (188/190) Accurately ripped
13 | (186/190) Accurately ripped
14 | (186/190) Accurately ripped, or (2/190) differs in 115 samples @01:43:03-01:43:04,01:43:68-01:43:69,01:44:42
15 | (186/190) Accurately ripped
16 | (187/190) Accurately ripped
17 | (187/190) Accurately ripped
18 | (185/190) Accurately ripped
19 | (185/190) Accurately ripped
20 | (185/190) Accurately ripped
21 | (186/190) Accurately ripped
22 | (185/190) Accurately ripped
23 | (184/190) Accurately ripped
24 | (186/190) Accurately ripped
25 | (186/190) Accurately ripped
26 | (185/190) Accurately ripped
27 | (185/190) Accurately ripped
[AccurateRip ID: 0042bdcd-05329131-94115c1b] found.
Track [ CRC | V2 ] Status
01 [e82efec7|a1c0067f] (200+109/875) Accurately ripped
02 [5573b86e|5d3063fa] (200+109/875) Accurately ripped
03 [59abff9e|41d934e5] (200+109/877) Accurately ripped
04 [5732bd7b|837183f4] (200+108/875) Accurately ripped
05 [e1e3e9a5|ed257ce2] (200+108/872) Accurately ripped
06 [9b4328ff|7407aa43] (200+108/873) Accurately ripped
07 [96d7be78|49e905ea] (200+109/878) Accurately ripped
08 [8e5cf46f|5c404cac] (200+109/874) Accurately ripped
09 [d2eb3794|225c7586] (200+109/877) Accurately ripped
10 [adfe1b2d|a319570e] (200+109/873) Accurately ripped
11 [78ade0c2|d9389490] (200+108/873) Accurately ripped
12 [23ea4237|895cb913] (200+108/871) Accurately ripped
13 [1c0a5e7e|8bca7e8b] (200+109/876) Accurately ripped
14 [2ea3cb39|5e33e523] (200+109/870) Accurately ripped
15 [000347ea|f979cd52] (200+108/867) Accurately ripped
16 [046aff26|27a84a66] (200+108/870) Accurately ripped
17 [68b20df7|d56fff42] (200+109/868) Accurately ripped
18 [43d495bf|b7a3aeb6] (200+108/869) Accurately ripped
19 [1d77ad20|e222af90] (200+108/870) Accurately ripped
20 [8d9791a8|117e1fef] (200+109/868) Accurately ripped
21 [89073f9b|23ff7078] (200+107/866) Accurately ripped
22 [76434018|65467288] (200+106/856) Accurately ripped
23 [894c92f6|f4849fcf] (200+107/860) Accurately ripped
24 [4cf424f3|98bf6b3d] (200+105/861) Accurately ripped
25 [10b33d02|c776a2bd] (200+106/859) Accurately ripped
26 [99b1b64e|715086fc] (200+103/853) Accurately ripped
27 [988683df|d4e3733b] (200+107/855) Accurately ripped
Offsetted by -2177:
01 [f826e33c] (006/875) Accurately ripped
02 [60691c0f] (006/875) Accurately ripped
03 [5570bc9f] (006/877) Accurately ripped
04 [d5f56421] (006/875) Accurately ripped
05 [bb1633d5] (006/872) Accurately ripped
06 [81f33c63] (006/873) Accurately ripped
07 [780ca3a8] (006/878) Accurately ripped
08 [c07dac76] (006/874) Accurately ripped
09 [a1776138] (006/877) Accurately ripped
10 [e7df3e17] (006/873) Accurately ripped
11 [96b51e0a] (005/873) Accurately ripped
12 [e793016c] (005/871) Accurately ripped
13 [85499d12] (006/876) Accurately ripped
14 [5e92b206] (006/870) Accurately ripped
15 [1a129997] (006/867) Accurately ripped
16 [5d2882cb] (006/870) Accurately ripped
17 [cc6d6e77] (006/868) Accurately ripped
18 [d7532073] (006/869) Accurately ripped
19 [c133f53b] (006/870) Accurately ripped
20 [3314f388] (006/868) Accurately ripped
21 [832fda89] (006/866) Accurately ripped
22 [f2d4d936] (006/856) Accurately ripped
23 [dfcf2a4a] (006/860) Accurately ripped
24 [5c426afb] (006/861) Accurately ripped
25 [1c82c9c1] (006/859) Accurately ripped
26 [f0cedfa4] (006/853) Accurately ripped
27 [feec1ed0] (006/855) Accurately ripped
Offsetted by -1531:
01 [185672fe] (032/875) Accurately ripped
02 [002486c9] (032/875) Accurately ripped
03 [17e6bf19] (032/877) Accurately ripped
04 [28d26b59] (032/875) Accurately ripped
05 [4722f539] (032/872) Accurately ripped
06 [28363a0b] (032/873) Accurately ripped
07 [49aedc88] (032/878) Accurately ripped
08 [ce30efcc] (032/874) Accurately ripped
09 [fe38f960] (032/877) Accurately ripped
10 [d7a3419b] (032/873) Accurately ripped
11 [7b73d25a] (032/873) Accurately ripped
12 [e75ed0ae] (032/871) Accurately ripped
13 [55d42f9a] (031/876) Accurately ripped
14 [cfb3dfb8] (031/870) Accurately ripped
15 [7378b609] (031/867) Accurately ripped
16 [8652ef6d] (031/870) Accurately ripped
17 [5fb16b77] (030/868) Accurately ripped
18 [d5c5fa3b] (032/869) Accurately ripped
19 [dc58a219] (032/870) Accurately ripped
20 [f2379848] (032/868) Accurately ripped
21 [f792cff5] (031/866) Accurately ripped
22 [ae1df182] (030/856) Accurately ripped
23 [cfe60852] (031/860) Accurately ripped
24 [cf4f4acb] (030/861) Accurately ripped
25 [391becc7] (029/859) Accurately ripped
26 [067732a0] (028/853) Accurately ripped
27 [13ece5aa] (026/855) Accurately ripped
Offsetted by -867:
01 [af835f86] (200/875) Accurately ripped
02 [9a05a931] (200/875) Accurately ripped
03 [e2289081] (200/877) Accurately ripped
04 [5c0ab114] (200/875) Accurately ripped
05 [c494920e] (200/872) Accurately ripped
06 [a12c9eab] (200/873) Accurately ripped
07 [843aa808] (200/878) Accurately ripped
08 [67c3f1a4] (200/874) Accurately ripped
09 [7160a800] (200/877) Accurately ripped
10 [ec33aaab] (200/873) Accurately ripped
11 [090c3f9a] (200/873) Accurately ripped
12 [5a155b36] (200/871) Accurately ripped
13 [e278cfba] (200/876) Accurately ripped
14 [16ced800] (200/870) Accurately ripped
15 [9580f951] (200/867) Accurately ripped
16 [61613775] (200/870) Accurately ripped
17 [52351f77] (200/868) Accurately ripped
18 [fbcea75b] (200/869) Accurately ripped
19 [2eeee011] (200/870) Accurately ripped
20 [ff983b48] (200/868) Accurately ripped
21 [cb241ea5] (200/866) Accurately ripped
22 [3e4633b2] (200/856) Accurately ripped
23 [62057672] (200/860) Accurately ripped
24 [2512060b] (200/861) Accurately ripped
25 [adafd15f] (200/859) Accurately ripped
26 [f5e40390] (200/853) Accurately ripped
27 [fc565092] (200/855) Accurately ripped
Offsetted by -664:
01 [5102123f] (004/875) Accurately ripped
02 [bb929606] (004/875) Accurately ripped
03 [8f6a2e36] (004/877) Accurately ripped
04 [aad09a30] (004/875) Accurately ripped
05 [09ccb6a0] (004/872) Accurately ripped
06 [224cc45f] (004/873) Accurately ripped
07 [5c4bf2f8] (004/878) Accurately ripped
08 [f4c9f297] (004/874) Accurately ripped
09 [5fc388f4] (004/877) Accurately ripped
10 [996db21d] (004/873) Accurately ripped
11 [eb157382] (004/873) Accurately ripped
12 [b133b7af] (004/871) Accurately ripped
13 [8f65be5e] (004/876) Accurately ripped
14 [e788d2f1] (004/870) Accurately ripped
15 [ddfb04a2] (004/867) Accurately ripped
16 [295cb71e] (004/870) Accurately ripped
17 [762e59f7] (004/868) Accurately ripped
18 [1dcbe89f] (004/869) Accurately ripped
19 [cae16f28] (004/870) Accurately ripped
20 [8036eea8] (004/868) Accurately ripped
21 [b575f0eb] (004/866) Accurately ripped
22 [e61afde8] (004/856) Accurately ripped
23 [f72d24d6] (004/860) Accurately ripped
24 [f73169b3] (004/861) Accurately ripped
25 [9c1f586a] (004/859) Accurately ripped
26 [aa44e55e] (004/853) Accurately ripped
27 [b01d18f7] (004/855) Accurately ripped
Offsetted by -662:
01 [ec738e55] (009/875) Accurately ripped
02 [4924ffc4] (009/875) Accurately ripped
03 [e59d4534] (009/877) Accurately ripped
04 [080a035b] (009/875) Accurately ripped
05 [8a499609] (009/872) Accurately ripped
06 [1d444197] (009/873) Accurately ripped
07 [4b825898] (009/878) Accurately ripped
08 [928d7989] (009/874) Accurately ripped
09 [295d19ac] (009/877) Accurately ripped
10 [d667f649] (009/873) Accurately ripped
11 [c4f4c0f2] (009/873) Accurately ripped
12 [da6a3e45] (009/871) Accurately ripped
13 [32851536] (009/876) Accurately ripped
14 [8d882257] (008/870) Accurately ripped
15 [bb625e48] (008/867) Accurately ripped
16 [043d24d4] (008/870) Accurately ripped
17 [47e018f7] (008/868) Accurately ripped
18 [b06ac737] (008/869) Accurately ripped
19 [7bb529f2] (008/870) Accurately ripped
20 [c1cc0ae8] (008/868) Accurately ripped
21 [a397890f] (008/866) Accurately ripped
22 [1a33c9ac] (007/856) Accurately ripped
23 [d04a8a2e] (008/860) Accurately ripped
24 [65b765a3] (008/861) Accurately ripped
25 [dec96dec] (008/859) Accurately ripped
26 [343e48b2] (008/853) Accurately ripped
27 [55d36415] (008/855) Accurately ripped
Offsetted by -273:
01 [062c550c] (028/875) Accurately ripped
02 [d8e2569f] (029/875) Accurately ripped
03 [e36e3d2f] (028/877) Accurately ripped
04 [c30622bb] (029/875) Accurately ripped
05 [99079a1b] (029/872) Accurately ripped
06 [ca4ce4a3] (028/873) Accurately ripped
07 [0a568ea8] (028/878) Accurately ripped
08 [6f9b8066] (028/874) Accurately ripped
09 [54898d78] (029/877) Accurately ripped
10 [aa8cc1b7] (029/873) Accurately ripped
11 [cd1d168a] (029/873) Accurately ripped
12 [2a577f3c] (028/871) Accurately ripped
13 [21d49052] (029/876) Accurately ripped
14 [ac01f556] (028/870) Accurately ripped
15 [7267fae7] (029/867) Accurately ripped
16 [4fc07f9b] (027/870) Accurately ripped
17 [996bb677] (028/868) Accurately ripped
18 [161ee5b3] (028/869) Accurately ripped
19 [5492946b] (028/870) Accurately ripped
20 [15960188] (026/868) Accurately ripped
21 [101da069] (027/866) Accurately ripped
22 [af0a9a16] (026/856) Accurately ripped
23 [4520098a] (026/860) Accurately ripped
24 [5e834f7b] (027/861) Accurately ripped
25 [0502c531] (026/859) Accurately ripped
26 [08384004] (027/853) Accurately ripped
27 [3cd37660] (026/855) Accurately ripped
Offsetted by -94:
01 [5e5936bd] (011/875) Accurately ripped
02 [57924e8c] (011/875) Accurately ripped
03 [864ac6fc] (011/877) Accurately ripped
04 [48a1470d] (011/875) Accurately ripped
05 [4b47e047] (011/872) Accurately ripped
06 [87d32bb7] (011/873) Accurately ripped
07 [abdb1618] (011/878) Accurately ripped
08 [97772e01] (011/874) Accurately ripped
09 [cfb9a5cc] (011/877) Accurately ripped
10 [7c0b9719] (010/873) Accurately ripped
11 [78aea932] (011/873) Accurately ripped
12 [92e78cad] (011/871) Accurately ripped
13 [29496cd6] (011/876) Accurately ripped
14 [b4c4377f] (011/870) Accurately ripped
15 [5a09d270] (011/867) Accurately ripped
16 [d536dabc] (011/870) Accurately ripped
17 [e90ffcf7] (009/868) Accurately ripped
18 [58a9b7d7] (009/869) Accurately ripped
19 [a698620a] (010/870) Accurately ripped
20 [833761e8] (010/868) Accurately ripped
21 [d0dc50ff] (009/866) Accurately ripped
22 [e5b5d71c] (008/856) Accurately ripped
23 [ace6f7ce] (009/860) Accurately ripped
24 [025ae3e3] (009/861) Accurately ripped
25 [d3794a24] (008/859) Accurately ripped
26 [44e879e2] (008/853) Accurately ripped
27 [2c0eb95d] (008/855) Accurately ripped
Offsetted by 34:
01 [3ab83c3d] (050/875) Accurately ripped
02 [bc2cbe0c] (051/875) Accurately ripped
03 [1310867c] (051/877) Accurately ripped
04 [c9ac2be5] (051/875) Accurately ripped
05 [98d805cf] (051/872) Accurately ripped
06 [45b279b7] (050/873) Accurately ripped
07 [79747e18] (051/878) Accurately ripped
08 [0858ea81] (051/874) Accurately ripped
09 [361dd3cc] (051/877) Accurately ripped
10 [ba9ca219] (051/873) Accurately ripped
11 [f0820532] (051/873) Accurately ripped
12 [e089322d] (050/871) Accurately ripped
13 [f11f22d6] (051/876) Accurately ripped
14 [349810ff] (049/870) Accurately ripped
15 [b3e03bf0] (051/867) Accurately ripped
16 [8d52483c] (051/870) Accurately ripped
17 [557fbcf7] (051/868) Accurately ripped
18 [00615dd7] (051/869) Accurately ripped
19 [db87148a] (052/870) Accurately ripped
20 [e87e71e8] (052/868) Accurately ripped
21 [594259ff] (051/866) Accurately ripped
22 [ebe8c81c] (047/856) Accurately ripped
23 [f4404dce] (051/860) Accurately ripped
24 [a3d9dfe3] (050/861) Accurately ripped
25 [7dfeaaa4] (051/859) Accurately ripped
26 [c3414ee2] (048/853) Accurately ripped
27 [99a180dd] (049/855) Accurately ripped
Offsetted by -999:
01 [9c4161da] (002/875) Accurately ripped
02 [1a466635] (002/875) Accurately ripped
03 [a8fca305] (002/877) Accurately ripped
04 [ed3770e2] (002/875) Accurately ripped
05 [afda53f8] (000/872) No match (V2 was not tested)
06 [ed5e563b] (002/873) Accurately ripped
07 [d83474c8] (002/878) Accurately ripped
08 [bb5b2740] (000/874) No match (V2 was not tested)
09 [77c95890] (000/877) No match
10 [33ae1753] (000/873) No match
11 [dd7a48ba] (000/873) No match
12 [ba06a88a] (000/871) No match
13 [d4646c0a] (000/876) No match
14 [4afc5fb4] (000/870) No match
15 [80dbdc85] (000/867) No match
16 [f384ee89] (000/870) No match
17 [4261e177] (000/868) No match
18 [2ed9442b] (000/869) No match
19 [9858b7fd] (000/870) No match
20 [1726f2c8] (000/868) No match
21 [667ae55d] (000/866) No match
22 [cfe1ab2a] (000/856) No match
23 [687155c2] (000/860) No match (V2 was not tested)
24 [a687122b] (002/861) Accurately ripped
25 [7dd645db] (000/859) No match (V2 was not tested)
26 [639867e8] (000/853) No match
27 [4356f2d6] (000/855) No match (V2 was not tested)
Offsetted by -873:
01 [dd2eeb44] (000/875) No match (V2 was not tested)
02 [f14e6bf7] (000/875) No match (V2 was not tested)
03 [df8f4b87] (000/877) No match (V2 was not tested)
04 [9f9f4b19] (000/875) No match (V2 was not tested)
05 [44f1ebad] (000/872) No match (V2 was not tested)
06 [b0462703] (000/873) No match (V2 was not tested)
07 [b6977728] (000/878) No match (V2 was not tested)
08 [8e795cce] (000/874) No match (V2 was not tested)
09 [1493f5d8] (000/877) No match (V2 was not tested)
10 [3544de27] (000/873) No match (V2 was not tested)
11 [7b6e574a] (000/873) No match (V2 was not tested)
12 [de71c774] (000/871) No match (V2 was not tested)
13 [f91acb32] (000/876) No match (V2 was not tested)
14 [24d0e9ce] (000/870) No match (V2 was not tested)
15 [fd4aec5f] (000/867) No match (V2 was not tested)
16 [d0bfee53] (000/870) No match (V2 was not tested)
17 [dd1fe277] (000/868) No match (V2 was not tested)
18 [43f20b93] (000/869) No match (V2 was not tested)
19 [1c73afb3] (000/870) No match (V2 was not tested)
20 [3ad8e688] (000/868) No match (V2 was not tested)
21 [00bf5639] (000/866) No match (V2 was not tested)
22 [a1fbd066] (000/856) No match (V2 was not tested)
23 [d6ad466a] (000/860) No match (V2 was not tested)
24 [d980123b] (000/861) No match (V2 was not tested)
25 [e5b190d9] (000/859) No match (V2 was not tested)
26 [57f7d994] (000/853) No match (V2 was not tested)
27 [0b336f38] (000/855) No match (V2 was not tested)
Offsetted by -861:
01 [81d7d3c8] (000/875) No match
02 [42bce66b] (000/875) No match
03 [e4c1d57b] (000/877) No match
04 [a832e468] (000/875) No match
05 [442f3876] (000/872) No match
06 [92131653] (000/873) No match
07 [51ddd8e8] (000/878) No match
08 [410e867a] (000/874) No match
09 [ce2d5a28] (000/877) No match
10 [a322772f] (000/873) No match
11 [96aa27ea] (000/873) No match
12 [d5b8eef8] (000/871) No match
13 [cbd6d442] (000/876) No match
14 [08ccc632] (000/870) No match
15 [2db70643] (000/867) No match
16 [f2028097] (000/870) No match (V2 was not tested)
17 [c74a5c77] (000/868) No match
18 [b3ab4323] (000/869) No match
19 [416a106f] (000/870) No match
20 [c4579008] (000/868) No match
21 [9588e711] (000/866) No match
22 [da9096fe] (000/856) No match
23 [ed5da67a] (000/860) No match
24 [70a3f9db] (000/861) No match
25 [75ae11e5] (000/859) No match
26 [93d02d8c] (000/853) No match
27 [ed7931ec] (000/855) No match
Offsetted by -625:
01 [282705ec] (002/875) Accurately ripped
02 [8439a3ff] (002/875) Accurately ripped
03 [a04e6e8f] (002/877) Accurately ripped
04 [49a56a5c] (002/875) Accurately ripped
05 [5124b81a] (002/872) Accurately ripped
06 [4026ce23] (002/873) Accurately ripped
07 [94f0b0a8] (002/878) Accurately ripped
08 [f92eba06] (002/874) Accurately ripped
09 [baf60ef8] (002/877) Accurately ripped
10 [be7de377] (002/873) Accurately ripped
11 [0397d98a] (000/873) No match (V2 was not tested)
12 [d4daf81c] (002/871) Accurately ripped
13 [fc48dbd2] (002/876) Accurately ripped
14 [8c7b5f36] (002/870) Accurately ripped
15 [3b5a58c7] (002/867) Accurately ripped
16 [d575127b] (002/870) Accurately ripped
17 [6f386677] (002/868) Accurately ripped
18 [48e5dd33] (002/869) Accurately ripped
19 [c302298b] (002/870) Accurately ripped
20 [ff129588] (002/868) Accurately ripped
21 [590507a9] (002/866) Accurately ripped
22 [ddfe8356] (002/856) Accurately ripped
23 [00ea5d0a] (002/860) Accurately ripped
24 [62661a7b] (002/861) Accurately ripped
25 [3013fbd1] (002/859) Accurately ripped
26 [2cc3f644] (002/853) Accurately ripped
27 [4f7fd1c0] (002/855) Accurately ripped
Offsetted by -371:
01 [457394d6] (000/875) No match (V2 was not tested)
02 [bfdc1941] (000/875) No match
03 [63a6d691] (000/877) No match
04 [a9cf9b08] (000/875) No match
05 [1309bafa] (000/872) No match
06 [c0edeceb] (000/873) No match
07 [40ed1b08] (000/878) No match
08 [3d2eac14] (000/874) No match
09 [be24da40] (000/877) No match
10 [fea5b54b] (000/873) No match
11 [195f441a] (000/873) No match
12 [46e7bc86] (000/871) No match
13 [e8d4f0fa] (000/876) No match
14 [e623c2d0] (000/870) No match
15 [119fd221] (000/867) No match
16 [6acb7fc5] (000/870) No match
17 [76662777] (000/868) No match
18 [05b64a9b] (000/869) No match
19 [7c0bd3c1] (000/870) No match
20 [880b9948] (000/868) No match
21 [7baf8185] (000/866) No match
22 [b64b9992] (000/856) No match
23 [b67fa3b2] (000/860) No match
24 [36de168b] (000/861) No match
25 [4274a74f] (000/859) No match
26 [9f7c3cf0] (000/853) No match
27 [84ef15a2] (000/855) No match
Offsetted by -124:
01 [42b2f173] (000/875) No match (V2 was not tested)
02 [0bfe1c6a] (000/875) No match (V2 was not tested)
03 [794c6e1a] (000/877) No match (V2 was not tested)
04 [8335d3cd] (000/875) No match (V2 was not tested)
05 [51dc5a9b] (000/872) No match (V2 was not tested)
06 [d352d56f] (000/873) No match (V2 was not tested)
07 [a7ab21b8] (000/878) No match (V2 was not tested)
08 [590245d3] (000/874) No match (V2 was not tested)
09 [ffba2b04] (000/877) No match (V2 was not tested)
10 [e9619885] (000/873) No match (V2 was not tested)
11 [b4991fa2] (000/873) No match (V2 was not tested)
12 [28b5a9e3] (000/871) No match (V2 was not tested)
13 [9a73562e] (000/876) No match (V2 was not tested)
14 [face9085] (000/870) No match (V2 was not tested)
15 [60fb91b6] (000/867) No match (V2 was not tested)
16 [02106d12] (000/870) No match (V2 was not tested)
17 [9fa5cbf7] (000/868) No match (V2 was not tested)
18 [c15aacef] (000/869) No match (V2 was not tested)
19 [4a307034] (000/870) No match (V2 was not tested)
20 [ab7aba28] (000/868) No match (V2 was not tested)
21 [dce466e3] (000/866) No match (V2 was not tested)
22 [d841e6a0] (000/856) No match (V2 was not tested)
23 [f42e07a6] (000/860) No match (V2 was not tested)
24 [888120d3] (000/861) No match (V2 was not tested)
25 [eb820786] (000/859) No match (V2 was not tested)
26 [2f4ba7f6] (000/853) No match (V2 was not tested)
27 [7660529b] (000/855) No match (V2 was not tested)
Offsetted by -42:
01 [27dfd0f9] (000/875) No match (V2 was not tested)
02 [b8710bd8] (000/875) No match (V2 was not tested)
03 [477b1cc8] (000/877) No match (V2 was not tested)
04 [0832f03f] (000/875) No match (V2 was not tested)
05 [455d7b3d] (000/872) No match (V2 was not tested)
06 [04f5e367] (000/873) No match (V2 was not tested)
07 [f7616858] (000/878) No match (V2 was not tested)
08 [9d52e295] (000/874) No match (V2 was not tested)
09 [4952587c] (000/877) No match (V2 was not tested)
10 [ad768391] (000/873) No match (V2 was not tested)
11 [995c8692] (000/873) No match (V2 was not tested)
12 [c27137e9] (000/871) No match (V2 was not tested)
13 [ba783ec6] (000/876) No match (V2 was not tested)
14 [90b247db] (000/870) No match (V2 was not tested)
15 [d688ed4c] (000/867) No match (V2 was not tested)
16 [1001ff38] (000/870) No match (V2 was not tested)
17 [351d62f7] (000/868) No match (V2 was not tested)
18 [3ccc5347] (000/869) No match (V2 was not tested)
19 [9c195a8e] (000/870) No match (V2 was not tested)
20 [2c5c4068] (000/868) No match (V2 was not tested)
21 [0045c4a7] (000/866) No match (V2 was not tested)
22 [303a8904] (000/856) No match (V2 was not tested)
23 [b9e342be] (000/860) No match (V2 was not tested)
24 [3bf67a43] (000/861) No match (V2 was not tested)
25 [98bf7958] (000/859) No match (V2 was not tested)
26 [483c906a] (000/853) No match (V2 was not tested)
27 [00925a69] (000/855) No match (V2 was not tested)
Offsetted by 6:
01 [ba837309] (000/875) No match
02 [fe2af5a8] (000/875) No match
03 [5c454498] (000/877) No match
04 [82e9707e] (000/875) No match
05 [3fb466be] (000/872) No match
06 [8c29a0a7] (000/873) No match
07 [647aef58] (000/878) No match
08 [67a78945] (000/874) No match
09 [2fb7e9bc] (000/877) No match
10 [64ece7b1] (000/873) No match
11 [064bc912] (000/873) No match
12 [9f8dd5f9] (000/871) No match (V2 was not tested)
13 [05686306] (000/876) No match
14 [20a1b96b] (000/870) No match
15 [983954dc] (000/867) No match
16 [950c4848] (000/870) No match
17 [ddc74af7] (000/868) No match
18 [fbb13187] (000/869) No match
19 [2ff2dd7e] (000/870) No match
20 [5256e668] (000/868) No match
21 [536c0807] (000/866) No match
22 [128da364] (000/856) No match
23 [14a4c2fe] (000/860) No match
24 [988618c3] (000/861) No match
25 [d8b17d88] (000/859) No match
26 [379de04a] (000/853) No match
27 [89a96539] (000/855) No match
Offsetted by 68:
01 [8d4179b3] (000/875) No match (V2 was not tested)
02 [22e5c3aa] (000/875) No match (V2 was not tested)
03 [cc750d5a] (000/877) No match (V2 was not tested)
04 [92a73b35] (000/875) No match (V2 was not tested)
05 [3ba42193] (000/872) No match (V2 was not tested)
06 [f021ca6f] (000/873) No match (V2 was not tested)
07 [5c113db8] (000/878) No match (V2 was not tested)
08 [8254e093] (000/874) No match (V2 was not tested)
09 [99507004] (000/877) No match (V2 was not tested)
10 [c73b2905] (000/873) No match (V2 was not tested)
11 [685629a2] (000/873) No match (V2 was not tested)
12 [9d282223] (000/871) No match (V2 was not tested)
13 [c633e72e] (000/876) No match (V2 was not tested)
14 [e56772d9] (000/870) No match (V2 was not tested)
15 [67df2ffa] (000/867) No match (V2 was not tested)
16 [16399152] (000/870) No match (V2 was not tested)
17 [424d6bf7] (000/868) No match (V2 was not tested)
18 [bcee25ef] (000/869) No match (V2 was not tested)
19 [99967bf4] (000/870) No match (V2 was not tested)
20 [43655228] (000/868) No match (V2 was not tested)
21 [297d7463] (000/866) No match (V2 was not tested)
22 [618e5020] (000/856) No match (V2 was not tested)
23 [5f3408a6] (000/860) No match (V2 was not tested)
24 [fabf9ad3] (000/861) No match (V2 was not tested)
25 [eb4a1846] (000/859) No match (V2 was not tested)
26 [ecd0e776] (000/853) No match (V2 was not tested)
27 [9abc7ddb] (000/855) No match (V2 was not tested)

Track Peak [ CRC32 ] [W/O NULL] [ LOG ]
– 93,7 [8300CFA2] [3D8E2BD9] CRC32
01 27,2 [F7DF9ACD] [F9A7A0A5]
02 71,8 [73158E6A] [F565B1A6]
03 93,7 [6F1E6A7D] [B2363DB3]
04 65,5 [7DF0A36F] [17FC1952]
05 79,2 [AFC7B539] [23A9C961]
06 73,9 [1EDDA8B7] [158CABD3]
07 44,7 [7FEEDEAD] [4F6E4D8A]
08 68,9 [CB691D49] [C72E22BB]
09 65,5 [2FD4D576] [A2561D96]
10 77,2 [844BB0CB] [E2AC8003]
11 67,4 [104896D1] [119F9F3A]
12 53,1 [40F7AE64] [28CD4FF2]
13 77,6 [CABB4994] [5EFCBE2B]
14 54,2 [FB64860B] [38692EEC]
15 75,4 [246C8AF4] [8547E592]
16 52,1 [EF6FD32F] [A71D8F71]
17 81,8 [7C91F193] [2E5589C9]
18 66,4 [7C5FAB7B] [4B7FF421]
19 56,6 [4BD38936] [69A6D25A]
20 56,8 [05374F9A] [5D706A43]
21 67,2 [4119C0C1] [93AAAC6E]
22 59,9 [DF577796] [DC6FB90E]
23 60,0 [0F766133] [407F9621]
24 91,2 [FC93518A] [104E4212]
25 43,8 [DEDA4044] [7F039DCD]
26 58,2 [D3D20CA2] [CDDE89AC]
27 73,9 [74B2D032] [0FF507BA]


The Beatles - Anthology 3 (1996) Repost

Tracklist CD2:

01. I've Got A Feeling (02:49)
02. She Came In Through The Bathroom Window (03:37)
03. Dig A Pony (04:18)
04. Two Of Us (03:27)
05. For You Blue (02:23)
06. Teddy Boy (03:18)
07. Medley: Rip It Up/Shake, Rattle And Roll/ Blue Suede Shoes (03:11)
08. The Long And Winding Road (03:41)
09. Oh! Darling (04:08)
10. All Things Must Pass (03:05)
11. Mailman, Bring Me No More Blues (01:56)
12. Get Back (03:09)
13. Old Brown Shoe (03:03)
14. Octopus's Garden (02:49)
15. Maxwell's Silver Hammer (03:50)
16. Something (03:19)
17. Come Together (03:40)
18. Come And Get It (02:30)
19. Ain't She Sweet (02:09)
20. Because (02:24)
21. Let It Be (04:05)
22. I Me Mine (01:48)
23. The End (remix featuring final chord of "A Day in the Life") (02:51)

Exact Audio Copy V1.0 beta 3 from 29. August 2011

EAC extraction logfile from 6. July 2013, 17:30

The Beatles / Anthology 3 (Disc 2)

Used drive : PLEXTOR DVDR PX-891SA Adapter: 1 ID: 0

Read mode : Secure
Utilize accurate stream : Yes
Defeat audio cache : Yes
Make use of C2 pointers : No

Read offset correction : 6
Overread into Lead-In and Lead-Out : No
Fill up missing offset samples with silence : Yes
Delete leading and trailing silent blocks : No
Null samples used in CRC calculations : Yes
Used interface : Native Win32 interface for Win NT & 2000

Used output format : User Defined Encoder
Selected bitrate : 1024 kBit/s
Quality : High
Add ID3 tag : No
Command line compressor : C:\Program Files\Exact Audio Copy\Flac\flac.exe
Additional command line options : -V -8 -T "Genre=%genre%" -T "Artist=%artist%" -T "Title=%title%" -T "Album=%albumtitle%" -T "Date=%year%" -T "Tracknumber=%tracknr%" -T "Comment=%comment%" %source%


TOC of the extracted CD

Track | Start | Length | Start sector | End sector
––––––––––––––––––––––––––––-
1 | 0:00.00 | 2:49.12 | 0 | 12686
2 | 2:49.12 | 3:36.63 | 12687 | 28949
3 | 6:26.00 | 4:18.25 | 28950 | 48324
4 | 10:44.25 | 3:27.07 | 48325 | 63856
5 | 14:11.32 | 2:22.53 | 63857 | 74559
6 | 16:34.10 | 3:18.27 | 74560 | 89436
7 | 19:52.37 | 3:10.60 | 89437 | 103746
8 | 23:03.22 | 3:40.70 | 103747 | 120316
9 | 26:44.17 | 4:08.05 | 120317 | 138921
10 | 30:52.22 | 3:05.10 | 138922 | 152806
11 | 33:57.32 | 1:55.58 | 152807 | 161489
12 | 35:53.15 | 3:08.40 | 161490 | 175629
13 | 39:01.55 | 3:02.60 | 175630 | 189339
14 | 42:04.40 | 2:49.22 | 189340 | 202036
15 | 44:53.62 | 3:49.53 | 202037 | 219264
16 | 48:43.40 | 3:18.65 | 219265 | 234179
17 | 52:02.30 | 3:40.30 | 234180 | 250709
18 | 55:42.60 | 2:29.67 | 250710 | 261951
19 | 58:12.52 | 2:08.38 | 261952 | 271589
20 | 60:21.15 | 2:23.47 | 271590 | 282361
21 | 62:44.62 | 4:05.23 | 282362 | 300759
22 | 66:50.10 | 1:47.42 | 300760 | 308826
23 | 68:37.52 | 2:50.43 | 308827 | 321619


Range status and errors

Selected range

Filename H:\dafnaplus\Beatles - Anthology 1-3\Anthology 3\Disc 2\The Beatles - Anthology 3 (Disc 2).wav

Peak level 94.0 %
Extraction speed 9.0 X
Range quality 100.0 %
Test CRC 42B2C874
Copy CRC 42B2C874
Copy OK

No errors occurred


AccurateRip summary

Track 1 accurately ripped (confidence 25) [E5E79710] (AR v2)
Track 2 accurately ripped (confidence 25) [0AF25B25] (AR v2)
Track 3 accurately ripped (confidence 25) [613DE923] (AR v2)
Track 4 accurately ripped (confidence 25) [DCAD12B9] (AR v2)
Track 5 accurately ripped (confidence 25) [AB7C7508] (AR v2)
Track 6 accurately ripped (confidence 25) [3A557799] (AR v2)
Track 7 accurately ripped (confidence 25) [EFBCB314] (AR v2)
Track 8 accurately ripped (confidence 24) [A31C0DFF] (AR v2)
Track 9 accurately ripped (confidence 24) [1971EE8A] (AR v2)
Track 10 accurately ripped (confidence 25) [08290D2B] (AR v2)
Track 11 accurately ripped (confidence 25) [23D395AD] (AR v2)
Track 12 accurately ripped (confidence 25) [E65B9960] (AR v2)
Track 13 accurately ripped (confidence 25) [9301250A] (AR v2)
Track 14 accurately ripped (confidence 25) [3FDC548A] (AR v2)
Track 15 accurately ripped (confidence 25) [BCED1A8C] (AR v2)
Track 16 accurately ripped (confidence 26) [76A4936E] (AR v2)
Track 17 accurately ripped (confidence 25) [34731F49] (AR v2)
Track 18 accurately ripped (confidence 25) [41461464] (AR v2)
Track 19 accurately ripped (confidence 25) [E00B5073] (AR v2)
Track 20 accurately ripped (confidence 26) [E2C2008C] (AR v2)
Track 21 accurately ripped (confidence 24) [34D111F8] (AR v2)
Track 22 accurately ripped (confidence 24) [BBB6E5FC] (AR v2)
Track 23 accurately ripped (confidence 22) [2B99C87C] (AR v2)

All tracks accurately ripped

End of status report

==== Log checksum EC1169688D7E01883D60FCA0C1C79BC75BC06B704A48E19290D1FEFF3687C3C4 ====


[CUETools log; Date: 17.09.2013 19:01:22; Version: 2.1.4]
[CTDB TOCID: .Zr5ZjJqpIO6qHjAPYTOhS87sgg-] found.
Track | CTDB Status
1 | (192/194) Accurately ripped
2 | (191/194) Accurately ripped
3 | (191/194) Accurately ripped
4 | (191/194) Accurately ripped
5 | (191/194) Accurately ripped
6 | (190/194) Accurately ripped
7 | (193/194) Accurately ripped
8 | (192/194) Accurately ripped
9 | (191/194) Accurately ripped
10 | (192/194) Accurately ripped
11 | (191/194) Accurately ripped
12 | (189/194) Accurately ripped
13 | (191/194) Accurately ripped
14 | (192/194) Accurately ripped
15 | (190/194) Accurately ripped
16 | (188/194) Accurately ripped
17 | (192/194) Accurately ripped
18 | (190/194) Accurately ripped
19 | (191/194) Accurately ripped
20 | (189/194) Accurately ripped
21 | (186/194) Accurately ripped, or (2/194) differs in 2687 samples @00:42:69-00:42:70,00:45:29-00:45:30,01:17:63-01:17:64,01:18:09-01:18:10,01:18:29-01:18:30,01:18:50-01:18:51,01:18:71,01:19:16-01:19:17,01:19:37-01:19:38,01:19:57-01:19:58,01:20:03-01:20:04,01:20:24-01:20:25,01:20:65-01:20:66,01:21:31-01:21:32,01:21:52-01:21:53,01:22:39-01:22:40,01:23:46-01:23:47,01:37:08,01:38:15-01:38:16,01:40:51-01:40:52,01:41:18,01:41:59-01:41:60,01:42:25-01:42:26,01:44:61-01:44:62,01:45:48-01:45:49,01:46:35-01:46:36,01:53:07
22 | (191/194) Accurately ripped
23 | (186/194) Accurately ripped, or (2/194) differs in 155 samples @01:19:23,02:00:13,02:00:56,02:01:02,02:01:23-02:01:24,02:08:13,02:40:49,02:40:70-02:40:71
[AccurateRip ID: 003d3d3c-03f49d6b-5a10c017] found.
Track [ CRC | V2 ] Status
01 [f9cc8697|e5e79710] (200+108/885) Accurately ripped
02 [75594fbd|0af25b25] (200+107/886) Accurately ripped
03 [2b2414c1|613de923] (200+107/886) Accurately ripped
04 [5d92bff5|dcad12b9] (200+108/884) Accurately ripped
05 [e75853c3|ab7c7508] (200+108/887) Accurately ripped
06 [fd37d2a9|3a557799] (200+108/887) Accurately ripped
07 [dcbd61b1|efbcb314] (200+108/887) Accurately ripped
08 [e0d9128c|a31c0dff] (200+107/882) Accurately ripped
09 [58a58aac|1971ee8a] (200+107/881) Accurately ripped
10 [5e9c2a7b|08290d2b] (200+108/889) Accurately ripped
11 [05b51e26|23d395ad] (200+108/883) Accurately ripped
12 [5e27d4b3|e65b9960] (200+107/879) Accurately ripped
13 [9387eebc|9301250a] (200+106/883) Accurately ripped
14 [c8fe992b|3fdc548a] (200+106/876) Accurately ripped
15 [0421f698|bced1a8c] (200+106/872) Accurately ripped
16 [ac32b4c0|76a4936e] (200+107/878) Accurately ripped
17 [f79cb8b7|34731f49] (200+104/878) Accurately ripped
18 [4633cf25|41461464] (200+104/882) Accurately ripped
19 [b376cc0f|e00b5073] (200+106/879) Accurately ripped
20 [a8cae9f2|e2c2008c] (200+106/878) Accurately ripped
21 [75556ab8|34d111f8] (200+105/868) Accurately ripped
22 [0e67bf5b|bbb6e5fc] (200+106/879) Accurately ripped
23 [d0866faf|2b99c87c] (199+103/860) Accurately ripped
Offsetted by -1702:
01 [00d199fd] (006/885) Accurately ripped
02 [80bdd15d] (006/886) Accurately ripped
03 [90c2d38c] (006/886) Accurately ripped
04 [e92c6484] (006/884) Accurately ripped
05 [a80ecb3b] (006/887) Accurately ripped
06 [719b30d7] (006/887) Accurately ripped
07 [9cc81c2f] (006/887) Accurately ripped
08 [842abd2c] (006/882) Accurately ripped
09 [7e1c5184] (006/881) Accurately ripped
10 [59b42b5b] (006/889) Accurately ripped
11 [31caca58] (006/883) Accurately ripped
12 [bf8c3cd7] (006/879) Accurately ripped
13 [73be5344] (006/883) Accurately ripped
14 [7f4ebf7b] (006/876) Accurately ripped
15 [766d72c8] (006/872) Accurately ripped
16 [ca9016cc] (006/878) Accurately ripped
17 [2f84d8d3] (006/878) Accurately ripped
18 [782abb2f] (006/882) Accurately ripped
19 [c6147ed7] (006/879) Accurately ripped
20 [c74b5f78] (006/878) Accurately ripped
21 [9bbd9bd4] (006/868) Accurately ripped
22 [5f354da3] (006/879) Accurately ripped
23 [5af63bc9] (006/860) Accurately ripped
Offsetted by -1481:
01 [57e5d980] (003/885) Accurately ripped
02 [339af52d] (003/886) Accurately ripped
03 [280f0a41] (003/886) Accurately ripped
04 [246a8af0] (003/884) Accurately ripped
05 [d6c7df37] (003/887) Accurately ripped
06 [84a30b7e] (003/887) Accurately ripped
07 [126f7a7e] (003/887) Accurately ripped
08 [2266ad7c] (003/882) Accurately ripped
09 [ef51a230] (003/881) Accurately ripped
10 [3556f4cb] (003/889) Accurately ripped
11 [98aa31e1] (003/883) Accurately ripped
12 [84b9b5c9] (003/879) Accurately ripped
13 [730ecd48] (003/883) Accurately ripped
14 [7fb35823] (003/876) Accurately ripped
15 [5dcf5760] (003/872) Accurately ripped
16 [1b9a3972] (003/878) Accurately ripped
17 [4d42c201] (003/878) Accurately ripped
18 [c82a67e4] (003/882) Accurately ripped
19 [78e88dfb] (003/879) Accurately ripped
20 [dedbef0b] (003/878) Accurately ripped
21 [7d088582] (003/868) Accurately ripped
22 [6ca1ae87] (003/879) Accurately ripped
23 [dd4ab006] (003/860) Accurately ripped
Offsetted by -1469:
01 [7abe67f4] (059/885) Accurately ripped
02 [39d79ded] (059/886) Accurately ripped
03 [d1d5a29d] (058/886) Accurately ripped
04 [6f03aa2c] (059/884) Accurately ripped
05 [83992947] (059/887) Accurately ripped
06 [6fa94362] (058/887) Accurately ripped
07 [8364dfc2] (058/887) Accurately ripped
08 [3d86e43c] (057/882) Accurately ripped
09 [e09d8180] (057/881) Accurately ripped
10 [b9bc770b] (057/889) Accurately ripped
11 [f07eb93d] (057/883) Accurately ripped
12 [1253ed01] (057/879) Accurately ripped
13 [3dbc4b38] (057/883) Accurately ripped
14 [8a25b183] (057/876) Accurately ripped
15 [203ce900] (055/872) Accurately ripped
16 [dcd137da] (056/878) Accurately ripped
17 [c8813249] (057/878) Accurately ripped
18 [b9f9bc90] (057/882) Accurately ripped
19 [6922676b] (055/879) Accurately ripped
20 [c0dcd53f] (056/878) Accurately ripped
21 [6e9fb3ca] (056/868) Accurately ripped
22 [a61ee0f7] (055/879) Accurately ripped
23 [6e36f292] (052/860) Accurately ripped
Offsetted by -1056:
01 [ff5b8eb7] (028/885) Accurately ripped
02 [507f4dbd] (029/886) Accurately ripped
03 [af3bb7d8] (029/886) Accurately ripped
04 [d17f129e] (029/884) Accurately ripped
05 [7f66de43] (030/887) Accurately ripped
06 [33149c49] (030/887) Accurately ripped
07 [08629251] (029/887) Accurately ripped
08 [8dc6408c] (029/882) Accurately ripped
09 [6690c72c] (030/881) Accurately ripped
10 [dbb7647b] (029/889) Accurately ripped
11 [d4a69686] (029/883) Accurately ripped
12 [b124d973] (029/879) Accurately ripped
13 [e7e4a43c] (029/883) Accurately ripped
14 [31afe02b] (029/876) Accurately ripped
15 [2e77e798] (029/872) Accurately ripped
16 [414b4100] (029/878) Accurately ripped
17 [9a261ff7] (029/878) Accurately ripped
18 [26eeb405] (029/882) Accurately ripped
19 [1f940d8f] (029/879) Accurately ripped
20 [f87bc812] (029/878) Accurately ripped
21 [695d81f8] (028/868) Accurately ripped
22 [4b5e68db] (029/879) Accurately ripped
23 [ff4f8f8f] (027/860) Accurately ripped
Offsetted by -664:
01 [c6fdbc2f] (004/885) Accurately ripped
02 [1c3cd63d] (004/886) Accurately ripped
03 [8c971699] (004/886) Accurately ripped
04 [94d8c109] (004/884) Accurately ripped
05 [8cc651a3] (004/887) Accurately ripped
06 [db351361] (004/887) Accurately ripped
07 [c7b2d3a9] (004/887) Accurately ripped
08 [ae8d3d0c] (004/882) Accurately ripped
09 [863f460c] (004/881) Accurately ripped
10 [1600adfb] (004/889) Accurately ripped
11 [5f1a86ee] (004/883) Accurately ripped
12 [1827e543] (004/879) Accurately ripped
13 [6f5d60dc] (004/883) Accurately ripped
14 [86f1f26b] (004/876) Accurately ripped
15 [a8732758] (004/872) Accurately ripped
16 [93a50cf0] (004/878) Accurately ripped
17 [541dc927] (004/878) Accurately ripped
18 [acb8d74d] (004/882) Accurately ripped
19 [71a0772f] (004/879) Accurately ripped
20 [2499280a] (004/878) Accurately ripped
21 [3d52bf28] (004/868) Accurately ripped
22 [4c02d87b] (003/879) Accurately ripped
23 [d2cab817] (003/860) Accurately ripped
Offsetted by -640:
01 [0caed917] (010/885) Accurately ripped
02 [28b627bd] (011/886) Accurately ripped
03 [e05394c1] (010/886) Accurately ripped
04 [167ab5c9] (010/884) Accurately ripped
05 [e668e5c3] (010/887) Accurately ripped
06 [b1418329] (010/887) Accurately ripped
07 [a99d9e31] (012/887) Accurately ripped
08 [e4cdaa8c] (010/882) Accurately ripped
09 [68d704ac] (010/881) Accurately ripped
10 [1ecbb27b] (012/889) Accurately ripped
11 [0ec395a6] (011/883) Accurately ripped
12 [335c53b3] (011/879) Accurately ripped
13 [04b85cbc] (011/883) Accurately ripped
14 [9bd6a52b] (011/876) Accurately ripped
15 [2d4e4a98] (010/872) Accurately ripped
16 [161309c0] (011/878) Accurately ripped
17 [4a9aa9b7] (011/878) Accurately ripped
18 [905780a5] (012/882) Accurately ripped
19 [52142a0f] (011/879) Accurately ripped
20 [e89af472] (011/878) Accurately ripped
21 [20811bb8] (010/868) Accurately ripped
22 [befd3d5b] (011/879) Accurately ripped
23 [f4a33d2f] (011/860) Accurately ripped
Offsetted by -460:
01 [175f31e3] (009/885) Accurately ripped
02 [86440afd] (009/886) Accurately ripped
03 [3643c01d] (009/886) Accurately ripped
04 [e9d25b35] (009/884) Accurately ripped
05 [06ac3cb3] (009/887) Accurately ripped
06 [769ec985] (009/887) Accurately ripped
07 [47fe8d2d] (009/887) Accurately ripped
08 [7bb0dfcc] (009/882) Accurately ripped
09 [8c491a5c] (009/881) Accurately ripped
10 [e0be543b] (009/889) Accurately ripped
11 [3437840a] (009/883) Accurately ripped
12 [7f658ffb] (009/879) Accurately ripped
13 [e4e2bdcc] (009/883) Accurately ripped
14 [3889e1cb] (009/876) Accurately ripped
15 [91b9d2f8] (009/872) Accurately ripped
16 [684bf1d8] (008/878) Accurately ripped
17 [83433def] (008/878) Accurately ripped
18 [bb7d76b9] (008/882) Accurately ripped
19 [6577e79f] (008/879) Accurately ripped
20 [26a8717e] (007/878) Accurately ripped
21 [485cd1f0] (007/868) Accurately ripped
22 [1d5331eb] (007/879) Accurately ripped
23 [727b2363] (007/860) Accurately ripped
Offsetted by -411:
01 [d0537792] (027/885) Accurately ripped
02 [dfbbbc0d] (027/886) Accurately ripped
03 [25277853] (027/886) Accurately ripped
04 [04c98d0c] (026/884) Accurately ripped
05 [88582b1f] (027/887) Accurately ripped
06 [0ba2d868] (027/887) Accurately ripped
07 [bfe89558] (027/887) Accurately ripped
08 [3fc9bf5c] (027/882) Accurately ripped
09 [d03eea38] (027/881) Accurately ripped
10 [a8077d6b] (027/889) Accurately ripped
11 [05860217] (027/883) Accurately ripped
12 [ac45f175] (027/879) Accurately ripped
13 [35d1d560] (027/883) Accurately ripped
14 [a3322413] (027/876) Accurately ripped
15 [40f93af0] (027/872) Accurately ripped
16 [92972b56] (026/878) Accurately ripped
17 [ba823315] (027/878) Accurately ripped
18 [2c36bb22] (027/882) Accurately ripped
19 [4fb974d3] (027/879) Accurately ripped
20 [ec2c1d7d] (027/878) Accurately ripped
21 [a2db7996] (026/868) Accurately ripped
22 [9d67bfdf] (027/879) Accurately ripped
23 [2cea8874] (026/860) Accurately ripped
Offsetted by -392:
01 [322a591f] (200/885) Accurately ripped
02 [a99bc73d] (200/886) Accurately ripped
03 [5ec545b8] (200/886) Accurately ripped
04 [ff0bd2fe] (200/884) Accurately ripped
05 [d9f8e063] (200/887) Accurately ripped
06 [55175b91] (200/887) Accurately ripped
07 [1d6d2059] (200/887) Accurately ripped
08 [c012160c] (200/882) Accurately ripped
09 [38f70bcc] (200/881) Accurately ripped
10 [2452e0fb] (200/889) Accurately ripped
11 [7b412dbe] (200/883) Accurately ripped
12 [f724c8e3] (200/879) Accurately ripped
13 [0c0f321c] (200/883) Accurately ripped
14 [73bc86eb] (200/876) Accurately ripped
15 [8a26b6d8] (200/872) Accurately ripped
16 [59d8e8d0] (200/878) Accurately ripped
17 [3da50f87] (200/878) Accurately ripped
18 [c069abdd] (200/882) Accurately ripped
19 [616a626f] (200/879) Accurately ripped
20 [7cad89fa] (200/878) Accurately ripped
21 [a1602d88] (200/868) Accurately ripped
22 [0dc34fbb] (200/879) Accurately ripped
23 [fd0b4727] (200/860) Accurately ripped
Offsetted by -120:
01 [9d56f60f] (002/885) Accurately ripped
02 [36fab83d] (002/886) Accurately ripped
03 [985e4174] (002/886) Accurately ripped
04 [424df932] (002/884) Accurately ripped
05 [272b6f23] (002/887) Accurately ripped
06 [cef9a3c1] (002/887) Accurately ripped
07 [73276d09] (002/887) Accurately ripped
08 [d196ef0c] (002/882) Accurately ripped
09 [ebaed18c] (002/881) Accurately ripped
10 [32a513fb] (002/889) Accurately ripped
11 [9767d48e] (002/883) Accurately ripped
12 [d621ac83] (002/879) Accurately ripped
13 [a8c1035c] (002/883) Accurately ripped
14 [60871b6b] (002/876) Accurately ripped
15 [6bda4658] (002/872) Accurately ripped
16 [200cc4b0] (002/878) Accurately ripped
17 [272c55e7] (002/878) Accurately ripped
18 [d41a806d] (002/882) Accurately ripped
19 [51344daf] (002/879) Accurately ripped
20 [d4c1ebea] (002/878) Accurately ripped
21 [056d9be8] (002/868) Accurately ripped
22 [cf83c6fb] (002/879) Accurately ripped
23 [274bd637] (002/860) Accurately ripped
Offsetted by -1499:
01 [23a103d2] (000/885) No match (V2 was not tested)
02 [aa3ff80d] (000/886) No match (V2 was not tested)
03 [93a69124] (000/886) No match (V2 was not tested)
04 [33b85ba3] (000/884) No match (V2 was not tested)
05 [538df01f] (000/887) No match (V2 was not tested)
06 [2419b7a8] (000/887) No match (V2 was not tested)
07 [68ff6298] (000/887) No match (V2 was not tested)
08 [f9b65b5c] (000/882) No match (V2 was not tested)
09 [055fd338] (000/881) No match (V2 was not tested)
10 [6ebeb16b] (000/889) No match (V2 was not tested)
11 [94eb66d7] (000/883) No match (V2 was not tested)
12 [305262f5] (000/879) No match (V2 was not tested)
13 [c30a9060] (000/883) No match (V2 was not tested)
14 [f007d213] (000/876) No match (V2 was not tested)
15 [ba2afcf0] (000/872) No match (V2 was not tested)
16 [79c7bbd6] (000/878) No match (V2 was not tested)
17 [14651995] (000/878) No match (V2 was not tested)
18 [dd7368e2] (000/882) No match (V2 was not tested)
19 [9091c7d3] (000/879) No match (V2 was not tested)
20 [8bda95bd] (000/878) No match (V2 was not tested)
21 [12a5c016] (000/868) No match (V2 was not tested)
22 [9665e2df] (000/879) No match (V2 was not tested)
23 [83e84c34] (000/860) No match (V2 was not tested)
Offsetted by -778:
01 [7bf472e1] (000/885) No match (V2 was not tested)
02 [60fc931d] (000/886) No match (V2 was not tested)
03 [09d432d7] (000/886) No match (V2 was not tested)
04 [b431d6a9] (000/884) No match (V2 was not tested)
05 [a302120b] (000/887) No match (V2 was not tested)
06 [227a006b] (000/887) No match (V2 was not tested)
07 [969791a3] (000/887) No match (V2 was not tested)
08 [acdb34ec] (000/882) No match (V2 was not tested)
09 [11ee7c94] (000/881) No match (V2 was not tested)
10 [2c3c589b] (000/889) No match (V2 was not tested)
11 [9cb78104] (000/883) No match (V2 was not tested)
12 [56eed8af] (000/879) No match (V2 was not tested)
13 [69ed3474] (000/883) No match (V2 was not tested)
14 [a3b3a15b] (000/876) No match (V2 was not tested)
15 [f1623fe8] (000/872) No match (V2 was not tested)
16 [e81a9c14] (000/878) No match (V2 was not tested)
17 [414c9e7b] (000/878) No match (V2 was not tested)
18 [338732eb] (000/882) No match (V2 was not tested)
19 [077ae587] (000/879) No match (V2 was not tested)
20 [c1909d1c] (000/878) No match (V2 was not tested)
21 [4636877c] (000/868) No match (V2 was not tested)
22 [a9dd7953] (000/879) No match (V2 was not tested)
23 [f2063fe5] (000/860) No match (V2 was not tested)
Offsetted by -524:
01 [b2dc3a23] (002/885) Accurately ripped
02 [650086fd] (002/886) Accurately ripped
03 [1cc81546] (002/886) Accurately ripped
04 [39d52b10] (000/884) No match (V2 was not tested)
05 [6cfab1b3] (000/887) No match
06 [3bd2f4c5] (000/887) No match
07 [42e1c66d] (000/887) No match (V2 was not tested)
08 [95afbbcc] (000/882) No match
09 [dab4735c] (000/881) No match
10 [73f6483b] (000/889) No match
11 [b51f5cca] (000/883) No match
12 [e184697b] (000/879) No match
13 [569ac8cc] (000/883) No match
14 [00d2afcb] (000/876) No match
15 [2f7174f8] (000/872) No match
16 [0c7bfa58] (000/878) No match
17 [f1f63c6f] (000/878) No match
18 [5c810879] (000/882) No match
19 [0eee0a9f] (000/879) No match
20 [c6a3a5be] (000/878) No match
21 [3fe13070] (000/868) No match
22 [956224eb] (000/879) No match
23 [c2e46b23] (000/860) No match
Offsetted by -476:
01 [3e3e73f3] (000/885) No match (V2 was not tested)
02 [7df329fd] (000/886) No match (V2 was not tested)
03 [7e220e9f] (000/886) No match (V2 was not tested)
04 [3e6e1017] (000/884) No match (V2 was not tested)
05 [203fd9f3] (000/887) No match (V2 was not tested)
06 [e7ebd455] (000/887) No match (V2 was not tested)
07 [06b75b7d] (000/887) No match (V2 was not tested)
08 [023096cc] (000/882) No match (V2 was not tested)
09 [9fe3f09c] (000/881) No match (V2 was not tested)
10 [858c513b] (000/889) No match (V2 was not tested)
11 [14717a3a] (000/883) No match (V2 was not tested)
12 [17ed465b] (000/879) No match (V2 was not tested)
13 [8150c08c] (000/883) No match (V2 was not tested)
14 [2a9c154b] (000/876) No match (V2 was not tested)
15 [3927bb78] (000/872) No match (V2 was not tested)
16 [1157f3f8] (000/878) No match (V2 was not tested)
17 [deeffd8f] (000/878) No match (V2 was not tested)
18 [23be5b29] (000/882) No match (V2 was not tested)
19 [cfd5705f] (000/879) No match (V2 was not tested)
20 [4ea73e8e] (000/878) No match (V2 was not tested)
21 [063de990] (000/868) No match (V2 was not tested)
22 [7b56eeab] (000/879) No match (V2 was not tested)
23 [06957553] (000/860) No match (V2 was not tested)
Offsetted by -446:
01 [955bd815] (000/885) No match
02 [0d8acfdd] (000/886) No match
03 [85727b04] (000/886) No match (V2 was not tested)
04 [5f81fc44] (000/884) No match
05 [504b131b] (000/887) No match
06 [337b600f] (000/887) No match
07 [211cd8a7] (000/887) No match
08 [46011fac] (000/882) No match
09 [7b219ee4] (000/881) No match
10 [d08a16db] (000/889) No match
11 [7004cca0] (000/883) No match
12 [f9eed067] (000/879) No match
13 [fc027b64] (000/883) No match
14 [c4b9f4bb] (000/876) No match
15 [9f39a788] (000/872) No match
16 [74616ffc] (000/878) No match
17 [930c1643] (000/878) No match
18 [0044aed7] (000/882) No match
19 [a8660ff7] (000/879) No match
20 [83a97e10] (000/878) No match
21 [6237dd44] (000/868) No match
22 [8b0fecc3] (000/879) No match
23 [f0e41bb1] (000/860) No match
Offsetted by -398:
01 [20be11e5] (000/885) No match (V2 was not tested)
02 [267d72dd] (000/886) No match (V2 was not tested)
03 [eb467a1a] (000/886) No match (V2 was not tested)
04 [5f45d7d6] (000/884) No match (V2 was not tested)
05 [03903b5b] (000/887) No match (V2 was not tested)
06 [df943f9f] (000/887) No match (V2 was not tested)
07 [e4f26db7] (000/887) No match (V2 was not tested)
08 [b281faac] (000/882) No match (V2 was not tested)
09 [40511c24] (000/881) No match (V2 was not tested)
10 [e2201fdb] (000/889) No match (V2 was not tested)
11 [cf56ea10] (000/883) No match (V2 was not tested)
12 [3057ad47] (000/879) No match (V2 was not tested)
13 [26b87324] (000/883) No match (V2 was not tested)
14 [ee835a3b] (000/876) No match (V2 was not tested)
15 [a8efee08] (000/872) No match (V2 was not tested)
16 [793d699c] (000/878) No match (V2 was not tested)
17 [8005d763] (000/878) No match (V2 was not tested)
18 [c7820187] (000/882) No match (V2 was not tested)
19 [694d75b7] (000/879) No match (V2 was not tested)
20 [0bad16e0] (000/878) No match (V2 was not tested)
21 [28949664] (000/868) No match (V2 was not tested)
22 [7104b683] (000/879) No match (V2 was not tested)
23 [349525e1] (000/860) No match (V2 was not tested)
Offsetted by -386:
01 [4396a059] (000/885) No match
02 [2cba1b9d] (000/886) No match
03 [d3a2bd50] (000/886) No match
04 [9ecece14] (000/884) No match
05 [b061856b] (000/887) No match
06 [ca9a7783] (000/887) No match
07 [55e7d2fb] (000/887) No match
08 [cda2316c] (000/882) No match
09 [319cfb74] (000/881) No match
10 [6685a21b] (002/889) Accurately ripped
11 [272b716c] (000/883) No match
12 [bdf1e47f] (000/879) No match
13 [f165f114] (000/883) No match
14 [f8f5b39b] (000/876) No match
15 [6b5d7fa8] (000/872) No match
16 [3a746804] (000/878) No match
17 [fb4447ab] (000/878) No match
18 [b9515633] (000/882) No match
19 [59874f27] (000/879) No match
20 [edadfd14] (000/878) No match
21 [1a2bc4ac] (002/868) Accurately ripped
22 [aa81e8f3] (002/879) Accurately ripped
23 [c581686d] (000/860) No match
Offsetted by -66:
01 [3a257719] (000/885) No match (V2 was not tested)
02 [d30baf9d] (000/886) No match (V2 was not tested)
03 [26e9d478] (000/886) No match (V2 was not tested)
04 [c8745320] (000/884) No match (V2 was not tested)
05 [b0d93c6b] (000/887) No match (V2 was not tested)
06 [f0959f43] (000/887) No match (V2 was not tested)
07 [6f77b4bb] (000/887) No match (V2 was not tested)
08 [4ba7e56c] (000/882) No match (V2 was not tested)
09 [a9843e74] (000/881) No match (V2 was not tested)
10 [866dde1b] (000/889) No match (V2 was not tested)
11 [a2a435ac] (000/883) No match (V2 was not tested)
12 [d357a4ff] (000/879) No match (V2 was not tested)
13 [b8cdba14] (000/883) No match (V2 was not tested)
14 [0f89ad9b] (000/876) No match (V2 was not tested)
15 [56c755a8] (000/872) No match (V2 was not tested)
16 [05843d84] (000/878) No match (V2 was not tested)
17 [d1c54f2b] (000/878) No match (V2 was not tested)
18 [943f7d73] (000/882) No match (V2 was not tested)
19 [0a38a027] (000/879) No match (V2 was not tested)
20 [cdc5f7d4] (000/878) No match (V2 was not tested)
21 [4495ec2c] (000/868) No match (V2 was not tested)
22 [523729f3] (000/879) No match (V2 was not tested)
23 [337301ad] (000/860) No match (V2 was not tested)
Offsetted by -42:
01 [7fd69401] (000/885) No match (V2 was not tested)
02 [df85011d] (000/886) No match (V2 was not tested)
03 [89de7683] (000/886) No match (V2 was not tested)
04 [33917bcd] (000/884) No match (V2 was not tested)
05 [0a7bd08b] (000/887) No match (V2 was not tested)
06 [c6a20f0b] (000/887) No match (V2 was not tested)
07 [51627f43] (000/887) No match (V2 was not tested)
08 [81e852ec] (000/882) No match (V2 was not tested)
09 [8c1bfd14] (000/881) No match (V2 was not tested)
10 [8f38e29b] (000/889) No match (V2 was not tested)
11 [524d4464] (000/883) No match (V2 was not tested)
12 [ee8c136f] (000/879) No match (V2 was not tested)
13 [4e28b5f4] (000/883) No match (V2 was not tested)
14 [246e605b] (000/876) No match (V2 was not tested)
15 [dba278e8] (000/872) No match (V2 was not tested)
16 [87f23a54] (000/878) No match (V2 was not tested)
17 [c8422fbb] (000/878) No match (V2 was not tested)
18 [77de26cb] (000/882) No match (V2 was not tested)
19 [eaac5307] (000/879) No match (V2 was not tested)
20 [91c7c43c] (000/878) No match (V2 was not tested)
21 [27c448bc] (000/868) No match (V2 was not tested)
22 [c5318ed3] (000/879) No match (V2 was not tested)
23 [554b86c5] (000/860) No match (V2 was not tested)

Track Peak [ CRC32 ] [W/O NULL] [ LOG ]
– 94,0 [42B2C874] [96569F07] CRC32
01 80,1 [3E0AE766] [18D3B2A7]
02 83,9 [BA2435E1] [AED4301A]
03 87,3 [35DB5CC0] [D522F939]
04 69,0 [21BD5F00] [26B92C0B]
05 85,7 [37EC4C2E] [30470632]
06 81,7 [B25A732C] [B9C59CE2]
07 84,5 [ADA82C69] [AC1CE5AF]
08 82,6 [5AFF4703] [3F0611BE]
09 74,5 [09E47C01] [0C1AFF0D]
10 55,2 [F3C5A493] [E3A2BDF7]
11 67,9 [26E05BBB] [F6C8DE87]
12 74,5 [38786F3D] [5B3F4420]
13 83,9 [AF6C7F88] [C42962F1]
14 83,0 [7D2DA11D] [D5E0F24B]
15 83,0 [10AD27D4] [0C7D8134]
16 63,3 [9BBDC41E] [375EEEE1]
17 94,0 [991DDE19] [C5D2C3E1]
18 82,6 [8DB12CEA] [2DBD92E5]
19 65,9 [7BDD366F] [68D032E8]
20 55,4 [0CEE5F88] [6C0572C2]
21 92,8 [DE7770C0] [4C29DF94]
22 75,5 [ACBC52DA] [EF8F8C61]
23 82,1 [16FFEE48] [5A9FEB20]


The Beatles - Anthology 3 (1996) Repost

All thanks go to dafnaplus

The Beatles in my Blog

Download The Beatles - Anthology 3 (1996):