Tags
Language
Tags

The Beatles: Dr. Ebbetts Canadian Albums Collection (1963-1980) [2002-2008, 9CD]

Posted By: v3122
The Beatles: Dr. Ebbetts Canadian Albums Collection (1963-1980) [2002-2008, 9CD]

The Beatles: Dr. Ebbetts Canadian Albums Collection (1963-1980)
CDRip | Flac(Image) + Cue, no Log & MP3 CBR 320Kbps
Dr. Ebbetts | ~ 1545 or 671 Mb | Artwork(jpg) -> 15 Mb
Classic Rock

~ Meet The Beatles! (Canada Stereo) (1964) [ST 2047]; Beatlemania! With The Beatles (Canada Narrow Stereo) (1980) [ST 6051], (Canada Wide Stereo) (1978) [ST 6051], (Canada Mono) (1963) [T 6051]; Twist And Shout (Canada Mono-Stereo) (1980) [ST 6054], (Canada Mono) (1964) [T 6054]; Long Tall Sally (Canada Mono-Stereo) V1 (1978) [ST 6063], V2 (1978) [ST 6063], (Canada Mono) (1964) [T 6063] ~

Dr. Ebbets was a needledropper (a person who rips near mint/mint condition or unplayed vinyl records) who was famous in the bootleg/audiophile communities for his Beatles releases, which are regarded by some as being the best sounding versions of those albums.

He retired in 2009 due to the upcoming release of The Beatles, but returned in 2010 to release four new titles to his most dedicated customers.

~ discogs
The Beatles: Dr. Ebbetts Canadian Albums Collection (1963-1980):

The Beatles: Dr. Ebbetts Canadian Albums Collection (1963-1980) [2002-2008, 9CD]

Tracklist CD1 - Meet The Beatles! (Canada Stereo) (1964) [ST 2047]:

01. I Want To Hold Your Hand [2:28]
02. I Saw Her Standing There [2:56]
03. This Boy [2:16]
04. It Won't Be Long [2:14]
05. All I've Got To Do [2:04]
06. All My Loving [2:10]
07. Don't Bother Me [2:30]
08. Little Child [1:48]
09. Till There Was You [2:16]
10. Hold Me Tight [2:34]
11. I Wanna Be Your Man [2:02]
12. Not A Second Time [2:08]

[CUETools log; Date: 18.01.2020 0:03:11; Version: 2.1.6]
[CTDB TOCID: 8IDwgc0otCOMIcKVlzoOhBQEReg-] found.
Track | CTDB Status
1 | (1/1) Accurately ripped
2 | (1/1) Accurately ripped
3 | (1/1) Accurately ripped
4 | (1/1) Differs in 276 samples @01:46:43-01:46:44
5 | (1/1) Accurately ripped
6 | (1/1) Accurately ripped
7 | (1/1) Accurately ripped
8 | (1/1) Accurately ripped
9 | (1/1) Accurately ripped
10 | (1/1) Accurately ripped
11 | (1/1) Accurately ripped
12 | (1/1) Accurately ripped
[AccurateRip ID: 000c92af-007439a8-ab066d0c] disk not present in database.

Track Peak [ CRC32 ] [W/O NULL]
– 100,0 [73F66B78] [C0B195EE]
01 100,0 [BBCC59E3] [B2039BE3]
02 99,9 [32AF1259] [7D930B67]
03 99,9 [3E84BEDB] [43603252]
04 98,1 [FF82994A] [D57F2A9D]
05 98,1 [62E755AC] [313A5232]
06 99,2 [DD52E32C] [7B5F7CC4]
07 99,5 [BC1A2994] [D6EA0297]
08 98,8 [6567F3DD] [DE95743D]
09 98,1 [D122E760] [295D9388]
10 98,5 [3D24970D] [934EC7CA]
11 99,1 [7EFAFA6B] [1E78C299]
12 100,0 [FCFCEBC6] [53C6622B]


The Beatles: Dr. Ebbetts Canadian Albums Collection (1963-1980) [2002-2008, 9CD]

Tracklist CD2 - Beatlemania! With The Beatles (Canada Narrow Stereo) (1980) [ST 6051]:

01. It Won't Be Long [true stereo] [2:18]
02. All I've Got To Do [true stereo] [2:08]
03. All My Loving [true stereo] [2:12]
04. Don't Bother Me [true stereo] [2:33]
05. Little Child [true stereo] [1:51]
06. Till There Was You [true stereo] [2:17]
07. Please Mister Postman [true stereo] [2:38]
08. Roll Over Beethoven [narrow stereo] [2:50]
09. Hold Me Tight [narrow stereo] [2:35]
10. You Really Got A Hold On Me [narrow stereo] [3:04]
11. I Wanna Be Your Man [narrow stereo] [2:03]
12. Devil In Her Heart [narrow stereo] [2:28]
13. Not A Second Time [narrow stereo] [2:09]
14. Money [narrow stereo] [2:47]

[CUETools log; Date: 18.01.2020 0:05:09; Version: 2.1.6]
[CTDB TOCID: Liq_Y5DM.eNChaY41KDK77q.NVo-] disk not present in database.
[AccurateRip ID: 00110313-00b70cf1-cf07f10e] found.
Track [ CRC | V2 ] Status
01 [802799b0|6511a990] (0+0/1) No match
02 [7c4fd45b|d91e962c] (0+0/1) No match
03 [6cc8cafa|7a5aa71e] (0+0/1) No match
04 [6f9b1a03|c6dffd7a] (0+0/1) No match
05 [8e7a0f85|bd8577e3] (0+0/1) No match
06 [45b82ed8|ef14ce65] (0+0/1) No match
07 [4b70622b|48127c16] (0+0/1) No match
08 [d2135172|10792926] (0+0/1) No match
09 [bceac401|62a6df4a] (0+0/1) No match
10 [6f68610e|0a7f3311] (0+0/1) No match
11 [f4dd2d6c|2d77623f] (0+0/1) No match
12 [acfbeddb|14e6d068] (0+0/1) No match
13 [137c84fe|1ad14b6b] (0+0/1) No match
14 [1abc14dc|25c02c6c] (0+0/1) No match
Offsetted by 6:
01 [c2ddc571] (0/1) No match (V2 was not tested)
02 [33f03f73] (0/1) No match (V2 was not tested)
03 [fdae52ba] (0/1) No match (V2 was not tested)
04 [85fc4f88] (0/1) No match (V2 was not tested)
05 [c5f5b533] (0/1) No match (V2 was not tested)
06 [60786b1c] (0/1) No match (V2 was not tested)
07 [62c9e619] (0/1) No match (V2 was not tested)
08 [ae250d23] (0/1) No match (V2 was not tested)
09 [3b55bb0f] (0/1) No match (V2 was not tested)
10 [65fbe5c0] (0/1) No match (V2 was not tested)
11 [b08c8527] (0/1) No match (V2 was not tested)
12 [c534aea4] (0/1) No match (V2 was not tested)
13 [a70ffe56] (0/1) No match (V2 was not tested)
14 [676f5f1b] (0/1) No match (V2 was not tested)

Track Peak [ CRC32 ] [W/O NULL]
– 100,0 [B670F8F6] [74BB9AF7]
01 90,5 [5D6499BB] [D4A6C9F2]
02 95,8 [5823B7A2] [051C56A0]
03 90,3 [22D957AA] [B61F4BA2]
04 88,6 [B6A0329E] [5BC03F83]
05 94,5 [B5B7FC11] [D2FDDCDA]
06 90,5 [00E8E2AA] [8AE1847C]
07 92,4 [F32057C2] [8D5A3538]
08 95,9 [22CCD865] [B50C370B]
09 98,0 [B55A02E7] [45E7551F]
10 91,8 [C30A8623] [066AB545]
11 100,0 [062895A4] [1C3AD400]
12 95,3 [D1B72881] [D96CFE08]
13 97,8 [C88E56A5] [E83B2297]
14 89,6 [C3A42C09] [01DD31E2]


The Beatles: Dr. Ebbetts Canadian Albums Collection (1963-1980) [2002-2008, 9CD]

Tracklist CD3 - Beatlemania! With The Beatles (Canada Wide Stereo) (1978) [ST 6051]:

01. It Won't Be Long [wide stereo] [2:18]
02. All I've Got To Do [wide stereo] [2:08]
03. All My Loving [wide stereo] [2:12]
04. Don't Bother Me [wide stereo] [2:33]
05. Little Child [wide stereo] [1:51]
06. Till There Was You [wide stereo] [2:17]
07. Please Mr. Postman [wide stereo] [2:37]
08. Roll Over Beethoven [wide stereo] [2:50]
09. Hold Me Tight [wide stereo] [2:35]
10. You Really Got A Hold On Me [wide stereo] [3:04]
11. I Wanna Be Your Man [wide stereo] [2:04]
12. Devil In Her Heart [wide stereo] [2:29]
13. Not A Second Time [wide stereo] [2:09]
14. Money [wide stereo] [2:49]

[CUETools log; Date: 18.01.2020 0:07:11; Version: 2.1.6]
[CTDB TOCID: RvOWAcEA8IvJmJBwnQh4OBEZrdA-] found.
Track | CTDB Status
1 | (4/4) Accurately ripped
2 | (3/4) Accurately ripped
3 | (2/4) Accurately ripped, or (1/4) differs in 22 samples @01:50:33
4 | (4/4) Accurately ripped
5 | (3/4) Accurately ripped
6 | (4/4) Accurately ripped
7 | (3/4) Accurately ripped
8 | (3/4) Accurately ripped
9 | (4/4) Accurately ripped
10 | (4/4) Accurately ripped
11 | (4/4) Accurately ripped
12 | (4/4) Accurately ripped
13 | (3/4) Accurately ripped, or (1/4) differs in 2 samples @02:08:71
14 | (3/4) Accurately ripped
[AccurateRip ID: 001105de-00b72f4e-bc07f40e] found.
Track [ CRC | V2 ] Status
01 [e6a8952e|6713f15c] (0+0/2) No match
02 [420956a7|61b9f2f0] (0+0/2) No match
03 [9a9ae544|ca222d80] (0+0/2) No match
04 [f0b4b4bf|4c367995] (0+0/2) No match
05 [fd2e861e|5fb646bc] (0+0/2) No match
06 [04b392b7|a256fa0e] (0+0/2) No match
07 [7902ca9b|1c06a9f0] (0+0/2) No match
08 [28c78d64|7852362c] (0+0/2) No match
09 [686ef1d6|aadc453a] (0+0/2) No match
10 [502a92a2|e1f59304] (0+0/2) No match
11 [6269fdcc|c47a83cd] (0+0/2) No match
12 [6044b091|8b0d3e6f] (0+0/2) No match
13 [816b5d8a|2b488a95] (0+0/2) No match
14 [7ec1dda2|c17e47a7] (0+0/2) No match
Offsetted by -300:
01 [d5e2fc5a] (0/2) No match (V2 was not tested)
02 [e92119f2] (0/2) No match (V2 was not tested)
03 [4c9a7468] (0/2) No match (V2 was not tested)
04 [08e92e9f] (0/2) No match (V2 was not tested)
05 [6c0fd6ba] (0/2) No match (V2 was not tested)
06 [0023cf77] (0/2) No match (V2 was not tested)
07 [07280247] (0/2) No match (V2 was not tested)
08 [e558e78d] (0/2) No match (V2 was not tested)
09 [b30705c8] (0/2) No match (V2 was not tested)
10 [b0df5df9] (0/2) No match (V2 was not tested)
11 [b226ed53] (0/2) No match (V2 was not tested)
12 [03a6f453] (0/2) No match (V2 was not tested)
13 [b0a92ca7] (0/2) No match (V2 was not tested)
14 [be7cf31b] (0/2) No match (V2 was not tested)

Track Peak [ CRC32 ] [W/O NULL]
– 100,0 [8F7D9068] [18132D82]
01 97,8 [B8A704EE] [4034BD28]
02 99,0 [71052FCD] [307B6D2C]
03 99,8 [6D0E70D0] [CEA0795B]
04 96,9 [D219F59B] [DCE24190]
05 100,0 [2952AB2A] [F0C9AA85]
06 98,7 [23BD5F2D] [4AB389D7]
07 99,8 [905D8CB6] [B0D23C33]
08 84,4 [F7FF3AEB] [FDAAD15C]
09 98,2 [58184DC3] [164106E9]
10 97,5 [7AA4DAF8] [106E4313]
11 94,8 [3D9BA2FB] [C86A528C]
12 96,7 [722E73FF] [3E89219A]
13 98,5 [9D940FD0] [228B47DE]
14 99,8 [02F0C209] [6F862A48]


The Beatles: Dr. Ebbetts Canadian Albums Collection (1963-1980) [2002-2008, 9CD]

Tracklist CD4 - Beatlemania! With The Beatles (Canada Mono) (1963) [T 6051]:

01. It Won't Be Long [2:14]
02. All I've Got To Do [2:04]
03. All My Loving [2:10]
04. Don't Bother Me [2:29]
05. Little Child [1:48]
06. Till There Was You [2:17]
07. Please Mister Postman [2:37]
08. Roll Over Beethoven [2:48]
09. Hold Me Tight [2:33]
10. You Really Got A Hold On Me [3:03]
11. I Wanna Be Your Man [1:59]
12. Devil In Her Heart [2:28]
13. Not A Second Time [2:08]
14. Money [2:47]

[CUETools log; Date: 18.01.2020 0:08:30; Version: 2.1.6]
[CTDB TOCID: iiZHYK2k2XYHiZ1GIcj_dAPq7eI-] disk not present in database.
[AccurateRip ID: 0010b56e-00b3f6af-b207d40e] disk not present in database.

Track Peak [ CRC32 ] [W/O NULL]
– 86,3 [5FB2944E] [A04220FC]
01 81,7 [2C1ABD12] [EEFB6426]
02 77,7 [4F4035BC] [AC23BE4B]
03 79,9 [B185C937] [345B9D45]
04 80,9 [177C67C9] [8B2E112D]
05 81,3 [0DAD4CF0] [DDDA240E]
06 81,8 [E2122FC0] [CF10D8AA]
07 79,3 [87EDFFF8] [BF5F37A0]
08 79,1 [9518F59E] [1836A0B9]
09 80,5 [0D54B07F] [4FF58973]
10 80,4 [64B3C962] [AE37FFD6]
11 77,9 [659D3E30] [13EB5AEC]
12 79,1 [DF9C1271] [4E693148]
13 79,4 [022B9D3B] [60A5C829]
14 86,3 [9BBF15C8] [D36A530E]


The Beatles: Dr. Ebbetts Canadian Albums Collection (1963-1980) [2002-2008, 9CD]

Tracklist CD5 - Twist And Shout (Canada Mono-Stereo) (1980) [ST 6054]:

01. Anna (Go To Him) [true mono] [3:02]
02. Chains [true mono] [2:29]
03. Boys [true mono] [2:29]
04. Ask Me Why [true mono] [2:30]
05. Please Please Me [true mono] [2:05]
06. Love Me Do [true mono] [2:24]
07. From Me To You [true mono] [2:00]
08. P.S. I Love You [duophonic stereo] [2:08]
09. Baby It's You [true stereo] [2:45]
10. Do You Want To Know A Secret [true stereo] [2:02]
11. A Taste Of Honey [true stereo] [2:08]
12. There's A Place [true stereo] [1:55]
13. Twist And Shout [true stereo] [2:36]
14. She Loves You [duophonic stereo] [2:22]

[CUETools log; Date: 18.01.2020 0:10:07; Version: 2.1.6]
[CTDB TOCID: lOObw.7wwrobSasyLewAbP45m7U-] disk not present in database.
[AccurateRip ID: 0011703a-00b7a6e0-ac07b60e] found.
Track [ CRC | V2 ] Status
01 [20fb50df|02db87a3] (0+0/1) No match
02 [3afaefe4|72c943b5] (0+0/1) No match
03 [b9415d45|5b81db9b] (0+0/1) No match
04 [4fafcfdc|4d90606e] (0+0/1) No match
05 [8670861a|0243d32b] (0+0/1) No match
06 [bc621f6c|ecf51e0e] (0+0/1) No match
07 [6ae3272d|39a644d3] (0+0/1) No match
08 [b3cc8ed8|5b324d5e] (0+0/1) No match
09 [0491bf5e|ce2c9826] (0+0/1) No match
10 [e12b3bb8|b96bc994] (0+0/1) No match
11 [b4eaaa6c|c836d049] (0+0/1) No match
12 [445ed865|25264a61] (0+0/1) No match
13 [ef70f7d0|fdfc17ff] (0+0/1) No match
14 [bf2ce1ca|f8518b3b] (0+0/1) No match

Track Peak [ CRC32 ] [W/O NULL]
– 100,0 [D1CA4D6B] [39460083]
01 97,8 [F4927E94] [ECC7CA37]
02 88,5 [3741C849] [B53B8232]
03 96,7 [6399DFB5] [BF3E7663]
04 94,8 [309C785F] [54FF4B8C]
05 96,0 [E20AFBD1] [CD769CEF]
06 93,2 [A5D9AB0D] [4361BBFF]
07 93,8 [9AB18875] [06B90220]
08 86,6 [EF188513] [EDE77C2F]
09 90,7 [4D2AAAAD] [E9F3CACA]
10 91,9 [8CF2669F] [7A01BF69]
11 83,6 [D9C52739] [3092B8CB]
12 90,1 [E6464D6B] [7CD80092]
13 96,0 [E41EB448] [19DC0A0F]
14 100,0 [32855A4B] [84DC7D86]


The Beatles: Dr. Ebbetts Canadian Albums Collection (1963-1980) [2002-2008, 9CD]

Tracklist CD6 - Twist And Shout (Canada Mono) (1964) [T 6054]:

01. Anna (Go To Him) [2:58]
02. Chains [2:27]
03. Boys [2:27]
04. Ask Me Why [2:28]
05. Please Please Me [2:04]
06. Love Me Do [2:23]
07. From Me To You [1:59]
08. P.S. I Love You [2:06]
09. Baby It's You [2:38]
10. Do You Want To Know A Secret [1:59]
11. A Taste Of Honey [2:05]
12. There's A Place [1:53]
13. Twist And Shout [2:35]
14. She Loves You [2:21]

[CUETools log; Date: 18.01.2020 0:11:19; Version: 2.1.6]
[CTDB TOCID: 9_xERsm1pRC0lgclDOxVFaeKb9w-] found.
Track | CTDB Status
1 | (1/2) Accurately ripped
2 | (1/2) Accurately ripped
3 | (1/2) Accurately ripped
4 | (1/2) Accurately ripped
5 | (1/2) Accurately ripped
6 | (1/2) Accurately ripped
7 | (1/2) Accurately ripped
8 | (1/2) Accurately ripped
9 | (1/2) Accurately ripped
10 | (1/2) Accurately ripped
11 | (1/2) Accurately ripped
12 | (1/2) Accurately ripped
13 | (1/2) Accurately ripped
14 | (1/2) Accurately ripped
[AccurateRip ID: 00112841-00b4a877-ac07970e] disk not present in database.

Track Peak [ CRC32 ] [W/O NULL]
– 100,0 [C7C501C5] [DF88CD52]
01 96,2 [7FECECDE] [60D536C5]
02 91,5 [27CCCA73] [B08FE18C]
03 100,0 [AA90974A] [FD269B7E]
04 89,6 [C403D6CB] [5DF43D59]
05 87,0 [01F6A71C] [7EFB81F4]
06 93,3 [007A6031] [0DBDDB98]
07 95,4 [1878C518] [CFD5D5C7]
08 80,2 [EAC1F6AA] [1AFD36D9]
09 83,9 [A358911A] [F1202FC3]
10 94,5 [6CC31E32] [7F1A29D2]
11 87,0 [41CEDD40] [8C20F065]
12 99,0 [CE7F6CF3] [36D2B54E]
13 91,1 [0280521B] [BFF9E3A9]
14 95,9 [1B11BC08] [C212686D]


The Beatles: Dr. Ebbetts Canadian Albums Collection (1963-1980) [2002-2008, 9CD]

Tracklist CD7 - Long Tall Sally (Canada Mono-Stereo) V1 (1978) [ST 6063]:

01. I Want To Hold Your Hand [mono] [2:30]
02. I Saw Her Standing There [mono] [2:57]
03. You Really Got A Hold On Me [mono] [3:04]
04. Devil In Her Heart [mono] [2:29]
05. Roll Over Beethoven [mono] [2:47]
06. Misery [mono] [1:51]
07. Long Tall Sally [mono] [2:05]
08. I Call Your Name [mono] [2:13]
09. Please Mister Postman [stereo] [2:38]
10. This Boy [mono] [2:17]
11. I'll Get You [mono] [2:07]
12. You Can't Do That [stereo] [2:35]

[CUETools log; Date: 18.01.2020 0:14:45; Version: 2.1.6]
[CTDB TOCID: 0f2fq2pnQl0t7yfVBqP3pU38g9Q-] found.
Track | CTDB Status
1 | (1/1) Accurately ripped
2 | (1/1) Accurately ripped
3 | (1/1) Accurately ripped
4 | (1/1) Accurately ripped
5 | (1/1) Accurately ripped
6 | (1/1) Accurately ripped
7 | (1/1) Accurately ripped
8 | (1/1) Accurately ripped
9 | (1/1) Accurately ripped
10 | (1/1) Accurately ripped
11 | (1/1) Accurately ripped
12 | (1/1) Accurately ripped
[AccurateRip ID: 000d9f20-007da2b3-9e06eb0c] disk not present in database.

Track Peak [ CRC32 ] [W/O NULL]
– 100,0 [D415BCC8] [2F720509]
01 97,7 [340078B9] [142B9FE1]
02 99,0 [F33A0D81] [4995396C]
03 81,4 [7736007A] [3F02DBBF]
04 99,4 [CB66F67C] [108E7D7B]
05 99,6 [3036EA45] [597B2E2F]
06 98,9 [8CF00D16] [E30FD09D]
07 98,6 [C324A59D] [EBD98291]
08 100,0 [169CF16F] [74AF463D]
09 86,6 [219B0288] [F798D3B4]
10 98,8 [27DB964C] [7469640D]
11 96,3 [E1A270D6] [BB043BA1]
12 99,9 [D2D26C98] [11DF8634]


The Beatles: Dr. Ebbetts Canadian Albums Collection (1963-1980) [2002-2008, 9CD]

Tracklist CD8 - Long Tall Sally (Canada Mono-Stereo) V2 (1978) [ST 6063]:

01. I Want To Hold Your Hand [mono] [2:29]
02. I Saw Her Standing There [stereo] [2:56]
03. You Really Got A Hold On Me [stereo] [3:05]
04. Devil In Her Heart [stereo] [2:28]
05. Roll Over Beethoven [stereo] [2:49]
06. Misery [stereo] [1:52]
07. Long Tall Sally [mono] [2:05]
08. I Call Your Name [mono] [2:13]
09. Please Mister Postman [stereo] [2:38]
10. This Boy [mono] [2:17]
11. I'll Get You [mono] [2:07]
12. You Can't Do That [stereo] [2:36]

[CUETools log; Date: 18.01.2020 0:16:39; Version: 2.1.6]
[CTDB TOCID: Fi6hxXgSYHB3XmRXfdhgqPKbkXU-] found.
Track | CTDB Status
1 | (2/3) Accurately ripped
2 | (2/3) Accurately ripped
3 | (2/3) Accurately ripped
4 | (2/3) Accurately ripped
5 | (2/3) Accurately ripped
6 | (2/3) Accurately ripped
7 | (2/3) Accurately ripped
8 | (2/3) Accurately ripped
9 | (2/3) Accurately ripped
10 | (2/3) Accurately ripped
11 | (2/3) Accurately ripped
12 | (2/3) Accurately ripped
[AccurateRip ID: 000da0ba-007db7b6-9306ed0c] found.
Track [ CRC | V2 ] Status
01 [16076162|d17a4fd5] (1+1/3) Accurately ripped
02 [770fd9cf|cd80b466] (1+1/3) Accurately ripped
03 [d860d00a|9982e8a9] (1+1/3) Accurately ripped
04 [71d1e3fe|18a54fd2] (1+1/3) Accurately ripped
05 [a03ba7fb|19b0105b] (1+1/3) Accurately ripped
06 [96e7f9e2|a4bb9331] (1+1/3) Accurately ripped
07 [4c43a797|55bb2581] (1+1/3) Accurately ripped
08 [7f3e50e5|af66b2f1] (1+1/3) Accurately ripped
09 [8ca752eb|f8103615] (1+1/3) Accurately ripped
10 [6b6fb2dc|3605bda7] (1+1/3) Accurately ripped
11 [30e24b6f|bc5bcf29] (1+1/3) Accurately ripped
12 [6b97b045|5197c75d] (1+1/3) Accurately ripped

Track Peak [ CRC32 ] [W/O NULL]
– 99,9 [99F4D8B8] [F4B71074]
01 99,9 [2FF375DC] [D80C324C]
02 99,9 [5497133C] [DCAE5B61]
03 99,9 [2C961E90] [C8B1C5CD]
04 99,9 [EF7F4F4C] [8EA6D09D]
05 99,9 [A3C380B1] [09770216]
06 98,1 [EB1D37B0] [AC361842]
07 92,3 [22D9A0C6] [7CF6D3D5]
08 99,9 [D2A1461D] [8ACE0A22]
09 99,9 [B24F21FF] [76AABBF6]
10 99,9 [DEF4E7CC] [AD13C327]
11 99,9 [6AF23628] [55AEFEA3]
12 99,9 [FEBB6CE1] [417F7D89]


The Beatles: Dr. Ebbetts Canadian Albums Collection (1963-1980) [2002-2008, 9CD]

Tracklist CD9 - Long Tall Sally (Canada Mono) (1964) [T 6063]:

01. I Want To Hold Your Hand [2:30]
02. I Saw Her Standing There [2:57]
03. You Really Got A Hold On Me [3:03]
04. Devil In Her Heart [2:28]
05. Roll Over Beethoven [2:47]
06. Misery [1:49]
07. Long Tall Sally [2:04]
08. I Call Your Name [2:09]
09. Please Mister Postman [2:36]
10. This Boy [2:18]
11. I'll Get You [2:07]
12. You Can't Do That [2:38]

[CUETools log; Date: 18.01.2020 0:18:07; Version: 2.1.6]
[CTDB TOCID: gXrbP5jgf60QlPsWJm76GlXqclo-] found.
Track | CTDB Status
1 | (1/1) Accurately ripped
2 | (1/1) Accurately ripped
3 | (1/1) Accurately ripped
4 | (1/1) Accurately ripped
5 | (1/1) Accurately ripped
6 | (1/1) Accurately ripped
7 | (1/1) Accurately ripped
8 | (1/1) Accurately ripped
9 | (1/1) Accurately ripped
10 | (1/1) Accurately ripped
11 | (1/1) Accurately ripped
12 | (1/1) Accurately ripped
[AccurateRip ID: 000d90f5-007d11e0-9006e60c] disk not present in database.

Track Peak [ CRC32 ] [W/O NULL]
– 100,0 [DCDF3E5F] [AC0C998B]
01 100,0 [FEC8129E] [AA442B7D]
02 91,4 [274EDD7E] [4DFDF4B4]
03 92,7 [25B7841C] [01F91418]
04 91,1 [9D3B73CE] [C62DB797]
05 84,6 [D56CB6EC] [38EC4D70]
06 77,5 [8F90C274] [E593828A]
07 75,4 [419DD094] [7D54C12B]
08 79,7 [DD3FC56F] [700DD8F4]
09 91,4 [60516127] [43568011]
10 76,3 [89045EF1] [02209E82]
11 78,5 [69C169BC] [007968C8]
12 81,2 [9299AE5E] [0B32E4CA]


All thanks go to the original releaser

Beatles in my Blog

Download The Beatles: Dr. Ebbetts Canadian Albums Collection (1963-1980):