Tags
Language
Tags

The Beatles - Dr. Ebbetts Stereo "Outfake" Remixes (2003, 2005)

Posted By: v3122
The Beatles - Dr. Ebbetts Stereo "Outfake" Remixes (2003, 2005)

The Beatles - Dr. Ebbetts Stereo "Outfake" Remixes (2003, 2005)
CDR | Flac(Image) + Cue, no Log | MP3 CBR 320Kbps
3CD | Dr. Ebbetts | ~ 644 or 243 Mb | Artwork(jpg) -> 9 Mb
Classic Rock

~ Please Please Me (UK Stereo 'Outfake' Remix 2003) [PCS 3042rm], With The Beatles (UK Stereo 'Outfake' Remix 2003) [PCS 3045rm], ubber Soul (UK Stereo 'Outfake' Remix 2005) [PCS 3075rm] ~

Dr. Ebbets was a needledropper (a person who rips near mint/mint condition or unplayed vinyl records) who was famous in the bootleg/audiophile communities for his Beatles releases, which are regarded by some as being the best sounding versions of those albums.

He retired in 2009 due to the upcoming release of The Beatles, but returned in 2010 to release four new titles to his most dedicated customers.

~ discogs
The Beatles - Dr. Ebbetts Stereo "Outfake" Remixes (2003, 2005)

The Beatles - Dr. Ebbetts Stereo "Outfake" Remixes (2003, 2005):

The Beatles - Dr. Ebbetts Stereo "Outfake" Remixes (2003, 2005)

Tracklist CD01 - Please Please Me (UK Stereo 'Outfake' Remix 2003) [PCS 3042rm]:

01. I Saw Her Standing There [2:56]
02. Misery [1:51]
03. Anna (Go To Him) [2:59]
04. Chains [2:28]
05. Boys [2:29]
06. Ask Me Why [2:28]
07. Please Please Me [2:03]
08. Love Me Do [2:20]
09. P.S. I Love You [2:02]
10. Baby It's You [2:42]
11. Do You Want To Know A Secret [2:00]
12. A Taste Of Honey [2:06]
13. There's A Place [1:53]
14. Twist And Shout [2:36]

[CUETools log; Date: 12.03.2020 10:29:30; Version: 2.1.4]
[AccurateRip ID: 00116fed-00b8268a-cb07b30e] found.
Track [ CRC | V2 ] Status
01 [f62c0dc7|11d16175] (0+0/1) No match
02 [e3784e35|1f377d3b] (0+0/1) No match
03 [0adc88a4|2a0272e6] (0+0/1) No match
04 [ed787c24|8da5ec4c] (0+0/1) No match
05 [84113f36|77bd66e0] (0+0/1) No match
06 [ee4f3481|ba1ab255] (0+0/1) No match
07 [665fd7b2|18a1a829] (0+0/1) No match
08 [04864033|de17b53e] (0+0/1) No match
09 [78e59d6f|f61b1cdd] (0+0/1) No match
10 [cb613f78|d72f2c46] (0+0/1) No match
11 [3bca9f76|619d2a22] (0+0/1) No match
12 [8529f6e3|444bfd06] (0+0/1) No match
13 [74577700|ad526c9f] (0+0/1) No match
14 [a927d67b|764d7caf] (0+0/1) No match
Offsetted by 6:
01 [9b1c0ba7] (1/1) Accurately ripped
02 [eed26536] (1/1) Accurately ripped
03 [b30fb402] (1/1) Accurately ripped
04 [36ff60be] (1/1) Accurately ripped
05 [197399ae] (1/1) Accurately ripped
06 [bc334a98] (1/1) Accurately ripped
07 [ee628544] (1/1) Accurately ripped
08 [a9ef4c91] (1/1) Accurately ripped
09 [4578dc75] (1/1) Accurately ripped
10 [a27e18b7] (1/1) Accurately ripped
11 [b735d24d] (1/1) Accurately ripped
12 [e817358e] (1/1) Accurately ripped
13 [4b8451b5] (1/1) Accurately ripped
14 [f74837c1] (1/1) Accurately ripped

Track Peak [ CRC32 ] [W/O NULL]
– 100,0 [B8835CF9] [117CFB0C]
01 91,7 [89CE20E2] [B03B8D2C]
02 85,9 [07380086] [C73BD4DF]
03 90,7 [E303499C] [7D08D0EF]
04 99,4 [A1672429] [857B7F8A]
05 100,0 [C02F4724] [C9163D98]
06 92,0 [D51F50CF] [BB2ECA1B]
07 90,2 [FCF94D36] [5B79C6F6]
08 91,5 [D2CEC56D] [519DAC15]
09 87,7 [2622E818] [CA92EFBE]
10 96,7 [B2B345F2] [70BCC848]
11 100,0 [CCC8D7FB] [A51D4BE6]
12 94,1 [8C17F55A] [EF993179]
13 89,3 [B1C04AA2] [FDEB87F5]
14 81,0 [D31DA6CF] [2A482E27]


The Beatles - Dr. Ebbetts Stereo "Outfake" Remixes (2003, 2005)

Tracklist CD02 - With The Beatles (UK Stereo 'Outfake' Remix 2003) [PCS 3045rm]:

01. It Won't Be Long [2:14]
02. All I've Got To Do [2:04]
03. All My Loving [2:09]
04. Don't Bother Me [2:30]
05. Little Child [1:49]
06. Till There Was You [2:16]
07. Please Mr. Postman [2:37]
08. Roll Over Beethoven [2:48]
09. Hold Me Tight [2:34]
10. You've Really Got A Hold On Me [3:03]
11. I Wanna Be Your Man [2:01]
12. Devil In Her Heart [2:27]
13. Not A Second Time [2:09]
14. Money (That's What I Want) [2:48]

[CUETools log; Date: 12.03.2020 10:37:25; Version: 2.1.4]
[AccurateRip ID: 0010ba19-00b43246-b607d70e] found.
Track [ CRC | V2 ] Status
01 [64e37a63|67aba74d] (1+0/3) Accurately ripped
02 [05a52d89|be8e379a] (1+0/3) Accurately ripped
03 [cf5dc748|20ddefe1] (1+0/3) Accurately ripped
04 [e764ff23|39f39d35] (1+0/3) Accurately ripped
05 [f2c139e7|e408a3aa] (1+0/3) Accurately ripped
06 [cbc89c01|49494b1e] (1+0/3) Accurately ripped
07 [47716fb8|813c8dd8] (1+0/3) Accurately ripped
08 [14a4fc41|b8300e5d] (1+0/3) Accurately ripped
09 [d51aebf5|63902a54] (1+0/3) Accurately ripped
10 [94a17c6a|a3298d71] (1+0/3) Accurately ripped
11 [e74cf0ea|62ee9914] (1+0/3) Accurately ripped
12 [9c82ec24|ba51ff40] (1+0/3) Accurately ripped
13 [f4f3cf7c|59d5a458] (1+0/3) Accurately ripped
14 [807e0e63|942800d7] (1+0/3) Accurately ripped
Offsetted by -78:
01 [1b7ab2a3] (1/3) Accurately ripped
02 [738cbecf] (1/3) Accurately ripped
03 [3a02e6ff] (1/3) Accurately ripped
04 [ef57d185] (1/3) Accurately ripped
05 [cbd48f4e] (1/3) Accurately ripped
06 [0eaecc5f] (1/3) Accurately ripped
07 [8e304ac2] (1/3) Accurately ripped
08 [1a1245be] (1/3) Accurately ripped
09 [99276718] (1/3) Accurately ripped
10 [2c8d9725] (1/3) Accurately ripped
11 [f2fdf8f4] (1/3) Accurately ripped
12 [e6afbc84] (1/3) Accurately ripped
13 [ce1396bb] (1/3) Accurately ripped
14 [790cbea6] (1/3) Accurately ripped

Track Peak [ CRC32 ] [W/O NULL]
– 96,8 [FD32C98E] [7DBAA3B2]
01 86,2 [F49EE24A] [9E0C7909]
02 85,0 [05FA3E0D] [813FC7FB]
03 81,7 [5C4E0502] [DD3A862B]
04 89,3 [DAFEBAA0] [E818DD0D]
05 89,9 [99FCEDDB] [8E4D6FFE]
06 78,2 [79A784D5] [D7E83A5A]
07 89,5 [D08F444A] [9A05F913]
08 96,8 [C2E2E9F3] [325BB260]
09 96,3 [FEC36D67] [F6CEF06B]
10 96,4 [697945B1] [ADDBD632]
11 86,9 [65A64A16] [447811B3]
12 90,6 [A8F98A59] [106D35EB]
13 86,9 [48C80075] [251078E2]
14 83,7 [BA17CD2B] [43D8B34E]


The Beatles - Dr. Ebbetts Stereo "Outfake" Remixes (2003, 2005)

Tracklist CD03 - ubber Soul (UK Stereo 'Outfake' Remix 2005) [PCS 3075rm]:

01. Drive My Car [2:33]
02. Norwegian Wood (This Bird Has Flown) [2:08]
03. You Won't See Me [3:26]
04. Nowhere Man [2:46]
05. Think For Yourself [2:21]
06. The Word [2:47]
07. Michelle [2:45]
08. What Goes On [2:50]
09. Girl [2:33]
10. I'm Looking Through You [2:29]
11. In My Life [2:29]
12. Wait [2:17]
13. If I Needed Someone [2:25]
14. Run For Your Life [2:22]

[CUETools log; Date: 12.03.2020 10:38:57; Version: 2.1.4]
[AccurateRip ID: 00130d08-00cacc1a-bb087c0e] found.
Track [ CRC | V2 ] Status
01 [5fd8aa14|a81c8317] (0+0/1) No match
02 [345fa467|4969e177] (0+0/1) No match
03 [4df269c2|cb07a0b1] (0+0/1) No match
04 [207ee360|a147099d] (0+0/1) No match
05 [2e9c85d0|4a77911d] (0+0/1) No match
06 [89752fd8|b26b3666] (0+0/1) No match
07 [a54631a7|f7bda01e] (0+0/1) No match
08 [519186a3|65a09d91] (0+0/1) No match
09 [a08bd2f7|84b7a37f] (0+0/1) No match
10 [09fb2d3d|327e1d88] (0+0/1) No match
11 [d62e8dea|52645d5c] (0+0/1) No match
12 [058851ff|d0cb0da5] (0+0/1) No match
13 [0916bd10|52fc2d3f] (0+0/1) No match
14 [3d0ca2ba|d671ce8b] (0+0/1) No match
Offsetted by 6:
01 [092af581] (1/1) Accurately ripped
02 [81011587] (1/1) Accurately ripped
03 [92f23e35] (1/1) Accurately ripped
04 [cfa3910f] (1/1) Accurately ripped
05 [82e85fbc] (1/1) Accurately ripped
06 [26b9915b] (1/1) Accurately ripped
07 [22d48604] (1/1) Accurately ripped
08 [72628116] (1/1) Accurately ripped
09 [13b006b8] (1/1) Accurately ripped
10 [218d4ebb] (1/1) Accurately ripped
11 [612cd75a] (1/1) Accurately ripped
12 [bead095b] (1/1) Accurately ripped
13 [92ed4446] (1/1) Accurately ripped
14 [7f6f8e7c] (0/1) No match (V2 was not tested)

Track Peak [ CRC32 ] [W/O NULL]
– 100,0 [F4C77CAC] [0CA1A7DF]
01 94,3 [42A4D2A6] [ECBD4028]
02 92,9 [B955F57E] [8B95EDD2]
03 92,0 [AA6A7E5C] [42E0A761]
04 87,2 [1495EFD9] [C4989A56]
05 100,0 [1CA4FA65] [A0B3B847]
06 93,4 [CD7CAAEE] [76FE4FB9]
07 91,1 [23554EBF] [5AA1AFFB]
08 84,6 [080F9068] [371A7978]
09 96,5 [706DFAE7] [1A881808]
10 92,8 [7D49F85A] [B6A6A4B6]
11 91,3 [6E42343F] [5139A57A]
12 100,0 [85DB8E84] [E19AAC95]
13 88,5 [DA7BFC0C] [50CDF36E]
14 94,4 [4ADC794B] [2DACA09A]


All thanks go to the original releaser

Beatles in my Blog

Download The Beatles - Dr. Ebbetts Stereo "Outfake" Remixes (2003, 2005):