Tags
Language
Tags
May 2024
Su Mo Tu We Th Fr Sa
28 29 30 1 2 3 4
5 6 7 8 9 10 11
12 13 14 15 16 17 18
19 20 21 22 23 24 25
26 27 28 29 30 31 1

The Beatles - First (1985)

Posted By: popsakov
The Beatles - First (1985)

The Beatles - First (1985)
EAC Rip | FLAC (Img) + Cue + Log ~ 261 Mb | MP3 CBR320 ~ 117 Mb
Full Scans | 00:40:50 | RAR 5% Recovery
Rock & Roll, Beat | Polydor #823 701-2 YH

The Early Tapes of The Beatles is the first digital repackaging of The Beatles' First, the 1964 German compilation album of Tony Sheridan and The Beatles recordings. The songs were recorded in Hamburg between 1961 and 1963. Most of the tracks feature vocals by Sheridan. Only tracks 1-5, 7, 10, and 11 actually feature the Beatles, with John Lennon singing lead on "Ain't She Sweet" and featuring "Cry for a Shadow", an instrumental written and performed by the British group alone. The other songs are performed by Sheridan and other musicians, identified as "The Beat Brothers". This CD, which was released in 1984, includes two additional tracks and an extended version of "Ya Ya" and was reissued in 2004 with a different design on Universal Music's Spectrum label. The song "Take Out Some Insurance on Me, Baby" was originally mistitled "If You Love Me, Baby" on all versions until 1970 when in the US, it's proper title was used.

***************

The Beatles - First (1985)

The Beatles - First (1985)

Track List:

01. Ain't She Sweet [2:15]
02. Cry For A Shadow [2:25]
03. When The Saints Go Marching In [3:21]
04. Why [3:01]
05. If You Love Me, Baby [2:56]
06. What'd I Say [2:41]
07. Sweet Georgia Brown [2:07]
08. Let's Dance [2:36]
09. Ruby Baby [2:54]
10. My Bonnie [2:44]
11. Nobody's Child [3:58]
12. Ready Teddy [2:02]
13. Ya Ya (Parts 1 + 2) [5:10]
14. Kansas City [2:39]

Exact Audio Copy V1.3 from 2. September 2016

EAC extraction logfile from 26. May 2020, 16:18

The Beatles / First

Used drive : ASUS DRW-24D5MT Adapter: 1 ID: 0

Read mode : Secure
Utilize accurate stream : Yes
Defeat audio cache : Yes
Make use of C2 pointers : No

Read offset correction : 6
Overread into Lead-In and Lead-Out : No
Fill up missing offset samples with silence : Yes
Delete leading and trailing silent blocks : No
Null samples used in CRC calculations : Yes
Used interface : Native Win32 interface for Win NT & 2000

Used output format : User Defined Encoder
Selected bitrate : 128 kBit/s
Quality : High
Add ID3 tag : No
Command line compressor : C:\Program Files (x86)\Exact Audio Copy\FLAC\FLAC.EXE
Additional command line options : -V -8 -T "Date=%year%" -T "Genre=%genre%" %source%


TOC of the extracted CD

Track | Start | Length | Start sector | End sector
––––––––––––––––––––––––––––-
1 | 0:00.32 | 2:15.15 | 32 | 10171
2 | 2:15.47 | 2:25.23 | 10172 | 21069
3 | 4:40.70 | 3:21.07 | 21070 | 36151
4 | 8:02.02 | 3:01.08 | 36152 | 49734
5 | 11:03.10 | 2:56.32 | 49735 | 62966
6 | 13:59.42 | 2:40.55 | 62967 | 75021
7 | 16:40.22 | 2:07.05 | 75022 | 84551
8 | 18:47.27 | 2:35.63 | 84552 | 96239
9 | 21:23.15 | 2:53.72 | 96240 | 109286
10 | 24:17.12 | 2:43.45 | 109287 | 121556
11 | 27:00.57 | 3:57.38 | 121557 | 139369
12 | 30:58.20 | 2:02.37 | 139370 | 148556
13 | 33:00.57 | 5:10.33 | 148557 | 171839
14 | 38:11.15 | 2:38.55 | 171840 | 183744


Range status and errors

Selected range

Filename F:\ЕАС\rwa12\The Beatles - First.wav

Peak level 95.6 %
Extraction speed 1.6 X
Range quality 100.0 %
Test CRC 190432F1
Copy CRC 190432F1
Copy OK

No errors occurred


AccurateRip summary

Track 1 accurately ripped (confidence 24) [AF1D5B63] (AR v2)
Track 2 accurately ripped (confidence 24) [ECFCD52D] (AR v2)
Track 3 accurately ripped (confidence 23) [3302D2BE] (AR v2)
Track 4 accurately ripped (confidence 24) [CEEF39BC] (AR v2)
Track 5 accurately ripped (confidence 24) [46B1B772] (AR v2)
Track 6 accurately ripped (confidence 24) [73038E3E] (AR v2)
Track 7 accurately ripped (confidence 24) [79D8812B] (AR v2)
Track 8 accurately ripped (confidence 24) [7A90F7D4] (AR v2)
Track 9 accurately ripped (confidence 24) [9EA05938] (AR v2)
Track 10 accurately ripped (confidence 25) [CAEF8843] (AR v2)
Track 11 accurately ripped (confidence 24) [2D1DC8AC] (AR v2)
Track 12 accurately ripped (confidence 25) [05FCD00C] (AR v2)
Track 13 accurately ripped (confidence 25) [DFA99E0C] (AR v2)
Track 14 accurately ripped (confidence 24) [7C8BB80B] (AR v2)

All tracks accurately ripped

End of status report

–– CUETools DB Plugin V2.1.6

[CTDB TOCID: DQ4Jw4q.xIBMd5PLaxDCXuOlAxs-] found
Submit result: DQ4Jw4q.xIBMd5PLaxDCXuOlAxs- has been confirmed
Track | CTDB Status
1 | (204/209) Accurately ripped
2 | (206/209) Accurately ripped
3 | (204/209) Accurately ripped
4 | (206/209) Accurately ripped
5 | (206/209) Accurately ripped
6 | (206/209) Accurately ripped
7 | (206/209) Accurately ripped
8 | (206/209) Accurately ripped
9 | (206/209) Accurately ripped
10 | (206/209) Accurately ripped
11 | (206/209) Accurately ripped
12 | (206/209) Accurately ripped
13 | (204/209) Accurately ripped
14 | (205/209) Accurately ripped


==== Log checksum 8B874744CB4A8D953DE703C9254CE534E09AF57838F74C33CEEBFA325A05696A ====

[CUETools log; Date: 10.06.2020 1:25:44; Version: 2.1.6]
Pregap length 00:00:32.
[CTDB TOCID: DQ4Jw4q.xIBMd5PLaxDCXuOlAxs-] found.
Track | CTDB Status
1 | (206/211) Accurately ripped
2 | (208/211) Accurately ripped
3 | (206/211) Accurately ripped
4 | (208/211) Accurately ripped
5 | (208/211) Accurately ripped
6 | (208/211) Accurately ripped
7 | (208/211) Accurately ripped
8 | (208/211) Accurately ripped
9 | (208/211) Accurately ripped
10 | (208/211) Accurately ripped
11 | (208/211) Accurately ripped
12 | (208/211) Accurately ripped
13 | (206/211) Accurately ripped
14 | (207/211) Accurately ripped
[AccurateRip ID: 0013fe5a-00d76c7e-b809910e] found.
Track [ CRC | V2 ] Status
01 [03822015|af1d5b63] (007+024/169) Accurately ripped
02 [170a3e0f|ecfcd52d] (007+024/168) Accurately ripped
03 [d48a3b6a|3302d2be] (006+023/162) Accurately ripped
04 [fb0f6b99|ceef39bc] (006+024/161) Accurately ripped
05 [32e09cc6|46b1b772] (006+024/165) Accurately ripped
06 [5eb61104|73038e3e] (006+024/161) Accurately ripped
07 [2fa56cf8|79d8812b] (006+024/163) Accurately ripped
08 [5d4e1c6c|7a90f7d4] (006+024/162) Accurately ripped
09 [b5b7dc5b|9ea05938] (006+024/162) Accurately ripped
10 [b12ff186|caef8843] (007+025/165) Accurately ripped
11 [9223d694|2d1dc8ac] (006+024/162) Accurately ripped
12 [8de9ebb7|05fcd00c] (006+025/160) Accurately ripped
13 [206fb5a5|dfa99e0c] (006+025/159) Accurately ripped
14 [d1b2a072|7c8bb80b] (006+024/160) Accurately ripped
Offsetted by -2496:
01 [e161adcb] (002/169) Accurately ripped
02 [68f14090] (002/168) Accurately ripped
03 [cd9f6df4] (002/162) Accurately ripped
04 [5230d774] (002/161) Accurately ripped
05 [07427d4e] (002/165) Accurately ripped
06 [6ee9d7d9] (002/161) Accurately ripped
07 [72c1fed2] (002/163) Accurately ripped
08 [17e0facb] (002/162) Accurately ripped
09 [64f4b877] (002/162) Accurately ripped
10 [3ae06ef7] (002/165) Accurately ripped
11 [18c222ed] (002/162) Accurately ripped
12 [fcd3a571] (002/160) Accurately ripped
13 [9dde5817] (002/159) Accurately ripped
14 [56b579c9] (002/160) Accurately ripped
Offsetted by -1678:
01 [13659bdb] (003/169) Accurately ripped
02 [37deb6b5] (003/168) Accurately ripped
03 [1af7b6da] (003/162) Accurately ripped
04 [501779f5] (003/161) Accurately ripped
05 [52df13e5] (003/165) Accurately ripped
06 [0f454cc9] (003/161) Accurately ripped
07 [3969b851] (003/163) Accurately ripped
08 [95bc4cfc] (003/162) Accurately ripped
09 [304145a8] (003/162) Accurately ripped
10 [4dc94b3d] (003/165) Accurately ripped
11 [7b537154] (003/162) Accurately ripped
12 [c7633099] (003/160) Accurately ripped
13 [a8c13d5c] (003/159) Accurately ripped
14 [56987a79] (003/160) Accurately ripped
Offsetted by -928:
01 [bcc99276] (005/169) Accurately ripped
02 [803167ab] (005/168) Accurately ripped
03 [927a48c1] (005/162) Accurately ripped
04 [66c9de02] (005/161) Accurately ripped
05 [3cd1857e] (005/165) Accurately ripped
06 [2e5bd850] (005/161) Accurately ripped
07 [f40b2971] (005/163) Accurately ripped
08 [4eb172a8] (005/162) Accurately ripped
09 [1ccbc59a] (005/162) Accurately ripped
10 [1ee96c9f] (005/165) Accurately ripped
11 [cbe4a8ba] (005/162) Accurately ripped
12 [4ab6e3f7] (005/160) Accurately ripped
13 [48eff92d] (005/159) Accurately ripped
14 [c450bbf7] (005/160) Accurately ripped
Offsetted by -264:
01 [73ff74b2] (009/169) Accurately ripped
02 [8c025786] (009/168) Accurately ripped
03 [866249ad] (009/162) Accurately ripped
04 [99561bfd] (009/161) Accurately ripped
05 [48e11d5b] (009/165) Accurately ripped
06 [ea72a9a9] (008/161) Accurately ripped
07 [a4b9f5e6] (009/163) Accurately ripped
08 [df56407c] (009/162) Accurately ripped
09 [aa88dade] (009/162) Accurately ripped
10 [cc191ca4] (009/165) Accurately ripped
11 [89a2a789] (009/162) Accurately ripped
12 [039858c5] (009/160) Accurately ripped
13 [7a217f92] (009/159) Accurately ripped
14 [bb2b73e3] (009/160) Accurately ripped
Offsetted by 100:
01 [fb1f9e91] (017/169) Accurately ripped
02 [3674dfff] (017/168) Accurately ripped
03 [f84b2ca5] (016/162) Accurately ripped
04 [4fac3195] (015/161) Accurately ripped
05 [2bcf873c] (017/165) Accurately ripped
06 [3f589eeb] (016/161) Accurately ripped
07 [796a226e] (016/163) Accurately ripped
08 [d45b6078] (016/162) Accurately ripped
09 [9a8ace4b] (017/162) Accurately ripped
10 [aa0d43d7] (017/165) Accurately ripped
11 [9edba40c] (016/162) Accurately ripped
12 [95bb50ea] (016/160) Accurately ripped
13 [b3ee3923] (016/159) Accurately ripped
14 [b7e6b82d] (016/160) Accurately ripped
Offsetted by 1534:
01 [57fcda1d] (017/169) Accurately ripped
02 [67d366ad] (018/168) Accurately ripped
03 [9b05dc45] (018/162) Accurately ripped
04 [a25bd765] (017/161) Accurately ripped
05 [9b807037] (018/165) Accurately ripped
06 [e83af54d] (017/161) Accurately ripped
07 [69c1cbc9] (018/163) Accurately ripped
08 [20db1ca1] (016/162) Accurately ripped
09 [cb075327] (016/162) Accurately ripped
10 [15ec7704] (017/165) Accurately ripped
11 [0aeda25e] (017/162) Accurately ripped
12 [2758f20a] (016/160) Accurately ripped
13 [2c7a880f] (015/159) Accurately ripped
14 [3a21b343] (017/160) Accurately ripped
Offsetted by -1165:
01 [1cd54af9] (002/169) Accurately ripped
02 [5ebff121] (002/168) Accurately ripped
03 [141fdfb8] (000/162) No match
04 [74ca3a33] (000/161) No match
05 [fc78f4cb] (000/165) No match
06 [942a2c45] (000/161) No match
07 [6c7a3652] (000/163) No match
08 [42ccd8af] (000/162) No match
09 [3c346c7d] (000/162) No match
10 [bda3bd04] (000/165) No match
11 [c9e9f58d] (000/162) No match
12 [3287554a] (000/160) No match
13 [0ef18e65] (000/159) No match
14 [fd436c60] (000/160) No match

Track Peak [ CRC32 ] [W/O NULL] [ LOG ]
– 95,6 [190432F1] [D601A047] CRC32
01 82,5 [32445EEA] [DC3A5507]
02 78,7 [CCE335D2] [19F077A0]
03 82,1 [B4C1187E] [AD570D07]
04 89,4 [5EA1C7D0] [7EC4517E]
05 74,2 [5090737B] [905DD15B]
06 79,7 [42B4C991] [8A753CD4]
07 73,4 [D7CD972C] [A7801331]
08 76,3 [C9EE5359] [A4C35C10]
09 87,9 [7EA941FC] [24D2FE0E]
10 78,5 [97F24CFE] [A4CD1370]
11 72,7 [756E171B] [FE6E8A0B]
12 82,9 [697C9E8D] [481D1B52]
13 92,4 [A9AC36FF] [80CF3218]
14 95,6 [49ED9BE5] [F51C75E2]

The Beatles - First (1985)


All thanks go to rwa12

>>> The Beatles in my Blog <<<

DOWNLOAD: