Subcategories

The Black Tongued Bells - Every Tongue Has A Tale To Tell (2013)

Posted By: popsakov
The Black Tongued Bells - Every Tongue Has A Tale To Tell (2013)

The Black Tongued Bells - Every Tongue Has A Tale To Tell (2013)
EAC Rip | FLAC (Img) + Cue + Log ~ 575 Mb | MP3 CBR320 ~ 214 Mb
Full Scans | 01:11:51 | RAR 5% Recovery
Swamp Blues, Blues Rock, Roots Rock, Americana | Rankoutsider Records #Outsider 44

Singular "American Swamp Music" stylists The Black Tongued Bells perpetrate an accomplished, yet subtly hazardous, brand of Spiritual Mayhem. Working a sound imbued with Deep Blues menace, soul-stirring Gospel and hopped-up Rock & Roll desperation, The Bells' blend of musical vernacular perversion, offbeat expression and intoxicating atmospherics infects with a flash-bang fever from which there is no recovery. ~ Jonny Whiteside, LA Weekly

The Black Tongued Bells - Every Tongue Has A Tale To Tell (2013)

Every tongue has a tale to tell and we got more than our fair share. We took our name from a Dylan Thomas poem and, in the winter of 2001, set out to create our own brand of roots music – dubbed “American Swamp”. We tap everything from Roots Rock and Roll, Blues and Motown to Americana, Cajun and Gospel. Once forced to describe the Bells sound in a single sentence, D. Miner replied; “Imagine if the Stones came from Louisiana…they might sound like us”.

We’re known for two distinctly different types of show. The first is our Electrified Roots Rock ‘n Roll Show for which we plug-in and are joined by our gospel singers and, on occasion, special guest artists. Our brand of roots music has proven to be a great fit with Blues, Rock, Americana and Country acts. Our “American Swamp Music” goes well with them all. Our second show is an all acoustic “Swamp Opera” entitled; That Great and Dreadful Day…Tall Tales from the American Swamp. A play of the musical theatre variety, it employs the classic combination of storyteller and song with a cast of seven in period costume staged on a sharecropper’s cabin set. Tales are told in story and song that take the audience on a journey through the Depression Era, the War Years and into the 1960s. Sold-out performances and standing ovations continue to propel this production.
The Black Tongued Bells - Every Tongue Has A Tale To Tell (2013)

Track List:

01. Comin' Back for More [03:29]
02. Down in the Hood [04:39]
03. Jukin' Joint [04:43]
04. She Ain't Got the Time [04:34]
05. Door to Door Business [05:54]
06. The Midnight Porter [04:54]
07. Rattle Some Bones [05:04]
08. Long Way to Go [05:07]
09. Kingbee Jam [03:56]
10. Willie Lost It All [07:51]
11. Sixteen Tons [04:18]
12. Gimme That Rise [05:25]
13. Beautiful Bride [04:17]
14. Hello Misery [07:40]

Exact Audio Copy V0.99 prebeta 5 from 4. May 2009

Отчёт EAC об извлечении, выполненном 3. марта 2013, 14:04

The Black Tongued Bells / Every Tongue Has a Tale to Tell

Дисковод: PLEXTOR DVDR PX-880SA Adapter: 1 ID: 0

Режим чтения : Достоверность
Использование точного потока : Да
Отключение кэша аудио : Да
Использование указателей C2 : Нет

Коррекция смещения при чтении : 6
Способность читать области Lead-in и Lead-out : Нет
Заполнение пропущенных сэмплов тишиной : Да
Удаление блоков с тишиной в начале и конце : Нет
При вычислениях CRC использовались нулевые сэмплы : Да
Интерфейс : Установленный внешний ASPI-интерфейс

Выходной формат : Пользовательский кодировщик
Выбранный битрейт : 1024 kBit/s
Качество : Высокий
Добавление ID3-тэга : Нет
Утилита сжатия : C:\Program Files\Exact Audio Copy\FLAC\FLAC.EXE
Дополнительные параметры : -10 -V -T "ARTIST=%a" -T "TITLE=%t" -T "ALBUM=%g" -T "DATE=%y" -T "TRACKNUMBER=%n" -T "GENRE=%m" -T "COMMENT=%e" %s -o %d


TOC извлечённого CD

Трек | Старт | Длительность | Начальный сектор | Конечный сектор
––––––––––––––––––––––––––––––––––-
1 | 0:00.00 | 3:29.39 | 0 | 15713
2 | 3:29.39 | 4:39.12 | 15714 | 36650
3 | 8:08.51 | 4:43.03 | 36651 | 57878
4 | 12:51.54 | 4:33.49 | 57879 | 78402
5 | 17:25.28 | 5:53.73 | 78403 | 104950
6 | 23:19.26 | 4:54.35 | 104951 | 127035
7 | 28:13.61 | 5:03.59 | 127036 | 149819
8 | 33:17.45 | 5:07.23 | 149820 | 172867
9 | 38:24.68 | 3:56.00 | 172868 | 190567
10 | 42:20.68 | 7:51.05 | 190568 | 225897
11 | 50:11.73 | 4:17.61 | 225898 | 245233
12 | 54:29.59 | 5:24.44 | 245234 | 269577
13 | 59:54.28 | 4:17.43 | 269578 | 288895
14 | 64:11.71 | 7:39.34 | 288896 | 323354


Характеристики диапазона извлечения и сообщения об ошибках

Выбранный диапазон

Имя файла D:\BitComet\The Black Tongued Bells - Every Tongue Has a Tale to Tell(2013)(flac)\The Black Tongued Bells - Every Tongue Has a Tale to Tell.wav

Пиковый уровень 92.4 %
Качество диапазона 100.0 %
CRC теста 8153B802
CRC копии 8153B802
Копирование… OK

Ошибок не произошло


AccurateRip: сводка

Трек 1 нет в базе данных
Трек 2 нет в базе данных
Трек 3 нет в базе данных
Трек 4 нет в базе данных
Трек 5 нет в базе данных
Трек 6 нет в базе данных
Трек 7 нет в базе данных
Трек 8 нет в базе данных
Трек 9 нет в базе данных
Трек 10 нет в базе данных
Трек 11 нет в базе данных
Трек 12 нет в базе данных
Трек 13 нет в базе данных
Трек 14 нет в базе данных

Ни одного трека нет в базе AccurateRip

Конец отчёта

The Black Tongued Bells - Every Tongue Has A Tale To Tell (2013)


All thanks go to izia1956


>>> My Blog <<<

DOWNLOAD: