Tags
Language
Tags
July 2024
Su Mo Tu We Th Fr Sa
30 1 2 3 4 5 6
7 8 9 10 11 12 13
14 15 16 17 18 19 20
21 22 23 24 25 26 27
28 29 30 31 1 2 3

The Blues Mystery - Diesel Rock (2015) RE-UP

Posted By: popsakov
The Blues Mystery - Diesel Rock (2015) RE-UP

The Blues Mystery - Diesel Rock (2015)
EAC Rip | FLAC (Img) + Cue + Log ~ 346 Mb | MP3 CBR320 ~ 111 Mb
Full Scans ~ 63 Mb | RAR 5% Recovery
Electric Blues, Blues Rock | PBR Record #PBR82084

After the international success of their first album the second one named „Diesel Rock“ shows even more spice and refinement. The lyrics continue the narrative threat and life is really pulsating within. Some songs to heat up, and when there’s enough tension, the concert ignites itself. Simply Diesel Rock or if you want blues-rock with a touch of funk. Their first album had a great response in the English speaking regions, with lots of Airplay in the USA, position 3 in the countdown of Radio Caroline and praise by the journal Blues Matters from the UK. Their concerts are the finest, be it in a club or on the stage of a festival. Willy Matt possesses the charm of a man, who hasn’t forgotten how to laugh despite all the blues lived. Shrewd he lights his cigar, and smokes it while playing guitar and singing at the same time. It feels again sometimes hard as the cliffs of the Alps, and just the same you can find tender flowers touching us.
The Blues Mystery - Diesel Rock (2015) RE-UP

Track List:

01. Grimaces On The Bad Mood [03:52]
02. Don't Get Close To Me Today [03:36]
03. The Motorbikes Are Roaring [03:37]
04. Wild Love ( Tamed By The Child ) [04:25]
05. Half A Man [04:51]
06. I'm Coming Back [02:55]
07. A Daughter Can Break Your Heart [04:37]
08. With Just One Look [04:00]
09. Son [03:08]
10. Diesel Rock [05:07]
11. Over The Mountains [05:57]

Exact Audio Copy V1.0 beta 3 from 29. August 2011

Отчёт EAC об извлечении, выполненном 18. апреля 2015, 14:32

The Blues Mystery / Diesel Rock

Дисковод: PLEXTOR DVDR PX-880SA Adapter: 1 ID: 0

Режим чтения : Достоверность
Использование точного потока : Да
Отключение кэша аудио : Да
Использование указателей C2 : Нет

Коррекция смещения при чтении : 6
Способность читать области Lead-in и Lead-out : Нет
Заполнение пропущенных сэмплов тишиной : Да
Удаление блоков с тишиной в начале и конце : Нет
При вычислениях CRC использовались нулевые сэмплы : Да
Интерфейс : Установленный внешний ASPI-интерфейс

Выходной формат : Пользовательский кодировщик
Выбранный битрейт : 1024 kBit/s
Качество : Высокий
Добавление ID3-тега : Нет
Утилита сжатия : C:\Program Files\Exact Audio Copy\FLAC\FLAC.EXE
Дополнительные параметры : -10 -V -T "ARTIST=%artist%" -T "ALBUM=%albumtitle%" -T "DATE=%year%" -T "GENRE=%genre%" -T "COMMENT=ripped by izia1956" %source%


TOC извлечённого CD

Трек | Старт | Длительность | Начальный сектор | Конечный сектор
––––––––––––––––––––––––––––––––––-
1 | 0:00.00 | 3:51.65 | 0 | 17389
2 | 3:51.65 | 3:35.66 | 17390 | 33580
3 | 7:27.56 | 3:36.66 | 33581 | 49846
4 | 11:04.47 | 4:24.07 | 49847 | 69653
5 | 15:28.54 | 4:50.07 | 69654 | 91410
6 | 20:18.61 | 2:54.24 | 91411 | 104484
7 | 23:13.10 | 4:36.09 | 104485 | 125193
8 | 27:49.19 | 3:59.55 | 125194 | 143173
9 | 31:48.74 | 3:07.44 | 143174 | 157242
10 | 34:56.43 | 5:06.46 | 157243 | 180238
11 | 40:03.14 | 5:56.26 | 180239 | 206964


Характеристики диапазона извлечения и сообщения об ошибках

Выбранный диапазон

Имя файла D:\BitComet\The Blues Mystery - Diesel Rock (2015)\The Blues Mystery - Diesel Rock.wav

Пиковый уровень 93.5 %
Скорость извлечения 2.9 X
Качество диапазона 100.0 %
CRC теста 53DAF9C5
CRC копии 53DAF9C5
Копирование… OK

Ошибок не произошло


AccurateRip: сводка

Трек 1 отсутствует в базе данных
Трек 2 отсутствует в базе данных
Трек 3 отсутствует в базе данных
Трек 4 отсутствует в базе данных
Трек 5 отсутствует в базе данных
Трек 6 отсутствует в базе данных
Трек 7 отсутствует в базе данных
Трек 8 отсутствует в базе данных
Трек 9 отсутствует в базе данных
Трек 10 отсутствует в базе данных
Трек 11 отсутствует в базе данных

Ни одного трека нет в базе AccurateRip

Конец отчёта

==== Контрольная сумма отчёта 16047C5E4DB9CBB9B0A6DDD4A0552664CAB7CB0ECB7346E5FE63955CC199D966 ====

foobar2000 1.2.6 / Dynamic Range Meter 1.1.1
log date: 2015-04-19 06:54:35

––––––––––––––––––––––––––––––––––––––––
Analyzed: The Blues Mystery / Diesel Rock
––––––––––––––––––––––––––––––––––––––––

DR Peak RMS Duration Track
––––––––––––––––––––––––––––––––––––––––
DR7 -0.58 dB -8.94 dB 3:52 01-Grimaces On The Bad Mood
DR7 -0.58 dB -10.07 dB 3:36 02-Don't Get Close To Me Today
DR6 -0.58 dB -8.44 dB 3:37 03-The Motorbikes Are Roaring
DR7 -0.58 dB -9.03 dB 4:24 04-Wild Love ( Tamed By The Child )
DR6 -0.58 dB -8.16 dB 4:50 05-Half A Man
DR7 -0.58 dB -9.26 dB 2:54 06-I'm Coming Back
DR8 -0.58 dB -9.88 dB 4:36 07-A Daughter Can Break Your Heart
DR7 -0.58 dB -8.07 dB 4:00 08-With Just One Look
DR7 -0.58 dB -9.05 dB 3:08 09-Son
DR7 -0.58 dB -8.90 dB 5:07 10-Diesel Rock
DR9 -0.58 dB -10.89 dB 5:56 11-Over The Mountains
––––––––––––––––––––––––––––––––––––––––

Number of tracks: 11
Official DR value: DR7

Samplerate: 44100 Hz
Channels: 2
Bits per sample: 16
Bitrate: 1000 kbps
Codec: FLAC
================================================================================

[CUETools log; Date: 19.04.2015 6:53:29; Version: 2.1.5]
[CTDB TOCID: UUPTt0_Q_KA_g32oJqAR2fS4cQM-] disk not present in database.
[AccurateRip ID: 0011fe2f-009d0a58-880ac70b] disk not present in database.

Track Peak [ CRC32 ] [W/O NULL] [ LOG ]
– 93,5 [53DAF9C5] [C8C9CE4F] CRC32
01 93,5 [1031CE6F] [E092A2E4]
02 93,5 [6F6E5F78] [CA10D007]
03 93,5 [1FD0A21E] [3E4446A8]
04 93,5 [9062B87E] [040AFE9A]
05 93,5 [9FA9E79D] [6917CC58]
06 93,5 [8328715E] [4C6E0283]
07 93,5 [4657C991] [A05D6710]
08 93,5 [59C624EE] [AF2A122B]
09 93,5 [BC4B9047] [396E175A]
10 93,5 [8EA6DEB3] [201CCEE0]
11 93,5 [8E3048B5] [D716CBC7]

The Blues Mystery - Diesel Rock (2015) RE-UP

All thanks go to izia1956

>>> My Blog <<<

Download from icerbox.com: