Tags
Language
Tags
July 2024
Su Mo Tu We Th Fr Sa
30 1 2 3 4 5 6
7 8 9 10 11 12 13
14 15 16 17 18 19 20
21 22 23 24 25 26 27
28 29 30 31 1 2 3

The Climax Blues Band - 25 Years: 1968-1993 (1994) 2CDs

Posted By: Designol
The Climax Blues Band - 25 Years: 1968-1993 (1994) 2CDs

The Climax Blues Band - 25 Years: 1968-1993 (1994) 2CDs
EAC | FLAC | Tracks (Cue&Log) ~ 918 Mb | Mp3 (CBR320) ~ 340 Mb | Scans included | 02:22:52
Blues-Rock, Blues, Classic Rock, Soft Rock | Label: Repertoire | # REP 4310-WO

1994 compilation on Repertoire featuring 32 tracks from 1968-1993, plus an extensive booklet, detailed tracknotes by Colin Cooper, full discography & rare photos. Packaged as two standard jewelcases within a slipcase, featured tracks include their #3 1977 smash 'Couldn't Get ItRight', the top 20 hit 'I Love You' and a live version of'Don't Start Me Talking'.

Most casual fans know the Climax Blues Band through "Couldn't Get It Right" and "I Love You," a pair of slick pop and soft rock hits from the late '70s and early '80s. Anyone who heard those two hits probably was puzzled by the "Blues" in the group's name, since they were in no way bluesy. But, as shown by the double-disc, 32-track set 25 Years, they started out as a British blues band in the late '60s. Unfortunately, they just weren't very good, slogging through the same three chords without much inspiration for nearly ten years. That decade is represented on the first disc, and while the group does show signs of improvement over those 16 songs, the music is still unbelievably dull (and, in the case of "Shoot Her If She Runs," offensive). By the late '70s, the band was in desperate need of a hit, so they changed their tune, incorporating pop, disco, and soft rock. "Couldn't Get It Right" was an excellent song, far catchier than any of their early blues tunes, and it deservedly became a Top Ten hit. The group subsequently tried to replicate its success, but they couldn't get it right until 1981, when the appealingly schmaltzy "I Love You" almost went Top Ten. Afterward, they played soft rock until they broke down and returned to the blues, with only a handful of memorable songs along the way. 25 Years is a little tedious to anyone who just wants the hits, but, unfortunately, it's the only readily available compilation from the group. It will suit anyone who really wants to dig into the Climax Blues Band, since it accurately sketches the progression of their career, but it doesn't have enough good music to warrant such an extensive compilation.

Review by Stephen Thomas Erlewine, Allmusic.com

The Climax Blues Band - 25 Years: 1968-1993 (1994) 2CDs



Tracklist:

CD1 (1:13:52)

01. Don't Start Me Talking (3:19)
02. Wee Baby Blues (3:20)
03. Flight (7:51)
04. Hey Baby Everything's Gonna Be Alright (4:26)
05. Louisiana Blues (5:22)
06. Briefcase (4:04)
07. That's All (2:12)
08. Shoot Her If She Runs (3:36)
09. Rich Man (5:50)
10. Mole On The Dole (5:03)
11. Standing By A River (5:30)
12. Let's Work Together (6:29)
13. Losing The Humbles (2:34)
14. Shopping Bag People (4:05)
15. Running Out Of Time (5:20)
16. Mighty Fire (4:52)


CD2 (1:09:00)

01. Together And Free (3:53)
02. Couldn't Get It Right (3:12)
03. Watcha Feel (6:28)
04. Like A Movie (4:11)
05. Children Of The Nighttime (4:00)
06. Gotta Have More Love (3:30)
07. I Love You (4:05)
08. Cutting Up Rough (4:35)
09. The Last Chance Saloon (4:41)
10. Friends In High Places (4:15)
11. Listen To The Night (3:42)
12. The Movie Queen (4:22)
13. California Sunshine (4:25)
14. Ordinary People (4:14)
15. Fool For The Bright Lights (5:21)
16. Don't Start Me Talking (Live) (4:05)


Exact Audio Copy V1.0 beta 1 from 15. November 2010

EAC extraction logfile from 28. December 2010, 15:26

The Climax Blues Band / 25 Years 1968-1993 (2CDs) (CD1)

Used drive : TSSTcorpCDDVDW TS-L633C Adapter: 1 ID: 0

Read mode : Secure
Utilize accurate stream : Yes
Defeat audio cache : Yes
Make use of C2 pointers : No

Read offset correction : 6
Overread into Lead-In and Lead-Out : No
Fill up missing offset samples with silence : Yes
Delete leading and trailing silent blocks : No
Null samples used in CRC calculations : Yes
Used interface : Native Win32 interface for Win NT & 2000
Gap handling : Appended to previous track

Used output format : User Defined Encoder
Selected bitrate : 768 kBit/s
Quality : High
Add ID3 tag : No
Command line compressor : C:\Program Files\Exact Audio Copy\FLAC\FLAC.EXE
Additional command line options : -6 -V -T "ARTIST=%a" -T "TITLE=%t" -T "ALBUM=%g" -T "DATE=%y" -T "TRACKNUMBER=%n" -T "GENRE=%m" -T "COMMENT=%e" %j–picture="%i"%j %s -o %d


TOC of the extracted CD

Track | Start | Length | Start sector | End sector
––––––––––––––––––––––––––––-
1 | 0:00.00 | 3:19.20 | 0 | 14944
2 | 3:19.20 | 3:20.25 | 14945 | 29969
3 | 6:39.45 | 7:51.02 | 29970 | 65296
4 | 14:30.47 | 4:25.60 | 65297 | 85231
5 | 18:56.32 | 5:21.40 | 85232 | 109346
6 | 24:17.72 | 4:04.08 | 109347 | 127654
7 | 28:22.05 | 2:12.12 | 127655 | 137566
8 | 30:34.17 | 3:35.38 | 137567 | 153729
9 | 34:09.55 | 5:49.57 | 153730 | 179961
10 | 39:59.37 | 5:02.48 | 179962 | 202659
11 | 45:02.10 | 5:30.02 | 202660 | 227411
12 | 50:32.12 | 6:29.28 | 227412 | 256614
13 | 57:01.40 | 2:33.40 | 256615 | 268129
14 | 59:35.05 | 4:04.50 | 268130 | 286479
15 | 63:39.55 | 5:20.02 | 286480 | 310481
16 | 68:59.57 | 4:52.18 | 310482 | 332399


Track 1

Filename H:\music\yalinc\Climax Blues Band - 25 years\CD 2\01 - The Climax Blues Band - Don't Start Me Talking.wav

Pre-gap length 0:00:02.00

Peak level 98.4 %
Extraction speed 1.7 X
Track quality 100.0 %
Test CRC 35676749
Copy CRC 35676749
Accurately ripped (confidence 10) [737080D8]
Copy OK

Track 2

Filename H:\music\yalinc\Climax Blues Band - 25 years\CD 2\02 - The Climax Blues Band - Wee Baby Blues.wav

Pre-gap length 0:00:02.28

Peak level 84.6 %
Extraction speed 1.8 X
Track quality 100.0 %
Test CRC AF192610
Copy CRC AF192610
Accurately ripped (confidence 10) [31C6A9BB]
Copy OK

Track 3

Filename H:\music\yalinc\Climax Blues Band - 25 years\CD 2\03 - The Climax Blues Band - Flight.wav

Pre-gap length 0:00:02.00

Peak level 97.3 %
Extraction speed 2.2 X
Track quality 100.0 %
Test CRC 81C2631C
Copy CRC 81C2631C
Accurately ripped (confidence 10) [9C71E67E]
Copy OK

Track 4

Filename H:\music\yalinc\Climax Blues Band - 25 years\CD 2\04 - The Climax Blues Band - Hey Baby Everything's Gonna Be Alright.wav

Pre-gap length 0:00:02.72

Peak level 98.3 %
Extraction speed 2.3 X
Track quality 100.0 %
Test CRC 3EEB1AB8
Copy CRC 3EEB1AB8
Accurately ripped (confidence 10) [51CFBB79]
Copy OK

Track 5

Filename H:\music\yalinc\Climax Blues Band - 25 years\CD 2\05 - The Climax Blues Band - Louisiana Blues.wav

Pre-gap length 0:00:02.27

Peak level 98.4 %
Extraction speed 2.5 X
Track quality 100.0 %
Test CRC 8B89BCC7
Copy CRC 8B89BCC7
Accurately ripped (confidence 10) [52594EE9]
Copy OK

Track 6

Filename H:\music\yalinc\Climax Blues Band - 25 years\CD 2\06 - The Climax Blues Band - Briefcase.wav

Pre-gap length 0:00:02.50

Peak level 97.3 %
Extraction speed 2.5 X
Track quality 100.0 %
Test CRC A1A67032
Copy CRC A1A67032
Accurately ripped (confidence 9) [9EE09314]
Copy OK

Track 7

Filename H:\music\yalinc\Climax Blues Band - 25 years\CD 2\07 - The Climax Blues Band - That's All.wav

Pre-gap length 0:00:02.30

Peak level 98.4 %
Extraction speed 1.9 X
Track quality 99.9 %
Test CRC 3F66EA41
Copy CRC 3F66EA41
Accurately ripped (confidence 9) [655642C2]
Copy OK

Track 8

Filename H:\music\yalinc\Climax Blues Band - 25 years\CD 2\08 - The Climax Blues Band - Shoot Her If She Runs.wav

Pre-gap length 0:00:02.47

Peak level 97.3 %
Extraction speed 2.3 X
Track quality 99.9 %
Test CRC D5276A45
Copy CRC D5276A45
Accurately ripped (confidence 10) [A82CA8B3]
Copy OK

Track 9

Filename H:\music\yalinc\Climax Blues Band - 25 years\CD 2\09 - The Climax Blues Band - Rich Man.wav

Pre-gap length 0:00:03.15

Peak level 97.3 %
Extraction speed 2.9 X
Track quality 100.0 %
Test CRC 7D7E2669
Copy CRC 7D7E2669
Accurately ripped (confidence 10) [FA0EC030]
Copy OK

Track 10

Filename H:\music\yalinc\Climax Blues Band - 25 years\CD 2\10 - The Climax Blues Band - Mole On The Dole.wav

Pre-gap length 0:00:02.55

Peak level 97.3 %
Extraction speed 2.9 X
Track quality 100.0 %
Test CRC C7F3503C
Copy CRC C7F3503C
Accurately ripped (confidence 10) [76BBA22B]
Copy OK

Track 11

Filename H:\music\yalinc\Climax Blues Band - 25 years\CD 2\11 - The Climax Blues Band - Standing By A River.wav

Pre-gap length 0:00:02.50

Peak level 98.4 %
Extraction speed 3.1 X
Track quality 100.0 %
Test CRC 94F39988
Copy CRC 94F39988
Accurately ripped (confidence 10) [5CC9894E]
Copy OK

Track 12

Filename H:\music\yalinc\Climax Blues Band - 25 years\CD 2\12 - The Climax Blues Band - Let's Work Together.wav

Pre-gap length 0:00:02.70

Peak level 98.4 %
Extraction speed 3.2 X
Track quality 100.0 %
Test CRC 85220226
Copy CRC 85220226
Accurately ripped (confidence 10) [A93CE9F5]
Copy OK

Track 13

Filename H:\music\yalinc\Climax Blues Band - 25 years\CD 2\13 - The Climax Blues Band - Losing The Humbles.wav

Pre-gap length 0:00:02.20

Peak level 80.5 %
Extraction speed 2.9 X
Track quality 100.0 %
Test CRC 08893941
Copy CRC 08893941
Accurately ripped (confidence 10) [60EDC80D]
Copy OK

Track 14

Filename H:\music\yalinc\Climax Blues Band - 25 years\CD 2\14 - The Climax Blues Band - Shopping Bag People.wav

Pre-gap length 0:00:02.35

Peak level 98.4 %
Extraction speed 3.2 X
Track quality 100.0 %
Test CRC 9D64BB2C
Copy CRC 9D64BB2C
Accurately ripped (confidence 10) [48DBE185]
Copy OK

Track 15

Filename H:\music\yalinc\Climax Blues Band - 25 years\CD 2\15 - The Climax Blues Band - Running Out Of Time.wav

Pre-gap length 0:00:02.08

Peak level 98.4 %
Extraction speed 3.4 X
Track quality 100.0 %
Test CRC 6F8F1CF6
Copy CRC 6F8F1CF6
Accurately ripped (confidence 10) [78AB8386]
Copy OK

Track 16

Filename H:\music\yalinc\Climax Blues Band - 25 years\CD 2\16 - The Climax Blues Band - Mighty Fire.wav

Pre-gap length 0:00:02.17

Peak level 96.2 %
Extraction speed 3.1 X
Track quality 99.9 %
Test CRC 0BD5C35F
Copy CRC 0BD5C35F
Accurately ripped (confidence 10) [CCF4721F]
Copy OK


All tracks accurately ripped

No errors occurred

End of status report

[CUETools log; Date: 08.02.2018 19:32:52; Version: 2.1.4]
[CTDB TOCID: kpZ2EGnimFaKSZgmzP3sCLnLUbI-] found.
Track | CTDB Status
1 | (30/30) Accurately ripped
2 | (30/30) Accurately ripped
3 | (30/30) Accurately ripped
4 | (30/30) Accurately ripped
5 | (30/30) Accurately ripped
6 | (29/30) Accurately ripped
7 | (30/30) Accurately ripped
8 | (30/30) Accurately ripped
9 | (30/30) Accurately ripped
10 | (30/30) Accurately ripped
11 | (30/30) Accurately ripped
12 | (30/30) Accurately ripped
13 | (30/30) Accurately ripped
14 | (30/30) Accurately ripped
15 | (30/30) Accurately ripped
16 | (30/30) Accurately ripped
[AccurateRip ID: 002a8a2c-0200c2b1-b9115010] found.
Track [ CRC | V2 ] Status
01 [737080d8|41620dac] (12+16/40) Accurately ripped
02 [31c6a9bb|dd4257e2] (12+16/40) Accurately ripped
03 [9c71e67e|80295768] (12+15/39) Accurately ripped
04 [51cfbb79|32e8cefa] (12+16/40) Accurately ripped
05 [52594ee9|beb0aed7] (12+16/40) Accurately ripped
06 [9ee09314|d7de875e] (11+16/39) Accurately ripped
07 [655642c2|ddc619e2] (11+16/39) Accurately ripped
08 [a82ca8b3|594de2e8] (12+16/40) Accurately ripped
09 [fa0ec030|65911d9a] (12+16/40) Accurately ripped
10 [76bba22b|1e772158] (12+16/40) Accurately ripped
11 [5cc9894e|7163de95] (12+15/39) Accurately ripped
12 [a93ce9f5|4a80be22] (12+15/39) Accurately ripped
13 [60edc80d|fda4fb69] (12+15/39) Accurately ripped
14 [48dbe185|f9546bb3] (12+16/40) Accurately ripped
15 [78ab8386|1dde28b6] (12+15/39) Accurately ripped
16 [ccf4721f|ebbcc553] (12+14/38) Accurately ripped
Offsetted by -664:
01 [3d7dd0b0] (00/40) No match (V2 was not tested)
02 [382e564b] (00/40) No match (V2 was not tested)
03 [c201545e] (00/39) No match (V2 was not tested)
04 [5c58af4d] (00/40) No match (V2 was not tested)
05 [7680907d] (00/40) No match (V2 was not tested)
06 [841bffdc] (00/39) No match (V2 was not tested)
07 [c798ef8a] (00/39) No match (V2 was not tested)
08 [a6045743] (00/40) No match (V2 was not tested)
09 [502ca448] (00/40) No match (V2 was not tested)
10 [0157ce6f] (00/40) No match (V2 was not tested)
11 [b53fccba] (00/39) No match (V2 was not tested)
12 [11905505] (00/39) No match (V2 was not tested)
13 [53785ee9] (00/39) No match (V2 was not tested)
14 [19cb939d] (00/40) No match (V2 was not tested)
15 [6f66245a] (00/39) No match (V2 was not tested)
16 [4afc338f] (00/38) No match (V2 was not tested)
Offsetted by -628:
01 [6a0e0eac] (00/40) No match (V2 was not tested)
02 [15e7f1f3] (00/40) No match (V2 was not tested)
03 [96548a8e] (00/39) No match (V2 was not tested)
04 [443b5837] (00/40) No match (V2 was not tested)
05 [814a53b7] (00/40) No match (V2 was not tested)
06 [455ad7a0] (00/39) No match (V2 was not tested)
07 [c7df97ee] (00/39) No match (V2 was not tested)
08 [71b33feb] (00/40) No match (V2 was not tested)
09 [8490cde4] (00/40) No match (V2 was not tested)
10 [f1b4cc31] (00/40) No match (V2 was not tested)
11 [939012f0] (00/39) No match (V2 was not tested)
12 [0be856ed] (00/39) No match (V2 was not tested)
13 [a46458d7] (00/39) No match (V2 was not tested)
14 [d5683839] (00/40) No match (V2 was not tested)
15 [0a1e8264] (00/39) No match (V2 was not tested)
16 [6c3fa2e7] (00/38) No match (V2 was not tested)

Track Peak [ CRC32 ] [W/O NULL] [ LOG ]
– 98,4 [680E5A03] [CB63F568]
01 98,4 [35676749] [09D56081] CRC32
02 84,6 [AF192610] [745A4A47] CRC32
03 97,3 [81C2631C] [6477A9A2] CRC32
04 98,3 [3EEB1AB8] [83F3C51E] CRC32
05 98,4 [8B89BCC7] [62BB74B1] CRC32
06 97,3 [A1A67032] [620C796C] CRC32
07 98,4 [3F66EA41] [D51E7924] CRC32
08 97,3 [D5276A45] [327709CC] CRC32
09 97,3 [7D7E2669] [6CAA0CA0] CRC32
10 97,3 [C7F3503C] [B5473DB2] CRC32
11 98,4 [94F39988] [281DE6DD] CRC32
12 98,4 [85220226] [7544E974] CRC32
13 80,5 [08893941] [CE041640] CRC32
14 98,4 [9D64BB2C] [BDCB0C11] CRC32
15 98,4 [6F8F1CF6] [7F6D1273] CRC32
16 96,2 [0BD5C35F] [E459EC76] CRC32

foobar2000 1.2 / Dynamic Range Meter 1.1.1
log date: 2018-02-08 19:26:19

––––––––––––––––––––––––––––––––––––––––
Analyzed: The Climax Blues Band / 25 Years 1968-1993 (2CDs) (CD1)
––––––––––––––––––––––––––––––––––––––––

DR Peak RMS Duration Track
––––––––––––––––––––––––––––––––––––––––
DR12 -0.14 dB -13.50 dB 3:19 01-Don't Start Me Talking
DR12 -1.45 dB -15.27 dB 3:20 02-Wee Baby Blues
DR11 -0.23 dB -13.41 dB 7:51 03-Flight
DR10 -0.15 dB -12.60 dB 4:26 04-Hey Baby Everything's Gonna Be Alright
DR12 -0.14 dB -14.42 dB 5:22 05-Louisiana Blues
DR11 -0.23 dB -13.17 dB 4:04 06-Briefcase
DR13 -0.14 dB -14.48 dB 2:12 07-That's All
DR11 -0.23 dB -13.31 dB 3:36 08-Shoot Her If She Runs
DR12 -0.23 dB -14.36 dB 5:50 09-Rich Man
DR12 -0.23 dB -14.78 dB 5:03 10-Mole On The Dole
DR13 -0.14 dB -15.21 dB 5:30 11-Standing By A River
DR12 -0.14 dB -14.45 dB 6:29 12-Let's Work Together
DR11 -1.88 dB -15.02 dB 2:34 13-Losing The Humbles
DR11 -0.14 dB -13.16 dB 4:05 14-Shopping Bag People
DR13 -0.14 dB -14.76 dB 5:20 15-Running Out Of Time
DR10 -0.33 dB -12.49 dB 4:52 16-Mighty Fire
––––––––––––––––––––––––––––––––––––––––

Number of tracks: 16
Official DR value: DR12

Samplerate: 44100 Hz
Channels: 2
Bits per sample: 16
Bitrate: 929 kbps
Codec: FLAC
================================================================================


Exact Audio Copy V1.0 beta 1 from 15. November 2010

EAC extraction logfile from 28. December 2010, 14:20

The Climax Blues Band / 25 Years 1968-1993 (2CDs) (CD2)

Used drive : TSSTcorpCDDVDW TS-L633C Adapter: 1 ID: 0

Read mode : Secure
Utilize accurate stream : Yes
Defeat audio cache : Yes
Make use of C2 pointers : No

Read offset correction : 6
Overread into Lead-In and Lead-Out : No
Fill up missing offset samples with silence : Yes
Delete leading and trailing silent blocks : No
Null samples used in CRC calculations : Yes
Used interface : Native Win32 interface for Win NT & 2000
Gap handling : Appended to previous track

Used output format : User Defined Encoder
Selected bitrate : 768 kBit/s
Quality : High
Add ID3 tag : No
Command line compressor : C:\Program Files\Exact Audio Copy\FLAC\FLAC.EXE
Additional command line options : -6 -V -T "ARTIST=%a" -T "TITLE=%t" -T "ALBUM=%g" -T "DATE=%y" -T "TRACKNUMBER=%n" -T "GENRE=%m" -T "COMMENT=%e" %j–picture="%i"%j %s -o %d


TOC of the extracted CD

Track | Start | Length | Start sector | End sector
––––––––––––––––––––––––––––-
1 | 0:00.00 | 3:52.67 | 0 | 17466
2 | 3:52.67 | 3:11.70 | 17467 | 31861
3 | 7:04.62 | 6:28.05 | 31862 | 60966
4 | 13:32.67 | 4:10.73 | 60967 | 79789
5 | 17:43.65 | 4:00.32 | 79790 | 97821
6 | 21:44.22 | 3:30.18 | 97822 | 113589
7 | 25:14.40 | 4:04.62 | 113590 | 131951
8 | 29:19.27 | 4:34.58 | 131952 | 152559
9 | 33:54.10 | 4:40.45 | 152560 | 173604
10 | 38:34.55 | 4:14.72 | 173605 | 192726
11 | 42:49.52 | 3:42.05 | 192727 | 209381
12 | 46:31.57 | 4:22.35 | 209382 | 229066
13 | 50:54.17 | 4:24.60 | 229067 | 248926
14 | 55:19.02 | 4:14.08 | 248927 | 267984
15 | 59:33.10 | 5:21.30 | 267985 | 292089
16 | 64:54.40 | 4:05.35 | 292090 | 310499


Track 1

Filename H:\music\yalinc\Climax Blues Band - 25 years\CD 1\01 - The Climax Blues Band - Together And Free.wav

Pre-gap length 0:00:02.00

Peak level 97.8 %
Extraction speed 1.8 X
Track quality 100.0 %
Test CRC 8A8695B0
Copy CRC 8A8695B0
Accurately ripped (confidence 11) [870024A1]
Copy OK

Track 2

Filename H:\music\yalinc\Climax Blues Band - 25 years\CD 1\02 - The Climax Blues Band - Couldn't Get It Right.wav

Pre-gap length 0:00:03.45

Peak level 95.2 %
Extraction speed 1.6 X
Track quality 99.9 %
Test CRC D7A1BFD8
Copy CRC D7A1BFD8
Accurately ripped (confidence 12) [09004D89]
Copy OK

Track 3

Filename H:\music\yalinc\Climax Blues Band - 25 years\CD 1\03 - The Climax Blues Band - Watcha Feel.wav

Pre-gap length 0:00:01.50

Peak level 96.5 %
Extraction speed 2.2 X
Track quality 100.0 %
Test CRC 33BA4DD7
Copy CRC 33BA4DD7
Accurately ripped (confidence 11) [2ACD49DE]
Copy OK

Track 4

Filename H:\music\yalinc\Climax Blues Band - 25 years\CD 1\04 - The Climax Blues Band - Like A Movie.wav

Pre-gap length 0:00:01.15

Peak level 96.6 %
Extraction speed 2.3 X
Track quality 100.0 %
Test CRC EA8C4B16
Copy CRC EA8C4B16
Accurately ripped (confidence 11) [CD20EDA2]
Copy OK

Track 5

Filename H:\music\yalinc\Climax Blues Band - 25 years\CD 1\05 - The Climax Blues Band - Children Of The Nighttime.wav

Pre-gap length 0:00:01.53

Peak level 97.3 %
Extraction speed 2.1 X
Track quality 99.9 %
Test CRC 4427A48A
Copy CRC 4427A48A
Accurately ripped (confidence 10) [09F33275]
Copy OK

Track 6

Filename H:\music\yalinc\Climax Blues Band - 25 years\CD 1\06 - The Climax Blues Band - Gotta Have More Love.wav

Pre-gap length 0:00:02.02

Peak level 96.6 %
Extraction speed 2.4 X
Track quality 100.0 %
Test CRC 953F7D4B
Copy CRC 953F7D4B
Accurately ripped (confidence 11) [E0B64D65]
Copy OK

Track 7

Filename H:\music\yalinc\Climax Blues Band - 25 years\CD 1\07 - The Climax Blues Band - I Love You.wav

Pre-gap length 0:00:02.28

Peak level 96.7 %
Extraction speed 2.5 X
Track quality 100.0 %
Test CRC D2D16041
Copy CRC D2D16041
Accurately ripped (confidence 13) [B5E526F0]
Copy OK

Track 8

Filename H:\music\yalinc\Climax Blues Band - 25 years\CD 1\08 - The Climax Blues Band - Cutting Up Rough.wav

Pre-gap length 0:00:02.52

Peak level 96.6 %
Extraction speed 2.7 X
Track quality 100.0 %
Test CRC 8B73FBBB
Copy CRC 8B73FBBB
Accurately ripped (confidence 11) [D304C311]
Copy OK

Track 9

Filename H:\music\yalinc\Climax Blues Band - 25 years\CD 1\09 - The Climax Blues Band - The Last Chance Saloon.wav

Pre-gap length 0:00:02.33

Peak level 96.4 %
Extraction speed 2.5 X
Track quality 99.9 %
Test CRC A0E9BC41
Copy CRC A0E9BC41
Accurately ripped (confidence 11) [1AAF8C1A]
Copy OK

Track 10

Filename H:\music\yalinc\Climax Blues Band - 25 years\CD 1\10 - The Climax Blues Band - Friends In High Places.wav

Pre-gap length 0:00:03.03

Peak level 97.3 %
Extraction speed 2.9 X
Track quality 100.0 %
Test CRC C6E005E9
Copy CRC C6E005E9
Accurately ripped (confidence 10) [0F01FABB]
Copy OK

Track 11

Filename H:\music\yalinc\Climax Blues Band - 25 years\CD 1\11 - The Climax Blues Band - Listen To The Night.wav

Pre-gap length 0:00:02.52

Peak level 98.4 %
Extraction speed 2.9 X
Track quality 100.0 %
Test CRC 7BF06A60
Copy CRC 7BF06A60
Accurately ripped (confidence 10) [2029FF8A]
Copy OK

Track 12

Filename H:\music\yalinc\Climax Blues Band - 25 years\CD 1\12 - The Climax Blues Band - The Movie Queen.wav

Pre-gap length 0:00:02.32

Peak level 97.5 %
Extraction speed 3.0 X
Track quality 100.0 %
Test CRC 21A82F6B
Copy CRC 21A82F6B
Accurately ripped (confidence 11) [4FDF2590]
Copy OK

Track 13

Filename H:\music\yalinc\Climax Blues Band - 25 years\CD 1\13 - The Climax Blues Band - California Sunshine.wav

Pre-gap length 0:00:02.35

Peak level 98.1 %
Extraction speed 3.1 X
Track quality 100.0 %
Test CRC 1BD7D438
Copy CRC 1BD7D438
Accurately ripped (confidence 10) [0128DFA7]
Copy OK

Track 14

Filename H:\music\yalinc\Climax Blues Band - 25 years\CD 1\14 - The Climax Blues Band - Ordinary People.wav

Pre-gap length 0:00:03.10

Peak level 98.4 %
Extraction speed 3.2 X
Track quality 100.0 %
Test CRC 961354B0
Copy CRC 961354B0
Accurately ripped (confidence 11) [7D8FAF29]
Copy OK

Track 15

Filename H:\music\yalinc\Climax Blues Band - 25 years\CD 1\15 - The Climax Blues Band - Fool For The Bright Lights.wav

Pre-gap length 0:00:02.45

Peak level 98.4 %
Extraction speed 3.0 X
Track quality 99.9 %
Test CRC D7310525
Copy CRC D7310525
Accurately ripped (confidence 11) [7EDEB2F4]
Copy OK

Track 16

Filename H:\music\yalinc\Climax Blues Band - 25 years\CD 1\16 - The Climax Blues Band - Don't Start Me Talking (Live).wav

Pre-gap length 0:00:02.73

Peak level 99.2 %
Extraction speed 3.3 X
Track quality 100.0 %
Test CRC 964B2B5F
Copy CRC 964B2B5F
Accurately ripped (confidence 11) [FE78FEA7]
Copy OK


All tracks accurately ripped

No errors occurred

End of status report

[CUETools log; Date: 08.02.2018 19:33:10; Version: 2.1.4]
[CTDB TOCID: w3kKT5Hw80ykAuQPWWnXZsDzNoc-] found.
Track | CTDB Status
1 | (30/30) Accurately ripped
2 | (29/30) Accurately ripped
3 | (30/30) Accurately ripped
4 | (30/30) Accurately ripped
5 | (30/30) Accurately ripped
6 | (30/30) Accurately ripped
7 | (30/30) Accurately ripped
8 | (30/30) Accurately ripped
9 | (30/30) Accurately ripped
10 | (30/30) Accurately ripped
11 | (30/30) Accurately ripped
12 | (30/30) Accurately ripped
13 | (30/30) Accurately ripped
14 | (30/30) Accurately ripped
15 | (30/30) Accurately ripped
16 | (30/30) Accurately ripped
[AccurateRip ID: 0027d475-01deee74-d6102c10] found.
Track [ CRC | V2 ] Status
01 [870024a1|dd007821] (13+17/41) Accurately ripped
02 [09004d89|9263bbe6] (15+18/44) Accurately ripped
03 [2acd49de|d19fd0b1] (13+17/41) Accurately ripped
04 [cd20eda2|3c03b6b1] (13+17/41) Accurately ripped
05 [09f33275|d766f02b] (12+17/40) Accurately ripped
06 [e0b64d65|61557443] (14+17/42) Accurately ripped
07 [b5e526f0|da86c9cb] (17+19/47) Accurately ripped
08 [d304c311|2c4dc071] (13+17/41) Accurately ripped
09 [1aaf8c1a|16076e1a] (13+16/40) Accurately ripped
10 [0f01fabb|4b2515a2] (12+16/39) Accurately ripped
11 [2029ff8a|10a50029] (12+16/39) Accurately ripped
12 [4fdf2590|098b77fb] (13+16/40) Accurately ripped
13 [0128dfa7|3da0c10e] (12+16/39) Accurately ripped
14 [7d8faf29|abc7ba40] (13+16/40) Accurately ripped
15 [7edeb2f4|89bcb612] (13+15/39) Accurately ripped
16 [fe78fea7|195b0aa9] (13+16/40) Accurately ripped
Offsetted by -664:
01 [6a417849] (00/41) No match (V2 was not tested)
02 [843c0091] (00/44) No match (V2 was not tested)
03 [5562a216] (00/41) No match (V2 was not tested)
04 [06ad0842] (00/41) No match (V2 was not tested)
05 [de1e1a65] (00/40) No match (V2 was not tested)
06 [391bc8bd] (00/42) No match (V2 was not tested)
07 [00afe7b0] (00/47) No match (V2 was not tested)
08 [d87596f9] (00/41) No match (V2 was not tested)
09 [ee95933a] (00/40) No match (V2 was not tested)
10 [74e5634f] (00/39) No match (V2 was not tested)
11 [99dcb516] (00/39) No match (V2 was not tested)
12 [a1b00f50] (00/40) No match (V2 was not tested)
13 [b43f4867] (00/39) No match (V2 was not tested)
14 [0365b199] (00/40) No match (V2 was not tested)
15 [d8ecc07c] (00/39) No match (V2 was not tested)
16 [965924a7] (00/40) No match (V2 was not tested)

Track Peak [ CRC32 ] [W/O NULL] [ LOG ]
– 99,2 [546D8B5E] [9247881A]
01 97,8 [8A8695B0] [D1CF5279] CRC32
02 95,2 [D7A1BFD8] [4DF0A18B] CRC32
03 96,5 [33BA4DD7] [8ECAF047] CRC32
04 96,6 [EA8C4B16] [72B10BE2] CRC32
05 97,3 [4427A48A] [D31D9D99] CRC32
06 96,6 [953F7D4B] [4490B880] CRC32
07 96,7 [D2D16041] [05F2577E] CRC32
08 96,6 [8B73FBBB] [73B5D31F] CRC32
09 96,4 [A0E9BC41] [2F4D4C32] CRC32
10 97,3 [C6E005E9] [088917EF] CRC32
11 98,4 [7BF06A60] [18F9DDA4] CRC32
12 97,5 [21A82F6B] [E5429C05] CRC32
13 98,1 [1BD7D438] [E6F2382E] CRC32
14 98,4 [961354B0] [20984D4B] CRC32
15 98,4 [D7310525] [9A247C1E] CRC32
16 99,2 [964B2B5F] [EB23B868] CRC32

foobar2000 1.2 / Dynamic Range Meter 1.1.1
log date: 2018-02-08 19:26:50

––––––––––––––––––––––––––––––––––––––––
Analyzed: The Climax Blues Band / 25 Years 1968-1993 (2CDs) (CD2)
––––––––––––––––––––––––––––––––––––––––

DR Peak RMS Duration Track
––––––––––––––––––––––––––––––––––––––––
DR11 -0.19 dB -12.85 dB 3:53 01-Together And Free
DR10 -0.42 dB -12.83 dB 3:12 02-Couldn't Get It Right
DR14 -0.31 dB -16.90 dB 6:28 03-Watcha Feel
DR12 -0.29 dB -14.21 dB 4:11 04-Like A Movie
DR11 -0.23 dB -13.24 dB 4:00 05-Children Of The Nighttime
DR11 -0.30 dB -13.69 dB 3:30 06-Gotta Have More Love
DR11 -0.29 dB -13.54 dB 4:05 07-I Love You
DR12 -0.29 dB -13.69 dB 4:35 08-Cutting Up Rough
DR11 -0.31 dB -14.23 dB 4:41 09-The Last Chance Saloon
DR12 -0.23 dB -13.74 dB 4:15 10-Friends In High Places
DR13 -0.14 dB -14.43 dB 3:42 11-Listen To The Night
DR12 -0.21 dB -13.89 dB 4:22 12-The Movie Queen
DR12 -0.17 dB -13.77 dB 4:25 13-California Sunshine
DR12 -0.14 dB -13.58 dB 4:14 14-Ordinary People
DR13 -0.14 dB -14.56 dB 5:21 15-Fool For The Bright Lights
DR13 -0.07 dB -14.52 dB 4:05 16-Don't Start Me Talking (Live)
––––––––––––––––––––––––––––––––––––––––

Number of tracks: 16
Official DR value: DR12

Samplerate: 44100 Hz
Channels: 2
Bits per sample: 16
Bitrate: 900 kbps
Codec: FLAC
================================================================================

The Climax Blues Band - 25 Years: 1968-1993 (1994) 2CDs

The Climax Blues Band - 25 Years: 1968-1993 (1994) 2CDs

All thanks to original releaser - yalinc

More interesting music in My Blog