Subcategories
Tags
Language
Tags

The Cranberries - Wake Up And Smell The Coffee (2001) [Re-Up]

Posted By: Designol
The Cranberries - Wake Up And Smell The Coffee (2001) [Re-Up]

The Cranberries - Wake Up And Smell The Coffee (2001)
EAC | FLAC | Image (Cue&Log) ~ 458 Mb | Mp3 (CBR320) ~ 153 Mb | Scans included
Adult Alternative Pop/Rock, Celtic Rock | Label: MCA | # 088 112 739-2 | 00:47:17

The second half of the '90s was difficult for the Cranberries, not just because of changing fashions, but because the group embraced both a social consciousness and a prog rock infatuation, crystallized by the Storm Thorgerson cover of Bury the Hatchet. Thorgerson has been retained for their fifth effort, Wake Up and Smell the Coffee, but the group has hardly pursued the indulgent tendencies of their previous collaboration with him – instead, they've re-teamed with producer Stephen Street and come up with an album that's as reminiscent of their debut as anything they've done since. So, even if it's wrapped in new clothing, this is essentially a return to basics, and it's a welcome one, since it's melodic, stately, and somber – perhaps not with the post-Sundays grace of "Linger," but with a dogged sense of decorum that keeps not just the group's musical excesses in check, but also O'Riordan's political polemics (although she still sneaks in cringe-inducing lines like "Looks like we've screwed up the ozone layer/I wonder if the politicians care"). This doesn't really result in a record that will restore the Cranberries to the status they enjoyed in the early '90s – after all, there's nothing as undeniable as "Linger," "Dreams," or even "Zombie" – but it's a solid effort that feels like the true follow-up to To the Faithful Departed, which is notable in its own way.

Review by Stephen Thomas Erlewine, Allmusic.com

The Cranberries - Wake Up And Smell The Coffee (2001) [Re-Up]



Tracklist:

01. Never Grow Old (02:35)
02. Analyse (04:10)
03. Time Is Ticking Out (02:59)
04. Dying Inside (03:10)
05. This Is The Day (04:15)
06. The Concept (03:03)
07. Wake Up And Smell The Coffee (05:15)
08. Pretty Eyes (03:48)
09. I Really Hope (03:42)
10. Every Morning (02:24)
11. Do You Know (03:09)
12. Carry On (02:21)
13. Chocolate Brown (03:30)
14. Capetown (02:49) (hidden track)


Exact Audio Copy V1.0 beta 1 from 15. November 2010

EAC extraction logfile from 27. January 2011, 19:02

The Cranberries / Wake Up And Smell The Coffee

Used drive : ASUS DRW-24B1ST Adapter: 0 ID: 0

Read mode : Secure
Utilize accurate stream : Yes
Defeat audio cache : Yes
Make use of C2 pointers : No

Read offset correction : 6
Overread into Lead-In and Lead-Out : No
Fill up missing offset samples with silence : Yes
Delete leading and trailing silent blocks : No
Null samples used in CRC calculations : Yes
Used interface : Native Win32 interface for Win NT & 2000

Used output format : User Defined Encoder
Selected bitrate : 768 kBit/s
Quality : High
Add ID3 tag : No
Command line compressor : C:\Program Files\Exact Audio Copy\FLAC\FLAC.EXE
Additional command line options : -8 -V -T "ARTIST=%a" -T "TITLE=%t" -T "ALBUM=%g" -T "DATE=%y" -T "TRACKNUMBER=%n" -T "GENRE=%m" -T "COMMENT=%e" %j–picture="%i"%j %s -o %d


TOC of the extracted CD

Track | Start | Length | Start sector | End sector
––––––––––––––––––––––––––––-
1 | 0:00.00 | 2:35.62 | 0 | 11686
2 | 2:35.62 | 4:10.03 | 11687 | 30439
3 | 6:45.65 | 2:59.35 | 30440 | 43899
4 | 9:45.25 | 3:10.15 | 43900 | 58164
5 | 12:55.40 | 4:15.00 | 58165 | 77289
6 | 17:10.40 | 3:03.62 | 77290 | 91076
7 | 20:14.27 | 5:15.08 | 91077 | 114709
8 | 25:29.35 | 3:48.30 | 114710 | 131839
9 | 29:17.65 | 3:42.50 | 131840 | 148539
10 | 33:00.40 | 2:24.00 | 148540 | 159339
11 | 35:24.40 | 3:09.05 | 159340 | 173519
12 | 38:33.45 | 2:21.35 | 173520 | 184129
13 | 40:55.05 | 3:32.07 | 184130 | 200036
14 | 44:27.12 | 2:49.50 | 200037 | 212761


Range status and errors

Selected range

Filename C:\_Audiorips\The Cranberries - Wake Up And Smell The Coffee [FLAC]\The Cranberries - Wake Up And Smell The Coffee.wav

Peak level 100.0 %
Extraction speed 0.3 X
Range quality 99.9 %
Test CRC A5DA9F12
Copy CRC A5DA9F12
Copy OK

No errors occurred


AccurateRip summary

Track 1 accurately ripped (confidence 23) [D2F10041]
Track 2 accurately ripped (confidence 23) [162C152E]
Track 3 accurately ripped (confidence 23) [998B4239]
Track 4 accurately ripped (confidence 23) [A37E0DF5]
Track 5 accurately ripped (confidence 23) [86F8A9E7]
Track 6 accurately ripped (confidence 23) [BD3B5A54]
Track 7 accurately ripped (confidence 23) [4FF27720]
Track 8 accurately ripped (confidence 23) [C47B75C4]
Track 9 accurately ripped (confidence 23) [CAA55AE4]
Track 10 accurately ripped (confidence 23) [ED1F08ED]
Track 11 accurately ripped (confidence 23) [98816244]
Track 12 accurately ripped (confidence 23) [DBC7D7C3]
Track 13 accurately ripped (confidence 23) [9FBF00C8]
Track 14 accurately ripped (confidence 22) [ABDB59A4]

All tracks accurately ripped

End of status report

==== Log checksum B99EDFE6D1B55C8E3B94EE1BEBBEAF5ADE5A2E4F4751485C214B4290C94F5B8C ====

foobar2000 1.2 / Dynamic Range Meter 1.1.1
log date: 2013-04-04 17:02:46

––––––––––––––––––––––––––––––––––––––––
Analyzed: The Cranberries / Wake Up And Smell The Coffee
––––––––––––––––––––––––––––––––––––––––

DR Peak RMS Duration Track
––––––––––––––––––––––––––––––––––––––––
DR8 -1.50 dB -11.00 dB 2:36 01-Never Grow Old
DR6 0.00 dB -7.44 dB 4:10 02-Analyse
DR6 0.00 dB -7.93 dB 2:59 03-Time Is Ticking Out
DR9 -1.00 dB -10.78 dB 3:10 04-Dying Inside
DR6 0.00 dB -7.03 dB 4:15 05-This Is The Day
DR9 0.00 dB -9.91 dB 3:04 06-The Concept
DR6 0.00 dB -8.33 dB 5:15 07-Wake Up And Smell The Coffee
DR9 0.00 dB -10.67 dB 3:48 08-Pretty Eyes
DR6 0.00 dB -7.33 dB 3:43 09-I Really Hope
DR8 -0.50 dB -9.32 dB 2:24 10-Every Morning
DR6 0.00 dB -7.22 dB 3:09 11-Do You Know
DR8 0.00 dB -9.44 dB 2:21 12-Carry On
DR12 0.00 dB -13.92 dB 3:32 13-Chocolate Brown
DR7 0.00 dB -8.00 dB 2:50 14-Capetown
––––––––––––––––––––––––––––––––––––––––

Number of tracks: 14
Official DR value: DR7

Samplerate: 44100 Hz
Channels: 2
Bits per sample: 16
Bitrate: 926 kbps
Codec: FLAC
================================================================================

The Cranberries - Wake Up And Smell The Coffee (2001) [Re-Up]

The Cranberries - Wake Up And Smell The Coffee (2001) [Re-Up]

All thanks to original releaser

More interesting music in My Blog