Subcategories
Tags
Language
Tags

The Doors - Legacy: The Absolute Best (2003)

Posted By: v3122
The Doors - Legacy: The Absolute Best (2003)

The Doors - Legacy: The Absolute Best (2003)
EAC | Flac(Image) + Cue + Log & M4A(Tracks) & MP3 CBR 320Kbps
2CD | Elektra/Rhino, 8122-73889-2 | ~ 1049 or 1055 or 367 Mb | Scans(jpg, 600dpi) -> 123 Mb
Psychedelic / Blues Rock

Truth be told, most casual Doors fans only need a well-assembled single-disc collection, containing all the hits and radio staples. Since that doesn't exist – Rhino's 2001 collection The Very Best of the Doors missed too many key songs to suit the bill – they'll have to settle for the comprehensive 2003 Rhino compilation Legacy: The Absolute Best, a double-disc set that replaces the previous double-disc Doors comp, the 1985 set The Best of the Doors. That collection contained 19 tracks, the number of songs that are on the first disc of this exhaustive 34-track overview. Every one of the tunes from The Best of the Doors is on Legacy, but not in the same order, since the songs on this compilation are put in roughly chronological order. Legacy also tries to give equal weight to each of the Doors albums, pulling anywhere from four to eight tracks from all the studio albums, adding "Gloria" from Alive, She Cried and a previously unissued "Celebration of the Lizard" to the end of the record. This winds up giving a thorough overview of the band's peak, whether it's on the familiar hits or on strong album cuts like "My Eyes Have Seen You" or "The Changeling." There are a couple of omissions – most notably "Love Street" and "Summer's Almost Gone" from Waiting for the Sun and also "Ship of Fools" and "Land Ho!" from Morrison Hotel – but overall, this draws as complete a picture as possible. It still may be a little bit much for those who just want the hits (they're all here, plus a whole lot more), but there's little question that Legacy is the best Doors compilation yet assembled.

by Stephen Thomas Erlewine, AMG
The Doors - Legacy: The Absolute Best (2003):

The Doors - Legacy: The Absolute Best (2003)

Tracklist CD1:

1. Break on through (to the other side)
2. Back door man
3. Light my fire
4. Twentieth century fox
5. The crystal ship
6. Alabama song (whiskey bar)
7. Soul kitchen
8. The end
9. Love me two times
10. People are strange
11. When the music's over
12. My eyes have seen you
13. Moonlight drive
14. Strange days
15. Hello, I love you
16. The Unknown soldier
17. Spanish caravan
18. Five to one
19. Not to touch the earth

Exact Audio Copy V1.0 beta 3 from 29. August 2011

EAC extraction logfile from 27. October 2011, 22:10

The Doors / Legacy: The Absolute Best (Disc 1) (8122-73889-2)

Used drive : HL-DT-STDVDRAM GH24NS70 Adapter: 2 ID: 0

Read mode : Secure
Utilize accurate stream : Yes
Defeat audio cache : Yes
Make use of C2 pointers : No

Read offset correction : 667
Overread into Lead-In and Lead-Out : No
Fill up missing offset samples with silence : Yes
Delete leading and trailing silent blocks : No
Null samples used in CRC calculations : Yes
Used interface : Native Win32 interface for Win NT & 2000

Used output format : User Defined Encoder
Selected bitrate : 1024 kBit/s
Quality : High
Add ID3 tag : No
Command line compressor : C:\Program Files\Exact Audio Copy\FLAC\FLAC.EXE
Additional command line options : -V -8 -T "Genre=%genre%" -T "Artist=%artist%" -T "Title=%title%" -T "Album=%albumtitle%" -T "Date=%year%" -T "Tracknumber=%tracknr%" -T "Comment=%comment%" %source%


TOC of the extracted CD

Track | Start | Length | Start sector | End sector
––––––––––––––––––––––––––––-
1 | 0:00.00 | 2:29.20 | 0 | 11194
2 | 2:29.20 | 3:34.09 | 11195 | 27253
3 | 6:03.29 | 7:08.42 | 27254 | 59395
4 | 13:11.71 | 2:33.61 | 59396 | 70931
5 | 15:45.57 | 2:34.52 | 70932 | 82533
6 | 18:20.34 | 3:19.72 | 82534 | 97530
7 | 21:40.31 | 3:35.09 | 97531 | 113664
8 | 25:15.40 | 11:46.72 | 113665 | 166686
9 | 37:02.37 | 3:16.63 | 166687 | 181449
10 | 40:19.25 | 2:12.26 | 181450 | 191375
11 | 42:31.51 | 11:02.33 | 191376 | 241058
12 | 53:34.09 | 2:29.20 | 241059 | 252253
13 | 56:03.29 | 3:04.18 | 252254 | 266071
14 | 59:07.47 | 3:09.11 | 266072 | 280257
15 | 62:16.58 | 2:16.37 | 280258 | 290494
16 | 64:33.20 | 3:25.38 | 290495 | 305907
17 | 67:58.58 | 3:01.34 | 305908 | 319516
18 | 71:00.17 | 4:27.44 | 319517 | 339585
19 | 75:27.61 | 3:54.17 | 339586 | 357152


Range status and errors

Selected range

Filename H:\dafnaplus\The Doors - Legacy The Absolute Best\Cd1\The Doors - Legacy- The Absolute Best (Disc 1) (8122-73889-2).wav

Peak level 98.9 %
Extraction speed 2.0 X
Range quality 99.9 %
Test CRC F058DD59
Copy CRC F058DD59
Copy OK

No errors occurred


AccurateRip summary

Track 1 accurately ripped (confidence 21) [30E70D6B] (AR v1)
Track 2 accurately ripped (confidence 23) [2EB3985D] (AR v1)
Track 3 accurately ripped (confidence 23) [F4993078] (AR v1)
Track 4 accurately ripped (confidence 23) [4322EF38] (AR v1)
Track 5 accurately ripped (confidence 22) [68E40EE2] (AR v1)
Track 6 accurately ripped (confidence 21) [E371F404] (AR v1)
Track 7 accurately ripped (confidence 22) [47F26D64] (AR v1)
Track 8 accurately ripped (confidence 22) [BDBA3CA2] (AR v1)
Track 9 accurately ripped (confidence 22) [0AD9874F] (AR v1)
Track 10 accurately ripped (confidence 22) [2C1912CD] (AR v1)
Track 11 accurately ripped (confidence 21) [7A582093] (AR v1)
Track 12 accurately ripped (confidence 22) [8A1022FA] (AR v1)
Track 13 accurately ripped (confidence 21) [A9628319] (AR v1)
Track 14 accurately ripped (confidence 20) [C0B629A0] (AR v1)
Track 15 accurately ripped (confidence 21) [878F72F5] (AR v1)
Track 16 accurately ripped (confidence 20) [DD26C0E1] (AR v1)
Track 17 accurately ripped (confidence 21) [31E796DF] (AR v1)
Track 18 accurately ripped (confidence 21) [04136F37] (AR v1)
Track 19 accurately ripped (confidence 20) [116E1B30] (AR v1)

All tracks accurately ripped

End of status report

foobar2000 1.2.9 / Dynamic Range Meter 1.1.1
log date: 2014-03-16 13:52:09

––––––––––––––––––––––––––––––––––––––––
Analyzed: The Doors / Legacy: The Absolute Best (CD 1)
––––––––––––––––––––––––––––––––––––––––

DR Peak RMS Duration Track
––––––––––––––––––––––––––––––––––––––––
DR7 -0.09 dB -8.75 dB 2:29 01-Break on Through (To the Other Side)
DR8 -0.09 dB -9.60 dB 3:34 02-Back Door Man
DR7 -0.09 dB -8.73 dB 7:09 03-Light My Fire
DR9 -0.09 dB -10.73 dB 2:34 04-Twentieth Century Fox
DR9 -0.09 dB -11.97 dB 2:35 05-The Crystal Ship
DR10 -0.09 dB -12.11 dB 3:20 06-Alabama Song (Whisky Bar)
DR7 -0.09 dB -10.56 dB 3:35 07-Soul Kitchen
DR9 -0.09 dB -13.68 dB 11:47 08-The End
DR8 -0.09 dB -11.07 dB 3:17 09-Love Me Two Times
DR9 -0.10 dB -11.87 dB 2:12 10-People Are Strange
DR9 -0.09 dB -13.38 dB 11:02 11-When the Music's Over
DR7 -0.09 dB -9.94 dB 2:29 12-My Eyes Have Seen You
DR7 -0.09 dB -10.26 dB 3:04 13-Moonlight Drive
DR8 -0.09 dB -9.73 dB 3:09 14-Strange Days
DR9 -0.09 dB -12.18 dB 2:16 15-Hello, I Love You
DR7 -0.09 dB -11.02 dB 3:26 16-The Unknown Soldier
DR9 -0.09 dB -11.85 dB 3:01 17-Spanish Caravan
DR9 -0.09 dB -12.32 dB 4:28 18-Five to One
DR8 -0.09 dB -11.55 dB 3:54 19-Not to Touch the Earth
––––––––––––––––––––––––––––––––––––––––

Number of tracks: 19
Official DR value: DR8

Samplerate: 44100 Hz
Channels: 2
Bits per sample: 16
Bitrate: 860 kbps
Codec: FLAC

The Doors - Legacy: The Absolute Best (2003)

Tracklist CD2:

1. Touch me
2. Wild child
3. Tell all the people
4. Wishful sinful
5. Roadhouse blues
6. Waiting for the sun
7. You Make me real
8. Peace frog
9. Love her madly
10. L.A. woman
11. Riders on the storm
12. The WASP (texas radio and the big beat)
13. The changeling
14. Gloria (live)
15. Celebration of the lizard (previously unreleased)

Exact Audio Copy V1.0 beta 3 from 29. August 2011

EAC extraction logfile from 29. October 2011, 10:11

The Doors / Legacy: The Absolute Best (Disc 2) (8122-73889-2)

Used drive : HL-DT-STDVDRAM GH24NS70 Adapter: 2 ID: 0

Read mode : Secure
Utilize accurate stream : Yes
Defeat audio cache : Yes
Make use of C2 pointers : No

Read offset correction : 667
Overread into Lead-In and Lead-Out : No
Fill up missing offset samples with silence : Yes
Delete leading and trailing silent blocks : No
Null samples used in CRC calculations : Yes
Used interface : Native Win32 interface for Win NT & 2000

Used output format : User Defined Encoder
Selected bitrate : 1024 kBit/s
Quality : High
Add ID3 tag : No
Command line compressor : C:\Program Files\Exact Audio Copy\FLAC\FLAC.EXE
Additional command line options : -V -8 -T "Genre=%genre%" -T "Artist=%artist%" -T "Title=%title%" -T "Album=%albumtitle%" -T "Date=%year%" -T "Tracknumber=%tracknr%" -T "Comment=%comment%" %source%


TOC of the extracted CD

Track | Start | Length | Start sector | End sector
––––––––––––––––––––––––––––-
1 | 0:00.00 | 3:12.43 | 0 | 14442
2 | 3:12.43 | 2:38.02 | 14443 | 26294
3 | 5:50.45 | 3:21.30 | 26295 | 41399
4 | 9:12.00 | 2:58.24 | 41400 | 54773
5 | 12:10.24 | 4:04.40 | 54774 | 73113
6 | 16:14.64 | 4:00.22 | 73114 | 91135
7 | 20:15.11 | 2:53.26 | 91136 | 104136
8 | 23:08.37 | 2:58.58 | 104137 | 117544
9 | 26:07.20 | 3:18.36 | 117545 | 132430
10 | 29:25.56 | 7:51.28 | 132431 | 167783
11 | 37:17.09 | 7:10.30 | 167784 | 200063
12 | 44:27.39 | 4:15.14 | 200064 | 219202
13 | 48:42.53 | 4:21.04 | 219203 | 238781
14 | 53:03.57 | 6:18.06 | 238782 | 267137
15 | 59:21.63 | 17:01.72 | 267138 | 343784


Range status and errors

Selected range

Filename H:\dafnaplus\The Doors - Legacy The Absolute Best\Cd2\The Doors - Legacy- The Absolute Best (Disc 2) (8122-73889-2).wav

Peak level 100.0 %
Extraction speed 2.1 X
Range quality 100.0 %
Test CRC D21A9DDD
Copy CRC D21A9DDD
Copy OK

No errors occurred


AccurateRip summary

Track 1 accurately ripped (confidence 26) [0FEEDA0A] (AR v1)
Track 2 accurately ripped (confidence 28) [39FECBA8] (AR v1)
Track 3 accurately ripped (confidence 26) [3B381408] (AR v1)
Track 4 accurately ripped (confidence 27) [3DF9D460] (AR v1)
Track 5 accurately ripped (confidence 27) [438BBFA4] (AR v1)
Track 6 accurately ripped (confidence 27) [292E9342] (AR v1)
Track 7 accurately ripped (confidence 27) [8BE95F39] (AR v1)
Track 8 accurately ripped (confidence 27) [7586114F] (AR v1)
Track 9 accurately ripped (confidence 27) [6D1AC5B5] (AR v1)
Track 10 accurately ripped (confidence 26) [DEC91B61] (AR v1)
Track 11 accurately ripped (confidence 27) [0FBF46CE] (AR v1)
Track 12 accurately ripped (confidence 27) [E9A49D6C] (AR v1)
Track 13 accurately ripped (confidence 27) [C554A596] (AR v1)
Track 14 cannot be verified as accurate (confidence 42) [484EFE70], AccurateRip returned [6137AA76] (AR v2)
Track 15 accurately ripped (confidence 24) [B38CAB3C] (AR v1)

14 track(s) accurately ripped
1 track(s) could not be verified as accurate

Some tracks could not be verified as accurate

End of status report

foobar2000 1.2.9 / Dynamic Range Meter 1.1.1
log date: 2014-03-16 13:52:29

––––––––––––––––––––––––––––––––––––––––
Analyzed: The Doors / Legacy: The Absolute Best (CD 2)
––––––––––––––––––––––––––––––––––––––––

DR Peak RMS Duration Track
––––––––––––––––––––––––––––––––––––––––
DR11 -0.09 dB -12.52 dB 3:13 01-Touch Me
DR13 -0.09 dB -14.88 dB 2:38 02-Wild Child
DR10 -0.09 dB -12.41 dB 3:21 03-Tell All the People
DR11 -0.10 dB -13.39 dB 2:58 04-Wishful Sinful
DR9 -0.09 dB -11.01 dB 4:05 05-Roadhouse Blues
DR9 -0.09 dB -11.29 dB 4:00 06-Waiting for the Sun
DR8 -0.09 dB -10.11 dB 2:53 07-You Make Me Real
DR9 -0.09 dB -11.52 dB 2:59 08-Peace Frog
DR10 -0.09 dB -11.51 dB 3:18 09-Love Her Madly
DR10 -0.09 dB -13.06 dB 7:51 10-L.A. Woman
DR13 -0.09 dB -16.46 dB 7:10 11-Riders on the Storm
DR12 -0.09 dB -14.62 dB 4:15 12-The Wasp (Texas Radio and the Big Beat)
DR8 -0.09 dB -10.99 dB 4:21 13-The Changeling
DR13 0.00 dB -16.17 dB 6:18 14-Gloria
DR7 0.00 dB -10.92 dB 17:02 15-Celebration of the Lizard
––––––––––––––––––––––––––––––––––––––––

Number of tracks: 15
Official DR value: DR10

Samplerate: 44100 Hz
Channels: 2
Bits per sample: 16
Bitrate: 915 kbps
Codec: FLAC

The Doors - Legacy: The Absolute Best (2003)

All thanks go to dafnaplus