Tags
Language
Tags

The Doors - Live In Vancouver (1994)

Posted By: v3122
The Doors - Live In Vancouver (1994)

The Doors - Live In Vancouver (1994)
Flac(Image) + Cue & MP3 CBR 320Kbps
Sounds Alive SA 24.020 | ~ 428 or 179 Mb
Psychedelic Rock / Classic Rock / Blues Rock

~ Recorded live in Vancouver, Canada, 05/06/1970 ~

The Doors - Live In Vancouver (1994):

The Doors - Live In Vancouver (1994)

Tracklist:

1. Roadhouse Blues 6:05
2. Back Door Man / Five To One 8:33
3. When The Music's Over 12:26
4. Little Red Rooster 6:18
5. Who Do You Love 7:28
6. Light My Fire 18:27
7. The End 16:28

[CUETools log; Date: 24.06.2021 8:31:11; Version: 2.1.4]
[AccurateRip ID: 0011a4cf-006da573-5d11c007] found.
Track [ CRC | V2 ] Status
01 [7bb7909d|118ac98c] (0+0/4) No match
02 [cc7cc0de|25d57568] (0+0/4) No match
03 [25b1f7c6|2bd6be4a] (0+0/4) No match
04 [261f61c5|1564c35e] (0+0/4) No match
05 [926dec64|25650c6c] (0+0/4) No match
06 [97f25532|5f9571e4] (0+0/4) No match
07 [8f471920|9ad5c8a8] (0+0/4) No match
Offsetted by 48:
01 [c8653f55] (2/4) Accurately ripped
02 [5bf79e4a] (2/4) Accurately ripped
03 [f034f749] (2/4) Accurately ripped
04 [62ea8ee4] (2/4) Accurately ripped
05 [b60432ce] (2/4) Accurately ripped
06 [18a52993] (2/4) Accurately ripped
07 [1fc6b887] (2/4) Accurately ripped

Track Peak [ CRC32 ] [W/O NULL]
– 99,0 [0BDF9A39] [AE779D8F]
01 99,0 [75E22BC3] [67F7F9A0]
02 98,1 [84ECDADE] [D29DDF6A]
03 94,5 [B5D27CF3] [5C777D05]
04 98,1 [56A86BB4] [32E8491D]
05 99,0 [2097A5FA] [9C8164AE]
06 98,2 [B25A6454] [E1804A44]
07 97,7 [D47B80B8] [5A4332B2]


The Doors - Live In Vancouver (1994)

All thanks go to the original releaser

The Doors in my Blog

Download The Doors - Live In Vancouver (1994):