Tags
Language
Tags

The Doors - Waiting For The Sun (1968) [2018, 50th Anniversary Deluxe Edition Box Set]

Posted By: v3122
The Doors - Waiting For The Sun (1968) [2018, 50th Anniversary Deluxe  Edition Box Set]

The Doors - Waiting For The Sun (1968)
EAC | Flac(Image) + Cue + Log & MP3 CBR 320Kbps
Elektra, 603497857067 | ~ 398 or 180 Mb | Artwork(png) -> 554 Mb
Blues Rock / Psychedelic Rock

The Doors released their third studio album, Waiting For The Sun, in July 1968. It was the band's third platinum album in less than two years, and the first to top the album chart. Since its debut, the album has sold millions of copies around the globe and contributed to the Doors' legendary canon with classics like "The Unknown Soldier," "Five To One" and the #1 smash, "Hello, I Love You."
Rhino will commemorate the 50th anniversary of the album this year with WAITING FOR THE SUN: 50th ANNIVERSARY DELUXE EDITION. This 2-CD/1-LP collection features a new version of the album's original stereo mix on both CD and 180-gram vinyl LP, which has been newly remastered from the original master tapes by Bruce Botnick, the Doors' longtime engineer/mixer. The set also includes a second disc of 14 completely unreleased tracks: nine recently discovered "rough mixes" from the album recording sessions and five live songs from a 1968 Copenhagen show.
The Doors - Waiting For The Sun (1968) [2018, 50th Anniversary Deluxe  Edition Box Set]

The Doors - Waiting For The Sun (1968):

The Doors - Waiting For The Sun (1968) [2018, 50th Anniversary Deluxe  Edition Box Set]

Tracklist CD1 - Original Stereo Mix Remastered:

01 Hello, I Love You
02 Love Street
03 Not To Touch The Earth
04 Summer's Almost Gone
05 Wintertime Love
06 The Unknown Soldier
07 Spanish Caravan
08 My Wild Love
09 We Could Be So Good Together
10 Yes, The River Knows
11 Five To One

Exact Audio Copy V1.3 from 2. September 2016

EAC extraction logfile from 28. November 2018, 17:14

The Doors / Waiting For The Sun CD1

Used drive : PLEXTOR BD-R PX-B950SA Adapter: 1 ID: 1

Read mode : Secure
Utilize accurate stream : Yes
Defeat audio cache : Yes
Make use of C2 pointers : No

Read offset correction : 6
Overread into Lead-In and Lead-Out : No
Fill up missing offset samples with silence : Yes
Delete leading and trailing silent blocks : No
Null samples used in CRC calculations : Yes
Used interface : Native Win32 interface for Win NT & 2000

Used output format : Internal WAV Routines
Sample format : 44.100 Hz; 16 Bit; Stereo


TOC of the extracted CD

Track | Start | Length | Start sector | End sector
––––––––––––––––––––––––––––-
1 | 0:00.00 | 2:16.13 | 0 | 10212
2 | 2:16.13 | 2:52.01 | 10213 | 23113
3 | 5:08.14 | 3:54.57 | 23114 | 40720
4 | 9:02.71 | 3:21.64 | 40721 | 55859
5 | 12:24.60 | 1:53.60 | 55860 | 64394
6 | 14:18.45 | 3:23.35 | 64395 | 79654
7 | 17:42.05 | 2:58.21 | 79655 | 93025
8 | 20:40.26 | 2:53.26 | 93026 | 106026
9 | 23:33.52 | 2:23.09 | 106027 | 116760
10 | 25:56.61 | 2:37.34 | 116761 | 128569
11 | 28:34.20 | 4:25.08 | 128570 | 148452


Range status and errors

Selected range

Filename C:\Users\Alex\Desktop\ALLexxess\The Doors\1968 Waiting For The Sun (3-Disc Box Set Elektra Records 2018)\CD1\The Doors - Waiting For The Sun CD1.wav

Peak level 83.7 %
Extraction speed 6.4 X
Range quality 99.9 %
Test CRC CD7439F2
Copy CRC CD7439F2
Copy OK

No errors occurred


AccurateRip summary

Track 1 accurately ripped (confidence 6) [AFE88E8E] (AR v2)
Track 2 accurately ripped (confidence 6) [8FD54F4A] (AR v2)
Track 3 accurately ripped (confidence 6) [CBEBE540] (AR v2)
Track 4 accurately ripped (confidence 6) [A7C0B161] (AR v2)
Track 5 accurately ripped (confidence 6) [9E575CBE] (AR v2)
Track 6 accurately ripped (confidence 6) [EC1BAFA4] (AR v2)
Track 7 accurately ripped (confidence 6) [29BD9C96] (AR v2)
Track 8 accurately ripped (confidence 6) [8CAF6157] (AR v2)
Track 9 accurately ripped (confidence 6) [DA509999] (AR v2)
Track 10 accurately ripped (confidence 6) [000193A0] (AR v2)
Track 11 accurately ripped (confidence 6) [3F5D5E9C] (AR v2)

All tracks accurately ripped

End of status report

–– CUETools DB Plugin V2.1.6

[CTDB TOCID: UXOmuc7qFAV7208E3qldzVjbnLg-] found
Submit result: UXOmuc7qFAV7208E3qldzVjbnLg- has been confirmed
Track | CTDB Status
1 | (14/15) Accurately ripped
2 | (14/15) Accurately ripped
3 | (14/15) Accurately ripped
4 | (14/15) Accurately ripped
5 | (14/15) Accurately ripped
6 | (14/15) Accurately ripped
7 | (14/15) Accurately ripped
8 | (14/15) Accurately ripped
9 | (14/15) Accurately ripped
10 | (14/15) Accurately ripped
11 | (14/15) Accurately ripped


==== Log checksum EE3BE8A65AEE2CEF441B80044B4B20DEB945B2455467FD0FECC393383F0CCF89 ====


[CUETools log; Date: 30.11.2018 18:45:54; Version: 2.1.4]
[AccurateRip ID: 000d39eb-0073040b-7f07bb0b] found.
Track [ CRC | V2 ] Status
01 [77c5d618|afe88e8e] (0+6/6) Accurately ripped
02 [58966d3f|8fd54f4a] (0+6/6) Accurately ripped
03 [aafeb05e|cbebe540] (0+6/6) Accurately ripped
04 [942ccf1f|a7c0b161] (0+6/6) Accurately ripped
05 [7f0e5901|9e575cbe] (0+6/6) Accurately ripped
06 [d1d6b3d8|ec1bafa4] (0+6/6) Accurately ripped
07 [da35c4cd|29bd9c96] (0+6/6) Accurately ripped
08 [3793c70a|8caf6157] (0+6/6) Accurately ripped
09 [06395efc|da509999] (0+6/6) Accurately ripped
10 [b124b324|000193a0] (0+6/6) Accurately ripped
11 [53b29931|3f5d5e9c] (0+6/6) Accurately ripped

Track Peak [ CRC32 ] [W/O NULL] [ LOG ]
– 83,7 [CD7439F2] [0DD7F953] CRC32
01 76,1 [5C98C4F3] [94BEA531]
02 76,6 [B6526BC4] [07D17892]
03 80,6 [DC831656] [A1CE96D5]
04 72,0 [D7767982] [E1795C7A]
05 70,4 [417C072C] [B29BFDAA]
06 75,9 [E35204C1] [1265F1FE]
07 77,0 [20AEA59F] [A9D6268D]
08 82,0 [5779CE79] [B059D84D]
09 83,7 [A1E93D54] [756EDCB4]
10 77,6 [EA49D430] [1A039A70]
11 72,8 [13134AC0] [B06BD1CA]


The Doors - Waiting For The Sun (1968) [2018, 50th Anniversary Deluxe  Edition Box Set]

Tracklist CD2:

Rough Mixes
01 Hello, I Love You
02 Summer's Almost Gone
03 Yes, The River Knows
04 Spanish Caravan
05 Love Street
06 Wintertime Love
07 Not To Touch The Earth
08 Five To One
09 My Wild Love
Live In Copenaghen 9/17/68
10 The Wasp (Texas Radio And The Big Heast)
11 Hello, I Love You
12 Back Door Man
13 Five To One
14 The Unknown Soldier

Exact Audio Copy V1.3 from 2. September 2016

EAC extraction logfile from 28. November 2018, 16:48

The Doors / Waiting For The Sun CD2

Used drive : PLEXTOR BD-R PX-B950SA Adapter: 1 ID: 1

Read mode : Secure
Utilize accurate stream : Yes
Defeat audio cache : Yes
Make use of C2 pointers : No

Read offset correction : 6
Overread into Lead-In and Lead-Out : No
Fill up missing offset samples with silence : Yes
Delete leading and trailing silent blocks : No
Null samples used in CRC calculations : Yes
Used interface : Native Win32 interface for Win NT & 2000

Used output format : Internal WAV Routines
Sample format : 44.100 Hz; 16 Bit; Stereo


TOC of the extracted CD

Track | Start | Length | Start sector | End sector
––––––––––––––––––––––––––––-
1 | 0:00.00 | 2:23.03 | 0 | 10727
2 | 2:23.03 | 3:22.36 | 10728 | 25913
3 | 5:45.39 | 2:37.65 | 25914 | 37753
4 | 8:23.29 | 2:57.11 | 37754 | 51039
5 | 11:20.40 | 3:04.60 | 51040 | 64899
6 | 14:25.25 | 1:55.55 | 64900 | 73579
7 | 16:21.05 | 3:56.38 | 73580 | 91317
8 | 20:17.43 | 4:23.12 | 91318 | 111054
9 | 24:40.55 | 2:59.36 | 111055 | 124515
10 | 27:40.16 | 1:32.48 | 124516 | 131463
11 | 29:12.64 | 2:26.61 | 131464 | 142474
12 | 31:39.50 | 2:06.04 | 142475 | 151928
13 | 33:45.54 | 4:37.49 | 151929 | 172752
14 | 38:23.28 | 4:52.59 | 172753 | 194711


Range status and errors

Selected range

Filename C:\Users\Alex\Desktop\ALLexxess\The Doors\1968 Waiting For The Sun (3-Disc Box Set Elektra Records 2018)\CD2\The Doors - Waiting For The Sun CD2.wav

Peak level 96.3 %
Extraction speed 6.9 X
Range quality 100.0 %
Test CRC 1FB3EDBD
Copy CRC 1FB3EDBD
Copy OK

No errors occurred


AccurateRip summary

Track 1 accurately ripped (confidence 6) [64D7A22B] (AR v2)
Track 2 accurately ripped (confidence 6) [5C910028] (AR v2)
Track 3 accurately ripped (confidence 6) [83B826F6] (AR v2)
Track 4 accurately ripped (confidence 6) [084CAA76] (AR v2)
Track 5 accurately ripped (confidence 6) [0E007C75] (AR v2)
Track 6 accurately ripped (confidence 6) [919747FC] (AR v2)
Track 7 accurately ripped (confidence 6) [BB759341] (AR v2)
Track 8 accurately ripped (confidence 6) [CE793014] (AR v2)
Track 9 accurately ripped (confidence 6) [1CA7FEEF] (AR v2)
Track 10 accurately ripped (confidence 6) [B5668BD3] (AR v2)
Track 11 accurately ripped (confidence 6) [BD1A5218] (AR v2)
Track 12 accurately ripped (confidence 6) [CE315C73] (AR v2)
Track 13 accurately ripped (confidence 6) [9DDB0EDB] (AR v2)
Track 14 accurately ripped (confidence 6) [90703C1D] (AR v2)

All tracks accurately ripped

End of status report

–– CUETools DB Plugin V2.1.6

[CTDB TOCID: whZw175ZBfaP0bIOl_lXUQ8Icyc-] found
Submit result: whZw175ZBfaP0bIOl_lXUQ8Icyc- has been confirmed
Track | CTDB Status
1 | (16/16) Accurately ripped
2 | (16/16) Accurately ripped
3 | (16/16) Accurately ripped
4 | (16/16) Accurately ripped
5 | (16/16) Accurately ripped
6 | (16/16) Accurately ripped
7 | (16/16) Accurately ripped
8 | (16/16) Accurately ripped
9 | (16/16) Accurately ripped
10 | (16/16) Accurately ripped
11 | (15/16) Accurately ripped
12 | (15/16) Accurately ripped
13 | (15/16) Accurately ripped
14 | (15/16) Accurately ripped


==== Log checksum 5041437455526D8534A11F8DFED1F9FB3EB330DED646B7E96C15887297A97687 ====


[CUETools log; Date: 30.11.2018 18:47:30; Version: 2.1.4]
[AccurateRip ID: 00151eca-00e2ac09-b90a240e] found.
Track [ CRC | V2 ] Status
01 [dc946d02|64d7a22b] (0+6/6) Accurately ripped
02 [30f8dde4|5c910028] (0+6/6) Accurately ripped
03 [cd4d06e7|83b826f6] (0+6/6) Accurately ripped
04 [a2c4d5a1|084caa76] (0+6/6) Accurately ripped
05 [a64a3639|0e007c75] (0+6/6) Accurately ripped
06 [05353a48|919747fc] (0+6/6) Accurately ripped
07 [39a2edd0|bb759341] (0+6/6) Accurately ripped
08 [1e58a169|ce793014] (0+6/6) Accurately ripped
09 [847e2f31|1ca7feef] (0+6/6) Accurately ripped
10 [de2a28ab|b5668bd3] (0+6/6) Accurately ripped
11 [041597c7|bd1a5218] (0+6/6) Accurately ripped
12 [445e791c|ce315c73] (0+6/6) Accurately ripped
13 [6ac82974|9ddb0edb] (0+6/6) Accurately ripped
14 [2ba7ce8a|90703c1d] (0+6/6) Accurately ripped

Track Peak [ CRC32 ] [W/O NULL] [ LOG ]
– 96,3 [1FB3EDBD] [15A6E7CF] CRC32
01 92,9 [2748BC71] [9578A6F8]
02 86,5 [EE205F53] [4792904A]
03 84,0 [EDB9428A] [233FF249]
04 95,3 [88E1EECF] [2960685F]
05 88,1 [5C0A3C3D] [7F2128A1]
06 92,8 [F67272E4] [E4AEAC4E]
07 88,7 [BE42A4CC] [4C327E7A]
08 96,3 [CE4AE7B5] [10BADE26]
09 76,0 [02DA9B4F] [18FFFCAB]
10 70,9 [C73F12E7] [CCB84835]
11 80,4 [B14CCD48] [67943675]
12 75,3 [5B16427D] [3EE3C770]
13 78,9 [FAA9A623] [E524C076]
14 78,7 [4044D5C9] [705AF65B]


The Doors - Waiting For The Sun (1968) [2018, 50th Anniversary Deluxe  Edition Box Set]

All thanks go to ALLexxess

The Doors or The Doors in my Blog

Download The Doors - Waiting For The Sun (1968):