Subcategories

The Goo Goo Dolls - Greatest Hits Volume One: The Singles (2007)

Posted By: Designol
The Goo Goo Dolls - Greatest Hits Volume One: The Singles (2007)

The Goo Goo Dolls - Greatest Hits Volume One: The Singles (2007)
EAC | FLAC | Tracks (Cue&Log) ~ 400 Mb | Mp3 (CBR320) ~ 126 Mb | Scans included
Rock, Alternative Rock | Label: Warner Bros. | # 144444-2 | Time: 00:53:00

Greatest Hits Volume One: The Singles is a greatest hits album by American rock band Goo Goo Dolls. It contains a newly recorded track, "Before It's Too Late", from the Transformers motion picture. The album also contains a newly recorded version of their first hit single, "Name". The album was released on November 13, 2007. The album marks a milestone for the band. It is their first greatest hits album, and at the time of its release, the band's two remaining founders John Rzeznik and Robby Takac had been together for 21 years.

Hard to believe it, but at one point all the Goo Goo Dolls ever wanted to be was the Replacements – nothing more than a ragged band playing kickass rock & roll along with the occasional heartbroken ballad. Of course, they were never as chaotic as the 'Mats; they were good guys where Paul Westerberg and company were ornery, unpredictable artists, prone to self-sabotage, legendarily throwing away their potential breakthrough gig on Saturday Night Live. That wasn't the Goo Goo Dolls. They never met an opportunity they didn't turn down, slowly morphing from baby Replacements to the cheerful corporate rockers showcased on this 2007 compilation, Greatest Hits, Vol. 1: The Singles. This 14-track collection ignores the entire first act of the band's history, picking up the tale with 1995's A Boy Named Goo, which not so coincidentally is where the band abandoned its 'Mats aspiration and started being the alt-rock band that played by the rules (even then, Boy's breakthrough hit, "Name," is re-recorded here, the better to make it fit with the placid pop of their later years). Where all their peers shunned power ballads, the Goo Goo Dolls embraced them, slowly turning into a group that specialized in soaring ballads and anthems with no discernible roots: this was merely modern rock that existed in the moment, usually moments that occurred in offices, malls, waiting rooms, and Michael Bay's Transformers. Surely there was an audience for this, as the group ruled the adult Top 40 charts throughout the 2000s without ever having a single that truly made waves in the pop charts, the way "Name," "Iris," and "Slide" did in the late '90s. It wasn't for lack of trying, though: the Dolls kept refining and smoothing that blueprint out, so each progressive year turned more anonymous. But they were reliable, and they satisfied fans, many of whom would probably never have even known the name Westerberg, not even as the name of the high school in Heathers. For those fans, this Greatest Hits will satisfy, as it has all those hits that sound the same, and nothing else.

Review by Stephen Thomas Erlewine, Allmusic.com

The Goo Goo Dolls - Greatest Hits Volume One: The Singles (2007)



Tracklist:

01. Let Love In (05:00)
02. Dizzy (02:42)
03. Here Is Gone (03:58)
04. Slide (03:33)
05. Name [New Version] (04:12)
06. Stay With You (03:56)
07. Before It's Too Late (03:06)
08. Broadway (03:58)
09. Feel The Silence [Remix] (03:51)
10. Better Days (03:33)
11. Big Machine (03:09)
12. Black Balloon (04:10)
13. Sympathy (02:57)
14. Iris (04:49)


Exact Audio Copy V1.0 beta 3 from 29. August 2011

EAC extraction logfile from 22. May 2014, 22:08

Goo Goo Dolls / Greatest Hits (Vol.1 The Singles) 2007

Used drive : HL-DT-STDVDRAM GSA-T50L Adapter: 1 ID: 0

Read mode : Secure
Utilize accurate stream : Yes
Defeat audio cache : Yes
Make use of C2 pointers : No

Read offset correction : 667
Overread into Lead-In and Lead-Out : No
Fill up missing offset samples with silence : Yes
Delete leading and trailing silent blocks : No
Null samples used in CRC calculations : Yes
Used interface : Native Win32 interface for Win NT & 2000
Gap handling : Appended to previous track

Used output format : User Defined Encoder
Selected bitrate : 1024 kBit/s
Quality : High
Add ID3 tag : No
Command line compressor : C:\Program Files\FLAC\flac.exe
Additional command line options : -8 -V -T "ARTIST=%artist%" -T "TITLE=%title%" -T "ALBUM=%albumtitle%" -T "DATE=%year%" -T "TRACKNUMBER=%tracknr%" -T "GENRE=%genre%" -T "PERFORMER=%albuminterpret%" -T "COMPOSER=%composer%" %haslyrics%–tag-from-file=LYRICS="%lyricsfile%"%haslyrics% -T "ALBUMARTIST=%albumartist%" -T "DISCNUMBER=%cdnumber%" -T "TOTALDISCS=%totalcds%" -T "TOTALTRACKS=%numtracks%" -T "COMMENT=%comment%" %source% -o %dest%


TOC of the extracted CD

Track | Start | Length | Start sector | End sector
––––––––––––––––––––––––––––-
1 | 0:00.00 | 5:00.32 | 0 | 22531
2 | 5:00.32 | 2:42.43 | 22532 | 34724
3 | 7:43.00 | 3:58.25 | 34725 | 52599
4 | 11:41.25 | 3:33.25 | 52600 | 68599
5 | 15:14.50 | 4:12.42 | 68600 | 87541
6 | 19:27.17 | 3:56.20 | 87542 | 105261
7 | 23:23.37 | 3:06.33 | 105262 | 119244
8 | 26:29.70 | 3:58.25 | 119245 | 137119
9 | 30:28.20 | 3:51.40 | 137120 | 154484
10 | 34:19.60 | 3:33.20 | 154485 | 170479
11 | 37:53.05 | 3:09.45 | 170480 | 184699
12 | 41:02.50 | 4:10.25 | 184700 | 203474
13 | 45:13.00 | 2:57.42 | 203475 | 216791
14 | 48:10.42 | 4:49.68 | 216792 | 238534


Track 1

Filename C:\FLAC\01 Let Love In.wav

Pre-gap length 0:00:02.00

Peak level 94.4 %
Extraction speed 2.3 X
Track quality 99.9 %
Test CRC 62E03205
Copy CRC 62E03205
Accurately ripped (confidence 52) [F6D36F22] (AR v2)
Copy OK

Track 2

Filename C:\FLAC\02 Dizzy.wav

Peak level 98.8 %
Extraction speed 2.5 X
Track quality 100.0 %
Test CRC 774419E1
Copy CRC 774419E1
Accurately ripped (confidence 51) [BFC6BE3B] (AR v2)
Copy OK

Track 3

Filename C:\FLAC\03 Here Is Gone.wav

Pre-gap length 0:00:01.00

Peak level 98.8 %
Extraction speed 2.9 X
Track quality 100.0 %
Test CRC AF73A3E2
Copy CRC AF73A3E2
Accurately ripped (confidence 49) [802822DC] (AR v2)
Copy OK

Track 4

Filename C:\FLAC\04 Slide.wav

Peak level 98.8 %
Extraction speed 3.0 X
Track quality 100.0 %
Test CRC B6DB111C
Copy CRC B6DB111C
Accurately ripped (confidence 50) [8174546D] (AR v2)
Copy OK

Track 5

Filename C:\FLAC\05 Name [New Version].wav

Pre-gap length 0:00:00.13

Peak level 98.8 %
Extraction speed 3.3 X
Track quality 100.0 %
Test CRC 04B287FD
Copy CRC 04B287FD
Accurately ripped (confidence 50) [43536829] (AR v2)
Copy OK

Track 6

Filename C:\FLAC\06 Stay With You.wav

Peak level 97.7 %
Extraction speed 3.5 X
Track quality 100.0 %
Test CRC 16DE8CCC
Copy CRC 16DE8CCC
Accurately ripped (confidence 50) [2DDA1AFB] (AR v2)
Copy OK

Track 7

Filename C:\FLAC\07 Before It's Too Late.wav

Peak level 98.8 %
Extraction speed 3.4 X
Track quality 100.0 %
Test CRC 648D950B
Copy CRC 648D950B
Accurately ripped (confidence 51) [2F1ABCD3] (AR v2)
Copy OK

Track 8

Filename C:\FLAC\08 Broadway.wav

Peak level 96.5 %
Extraction speed 3.7 X
Track quality 100.0 %
Test CRC E2FD71F7
Copy CRC E2FD71F7
Accurately ripped (confidence 51) [CD356A59] (AR v2)
Copy OK

Track 9

Filename C:\FLAC\09 Feel The Silence [Remix].wav

Peak level 97.6 %
Extraction speed 4.0 X
Track quality 100.0 %
Test CRC 75EE61F8
Copy CRC 75EE61F8
Accurately ripped (confidence 51) [77D1D053] (AR v2)
Copy OK

Track 10

Filename C:\FLAC\10 Better Days.wav

Pre-gap length 0:00:00.64

Peak level 97.7 %
Extraction speed 4.0 X
Track quality 100.0 %
Test CRC 00C3AD90
Copy CRC 00C3AD90
Accurately ripped (confidence 49) [8ADB42D0] (AR v2)
Copy OK

Track 11

Filename C:\FLAC\11 Big Machine.wav

Peak level 99.8 %
Extraction speed 2.0 X
Track quality 100.0 %
Test CRC 5BC9D16F
Copy CRC 5BC9D16F
Accurately ripped (confidence 50) [5B734389] (AR v2)
Copy OK

Track 12

Filename C:\FLAC\12 Black Balloon.wav

Peak level 98.8 %
Extraction speed 1.9 X
Track quality 99.9 %
Test CRC BEC42202
Copy CRC BEC42202
Accurately ripped (confidence 50) [1053F953] (AR v2)
Copy OK

Track 13

Filename C:\FLAC\13 Sympathy.wav

Pre-gap length 0:00:00.26

Peak level 94.3 %
Extraction speed 2.1 X
Track quality 100.0 %
Test CRC 1A106DC2
Copy CRC 1A106DC2
Accurately ripped (confidence 48) [CFD42C16] (AR v2)
Copy OK

Track 14

Filename C:\FLAC\14 Iris.wav

Peak level 98.8 %
Extraction speed 2.3 X
Track quality 100.0 %
Test CRC 7D89261C
Copy CRC 7D89261C
Accurately ripped (confidence 49) [362BB2E4] (AR v2)
Copy OK


All tracks accurately ripped

No errors occurred

End of status report

==== Log checksum AFD6CC3A7230EAECC56920A660ABB0B5FC9617C9F2254B04634664E101EDA5D5 ====

––––––––––––––––––––––––––––––

Exact Audio Copy V1.0 beta 3 from 29. August 2011

EAC extraction logfile from 22. May 2014, 22:08

Goo Goo Dolls / Greatest Hits (Vol.1 The Singles) 2007

Used drive : HL-DT-STDVDRAM GSA-T50L Adapter: 1 ID: 0

Read mode : Secure
Utilize accurate stream : Yes
Defeat audio cache : Yes
Make use of C2 pointers : No

Read offset correction : 667
Overread into Lead-In and Lead-Out : No
Fill up missing offset samples with silence : Yes
Delete leading and trailing silent blocks : No
Null samples used in CRC calculations : Yes
Used interface : Native Win32 interface for Win NT & 2000
Gap handling : Appended to previous track

Used output format : User Defined Encoder
Selected bitrate : 1024 kBit/s
Quality : High
Add ID3 tag : No
Command line compressor : C:\Program Files\FLAC\flac.exe
Additional command line options : -8 -V -T "ARTIST=%artist%" -T "TITLE=%title%" -T "ALBUM=%albumtitle%" -T "DATE=%year%" -T "TRACKNUMBER=%tracknr%" -T "GENRE=%genre%" -T "PERFORMER=%albuminterpret%" -T "COMPOSER=%composer%" %haslyrics%–tag-from-file=LYRICS="%lyricsfile%"%haslyrics% -T "ALBUMARTIST=%albumartist%" -T "DISCNUMBER=%cdnumber%" -T "TOTALDISCS=%totalcds%" -T "TOTALTRACKS=%numtracks%" -T "COMMENT=%comment%" %source% -o %dest%


TOC of the extracted CD

Track | Start | Length | Start sector | End sector
––––––––––––––––––––––––––––-
1 | 0:00.00 | 5:00.32 | 0 | 22531
2 | 5:00.32 | 2:42.43 | 22532 | 34724
3 | 7:43.00 | 3:58.25 | 34725 | 52599
4 | 11:41.25 | 3:33.25 | 52600 | 68599
5 | 15:14.50 | 4:12.42 | 68600 | 87541
6 | 19:27.17 | 3:56.20 | 87542 | 105261
7 | 23:23.37 | 3:06.33 | 105262 | 119244
8 | 26:29.70 | 3:58.25 | 119245 | 137119
9 | 30:28.20 | 3:51.40 | 137120 | 154484
10 | 34:19.60 | 3:33.20 | 154485 | 170479
11 | 37:53.05 | 3:09.45 | 170480 | 184699
12 | 41:02.50 | 4:10.25 | 184700 | 203474
13 | 45:13.00 | 2:57.42 | 203475 | 216791
14 | 48:10.42 | 4:49.68 | 216792 | 238534


Track 1

Filename C:\FLAC\01 Let Love In.wav

Pre-gap length 0:00:02.00

Peak level 94.4 %
Extraction speed 2.3 X
Track quality 99.9 %
Test CRC 62E03205
Copy CRC 62E03205
Accurately ripped (confidence 52) [F6D36F22] (AR v2)
Copy OK

Track 2

Filename C:\FLAC\02 Dizzy.wav

Peak level 98.8 %
Extraction speed 2.5 X
Track quality 100.0 %
Test CRC 774419E1
Copy CRC 774419E1
Accurately ripped (confidence 51) [BFC6BE3B] (AR v2)
Copy OK

Track 3

Filename C:\FLAC\03 Here Is Gone.wav

Pre-gap length 0:00:01.00

Peak level 98.8 %
Extraction speed 2.9 X
Track quality 100.0 %
Test CRC AF73A3E2
Copy CRC AF73A3E2
Accurately ripped (confidence 49) [802822DC] (AR v2)
Copy OK

Track 4

Filename C:\FLAC\04 Slide.wav

Peak level 98.8 %
Extraction speed 3.0 X
Track quality 100.0 %
Test CRC B6DB111C
Copy CRC B6DB111C
Accurately ripped (confidence 50) [8174546D] (AR v2)
Copy OK

Track 5

Filename C:\FLAC\05 Name [New Version].wav

Pre-gap length 0:00:00.13

Peak level 98.8 %
Extraction speed 3.3 X
Track quality 100.0 %
Test CRC 04B287FD
Copy CRC 04B287FD
Accurately ripped (confidence 50) [43536829] (AR v2)
Copy OK

Track 6

Filename C:\FLAC\06 Stay With You.wav

Peak level 97.7 %
Extraction speed 3.5 X
Track quality 100.0 %
Test CRC 16DE8CCC
Copy CRC 16DE8CCC
Accurately ripped (confidence 50) [2DDA1AFB] (AR v2)
Copy OK

Track 7

Filename C:\FLAC\07 Before It's Too Late.wav

Peak level 98.8 %
Extraction speed 3.4 X
Track quality 100.0 %
Test CRC 648D950B
Copy CRC 648D950B
Accurately ripped (confidence 51) [2F1ABCD3] (AR v2)
Copy OK

Track 8

Filename C:\FLAC\08 Broadway.wav

Peak level 96.5 %
Extraction speed 3.7 X
Track quality 100.0 %
Test CRC E2FD71F7
Copy CRC E2FD71F7
Accurately ripped (confidence 51) [CD356A59] (AR v2)
Copy OK

Track 9

Filename C:\FLAC\09 Feel The Silence [Remix].wav

Peak level 97.6 %
Extraction speed 4.0 X
Track quality 100.0 %
Test CRC 75EE61F8
Copy CRC 75EE61F8
Accurately ripped (confidence 51) [77D1D053] (AR v2)
Copy OK

Track 10

Filename C:\FLAC\10 Better Days.wav

Pre-gap length 0:00:00.64

Peak level 97.7 %
Extraction speed 4.0 X
Track quality 100.0 %
Test CRC 00C3AD90
Copy CRC 00C3AD90
Accurately ripped (confidence 49) [8ADB42D0] (AR v2)
Copy OK

Track 11

Filename C:\FLAC\11 Big Machine.wav

Peak level 99.8 %
Extraction speed 2.0 X
Track quality 100.0 %
Test CRC 5BC9D16F
Copy CRC 5BC9D16F
Accurately ripped (confidence 50) [5B734389] (AR v2)
Copy OK

Track 12

Filename C:\FLAC\12 Black Balloon.wav

Peak level 98.8 %
Extraction speed 1.9 X
Track quality 99.9 %
Test CRC BEC42202
Copy CRC BEC42202
Accurately ripped (confidence 50) [1053F953] (AR v2)
Copy OK

Track 13

Filename C:\FLAC\13 Sympathy.wav

Pre-gap length 0:00:00.26

Peak level 94.3 %
Extraction speed 2.1 X
Track quality 100.0 %
Test CRC 1A106DC2
Copy CRC 1A106DC2
Accurately ripped (confidence 48) [CFD42C16] (AR v2)
Copy OK

Track 14

Filename C:\FLAC\14 Iris.wav

Peak level 98.8 %
Extraction speed 2.3 X
Track quality 100.0 %
Test CRC 7D89261C
Copy CRC 7D89261C
Accurately ripped (confidence 49) [362BB2E4] (AR v2)
Copy OK


All tracks accurately ripped

No errors occurred

End of status report

==== Log checksum AFD6CC3A7230EAECC56920A660ABB0B5FC9617C9F2254B04634664E101EDA5D5 ====

foobar2000 1.2 / Dynamic Range Meter 1.1.1
log date: 2014-08-21 14:11:06

––––––––––––––––––––––––––––––––––––––––
Analyzed: Goo Goo Dolls / Greatest Hits (Vol.1 The Singles) 2007
––––––––––––––––––––––––––––––––––––––––

DR Peak RMS Duration Track
––––––––––––––––––––––––––––––––––––––––
DR5 -0.50 dB -7.60 dB 5:00 01-Let Love In
DR5 -0.10 dB -6.54 dB 2:43 02-Dizzy
DR5 -0.10 dB -6.09 dB 3:58 03-Here Is Gone
DR5 -0.10 dB -7.49 dB 3:33 04-Slide
DR5 -0.10 dB -7.22 dB 4:13 05-Name [New Version]
DR4 -0.20 dB -6.15 dB 3:56 06-Stay With You
DR5 -0.11 dB -7.17 dB 3:06 07-Before It's Too Late
DR5 -0.30 dB -7.18 dB 3:58 08-Broadway
DR5 -0.21 dB -6.94 dB 3:52 09-Feel The Silence [Remix]
DR6 -0.20 dB -8.27 dB 3:33 10-Better Days
DR5 -0.01 dB -6.09 dB 3:10 11-Big Machine
DR6 -0.10 dB -8.40 dB 4:10 12-Black Balloon
DR8 -0.51 dB -9.39 dB 2:58 13-Sympathy
DR6 -0.10 dB -8.33 dB 4:50 14-Iris
––––––––––––––––––––––––––––––––––––––––

Number of tracks: 14
Official DR value: DR5

Samplerate: 44100 Hz
Channels: 2
Bits per sample: 16
Bitrate: 1030 kbps
Codec: FLAC
================================================================================

The Goo Goo Dolls - Greatest Hits Volume One: The Singles (2007)

The Goo Goo Dolls - Greatest Hits Volume One: The Singles (2007)

All thanks to original releaser - only1joe

More interesting music in My Blog