Subcategories

The Highwaymen - The Essential Highwaymen (2010) 2CDs [Re-Up]

Posted By: Designol
The Highwaymen - The Essential Highwaymen (2010) 2CDs [Re-Up]

The Highwaymen - The Essential Highwaymen (2010) 2CDs
EAC | FLAC | Image (Cue&Log) ~ 743 Mb | Mp3 (CBR320) ~ 310 Mb | Scans included | 02:01:55
Country, Outlaw Country, Country-Rock | Label: Columbia | # 88697 79157 2

Legacy’s 2010 collection The Essential Highwaymen doesn’t merely cover recordings made by the supergroup of Willie Nelson, Waylon Jennings, Johnny Cash, and Kris Kristofferson, it rounds up selections from their solo albums of the ‘70s, ‘80s, ’90s, and 2000s. Specifically, these selections are written by other members of the group, so the net effect is a generous 36-track collection of Highwaymen highlights in all forms, drawing a more detailed portrait of their crossed paths than any individual album by the supergroup.

Review by Stephen Thomas Erlewine, Allmusic.com

The Highwaymen - The Essential Highwaymen (2010) 2CDs [Re-Up]



Tracklist:

CD1:

01. Highwayman (3:04)
02. Silver Stallion (3:14)
03. The Greatest Cowboy of them all (3:42)
04. Take It to the Limit (3:50)
05. Help Me Make It Through The Night (4:01)
06. The Taker (2:23)
07. Just To Satisfy You (2:50)
08. Moment of Forever (3:52)
09. Eye of the Storm (3:16)
10. The Pilgrim: Chapter 33 (3:11)
11. Sunday Morning Coming Down (4:08)
12. Casey's Last Ride (4:09)
13. Born and Raised in Black and White (4:03)
14. The Devil's Right Hand (3:14)
15. There Ain't No Good Chain Gang (3:17)
16. The Road Goes On Forever (4:41)
17. I Wish I Was Crazy Again (2:44)
18. Desperados Waiting For A Train (4:37)

CD2:

01. Good Hearted Woman (2:58)
02. A Backstage Pass (3:23)
03. How Do You Feel About Foolin' Around (2:46)
04. Luckenback, Texas (Back to Basics of Love) (3:20)
05. The Night Hank Williams Came to Town (3:25)
06. If You Don't Like Hank Williams (3:31)
07. Are You Sure Hank Done It This Way (2:56)
08. Big River (2:47)
09. Deportee (Plane Wreck at Los Gatos) (3:47)
10. Me and Bobby McGee (4:12)
11. The Last Cowboy Song (3:11)
12. Mammas Don't Let Your Babies Grow Up to Be Cowboys (2:34)
13. Even Cowgirls Get the Blues (3:04)
14. Nowhere Road (2:45)
15. It Is What It Is (3:41)
16. Living Legend (4:01)
17. Love Is the Way (2:30)
18. Live Forever (2:48)


Exact Audio Copy V1.1 from 23. June 2015

EAC extraction logfile from 5. May 2017, 20:02

The Highwaymen / The Essential Highwaymen (CD1)

Used drive : PIONEER BD-RW BDR-206 Adapter: 1 ID: 0

Read mode : Secure
Utilize accurate stream : Yes
Defeat audio cache : Yes
Make use of C2 pointers : No

Read offset correction : 667
Overread into Lead-In and Lead-Out : No
Fill up missing offset samples with silence : Yes
Delete leading and trailing silent blocks : No
Null samples used in CRC calculations : Yes
Used interface : Native Win32 interface for Win NT & 2000

Used output format : Internal WAV Routines
Sample format : 44.100 Hz; 16 Bit; Stereo


TOC of the extracted CD

Track | Start | Length | Start sector | End sector
––––––––––––––––––––––––––––-
1 | 0:00.00 | 3:04.11 | 0 | 13810
2 | 3:04.11 | 3:13.49 | 13811 | 28334
3 | 6:17.60 | 3:41.69 | 28335 | 44978
4 | 9:59.54 | 3:49.60 | 44979 | 62213
5 | 13:49.39 | 4:01.22 | 62214 | 80310
6 | 17:50.61 | 2:23.18 | 80311 | 91053
7 | 20:14.04 | 2:49.64 | 91054 | 103792
8 | 23:03.68 | 3:52.36 | 103793 | 121228
9 | 26:56.29 | 3:15.62 | 121229 | 135915
10 | 30:12.16 | 3:11.10 | 135916 | 150250
11 | 33:23.26 | 4:08.01 | 150251 | 168851
12 | 37:31.27 | 4:09.09 | 168852 | 187535
13 | 41:40.36 | 4:02.63 | 187536 | 205748
14 | 45:43.24 | 3:13.64 | 205749 | 220287
15 | 48:57.13 | 3:17.21 | 220288 | 235083
16 | 52:14.34 | 4:40.45 | 235084 | 256128
17 | 56:55.04 | 2:44.12 | 256129 | 268440
18 | 59:39.16 | 4:36.58 | 268441 | 289198


Range status and errors

Selected range

Filename J:\rip upload add\The Highwaymen - The Essential Highwaymen\The Highwaymen - The Essential Highwaymen (CD1).wav

Peak level 100.0 %
Extraction speed 2.0 X
Range quality 100.0 %
Copy CRC 8FC0A3DE
Copy OK

No errors occurred


AccurateRip summary

Track 1 accurately ripped (confidence 27) [DFCD064F] (AR v2)
Track 2 accurately ripped (confidence 27) [7FBF8281] (AR v2)
Track 3 accurately ripped (confidence 27) [36206859] (AR v2)
Track 4 accurately ripped (confidence 27) [628AE591] (AR v2)
Track 5 accurately ripped (confidence 27) [700390B2] (AR v2)
Track 6 accurately ripped (confidence 26) [CC7152C2] (AR v2)
Track 7 accurately ripped (confidence 25) [912E8771] (AR v2)
Track 8 accurately ripped (confidence 25) [A13DCB62] (AR v2)
Track 9 accurately ripped (confidence 25) [328803D2] (AR v2)
Track 10 accurately ripped (confidence 25) [4BAB1ECC] (AR v2)
Track 11 accurately ripped (confidence 27) [9CD9F58E] (AR v2)
Track 12 accurately ripped (confidence 26) [2AD920D0] (AR v2)
Track 13 accurately ripped (confidence 27) [46978B65] (AR v2)
Track 14 accurately ripped (confidence 26) [33062177] (AR v2)
Track 15 accurately ripped (confidence 27) [021B4F80] (AR v2)
Track 16 accurately ripped (confidence 26) [5E7C8E4F] (AR v2)
Track 17 accurately ripped (confidence 27) [2C15873A] (AR v2)
Track 18 accurately ripped (confidence 25) [146064BC] (AR v2)

All tracks accurately ripped

End of status report

–– CUETools DB Plugin V2.1.6

[CTDB TOCID: 3U1imIvdfYgVFrBh_HB4EVJafpg-] found
Submit result: 3U1imIvdfYgVFrBh_HB4EVJafpg- has been confirmed
Track | CTDB Status
1 | (58/58) Accurately ripped
2 | (57/58) Accurately ripped
3 | (58/58) Accurately ripped
4 | (58/58) Accurately ripped
5 | (58/58) Accurately ripped
6 | (58/58) Accurately ripped
7 | (58/58) Accurately ripped
8 | (58/58) Accurately ripped
9 | (58/58) Accurately ripped
10 | (57/58) Accurately ripped
11 | (57/58) Accurately ripped
12 | (58/58) Accurately ripped
13 | (58/58) Accurately ripped
14 | (58/58) Accurately ripped
15 | (58/58) Accurately ripped
16 | (58/58) Accurately ripped
17 | (57/58) Accurately ripped
18 | (58/58) Accurately ripped

foobar2000 1.2 / Dynamic Range Meter 1.1.1
log date: 2017-05-07 22:03:09

––––––––––––––––––––––––––––––––––––––––
Analyzed: The Highwaymen / The Essential Highwaymen (CD1)
––––––––––––––––––––––––––––––––––––––––

DR Peak RMS Duration Track
––––––––––––––––––––––––––––––––––––––––
DR13 0.00 dB -14.93 dB 3:04 01-Highwayman
DR13 0.00 dB -16.30 dB 3:14 02-Silver Stallion
DR12 -0.01 dB -14.26 dB 3:42 03-The Greatest Cowboy of them all
DR13 0.00 dB -16.31 dB 3:50 04-Take It to the Limit
DR11 -1.51 dB -16.10 dB 4:01 05-Help Me Make It Through The Night
DR12 -0.01 dB -14.57 dB 2:23 06-The Taker
DR12 -0.37 dB -14.21 dB 2:50 07-Just To Satisfy You
DR11 -2.52 dB -16.53 dB 3:52 08-Moment of Forever
DR12 -0.82 dB -15.13 dB 3:16 09-Eye of the Storm
DR12 -0.55 dB -15.42 dB 3:11 10-The Pilgrim: Chapter 33
DR10 -1.04 dB -13.61 dB 4:08 11-Sunday Morning Coming Down
DR12 -0.53 dB -14.44 dB 4:09 12-Casey's Last Ride
DR10 -2.12 dB -15.32 dB 4:03 13-Born and Raised in Black and White
DR6 -6.08 dB -13.48 dB 3:14 14-The Devil's Right Hand
DR13 -0.70 dB -16.28 dB 3:17 15-There Ain't No Good Chain Gang
DR9 -3.90 dB -14.43 dB 4:41 16-The Road Goes On Forever
DR14 0.00 dB -16.17 dB 2:44 17-I Wish I Was Crazy Again
DR10 -1.20 dB -14.45 dB 4:37 18-Desperados Waiting For A Train
––––––––––––––––––––––––––––––––––––––––

Number of tracks: 18
Official DR value: DR11

Samplerate: 44100 Hz
Channels: 2
Bits per sample: 16
Bitrate: 809 kbps
Codec: FLAC
================================================================================


Exact Audio Copy V1.1 from 23. June 2015

EAC extraction logfile from 5. May 2017, 21:01

The Highwaymen / The Essential Highwaymen (CD2)

Used drive : PIONEER BD-RW BDR-206 Adapter: 1 ID: 0

Read mode : Secure
Utilize accurate stream : Yes
Defeat audio cache : Yes
Make use of C2 pointers : No

Read offset correction : 667
Overread into Lead-In and Lead-Out : No
Fill up missing offset samples with silence : Yes
Delete leading and trailing silent blocks : No
Null samples used in CRC calculations : Yes
Used interface : Native Win32 interface for Win NT & 2000

Used output format : Internal WAV Routines
Sample format : 44.100 Hz; 16 Bit; Stereo


TOC of the extracted CD

Track | Start | Length | Start sector | End sector
––––––––––––––––––––––––––––-
1 | 0:00.00 | 2:57.43 | 0 | 13317
2 | 2:57.43 | 3:23.10 | 13318 | 28552
3 | 6:20.53 | 2:46.09 | 28553 | 41011
4 | 9:06.62 | 3:20.34 | 41012 | 56045
5 | 12:27.21 | 3:24.60 | 56046 | 71405
6 | 15:52.06 | 3:31.03 | 71406 | 87233
7 | 19:23.09 | 2:56.07 | 87234 | 100440
8 | 22:19.16 | 2:47.32 | 100441 | 112997
9 | 25:06.48 | 3:47.26 | 112998 | 130048
10 | 28:53.74 | 4:12.23 | 130049 | 148971
11 | 33:06.22 | 3:10.69 | 148972 | 163290
12 | 36:17.16 | 2:34.05 | 163291 | 174845
13 | 38:51.21 | 3:03.57 | 174846 | 188627
14 | 41:55.03 | 2:44.39 | 188628 | 200966
15 | 44:39.42 | 3:40.60 | 200967 | 217526
16 | 48:20.27 | 4:00.56 | 217527 | 235582
17 | 52:21.08 | 2:30.20 | 235583 | 246852
18 | 54:51.28 | 2:47.49 | 246853 | 259426


Range status and errors

Selected range

Filename J:\rip upload add\The Highwaymen - The Essential Highwaymen\The Highwaymen - The Essential Highwaymen (CD2).wav

Peak level 100.0 %
Extraction speed 7.9 X
Range quality 100.0 %
Copy CRC 5B6CFD64
Copy OK

No errors occurred


AccurateRip summary

Track 1 accurately ripped (confidence 25) [AE3CFC6A] (AR v2)
Track 2 accurately ripped (confidence 26) [67816A54] (AR v2)
Track 3 accurately ripped (confidence 25) [D2C83265] (AR v2)
Track 4 accurately ripped (confidence 25) [F25913C1] (AR v2)
Track 5 accurately ripped (confidence 26) [012F5839] (AR v2)
Track 6 accurately ripped (confidence 26) [4FB12F7D] (AR v2)
Track 7 accurately ripped (confidence 25) [01FDD582] (AR v2)
Track 8 accurately ripped (confidence 26) [F7F7CAAB] (AR v2)
Track 9 accurately ripped (confidence 26) [3B84B868] (AR v2)
Track 10 accurately ripped (confidence 26) [9ECE3DAB] (AR v2)
Track 11 accurately ripped (confidence 26) [0B2F712B] (AR v2)
Track 12 accurately ripped (confidence 26) [05F67018] (AR v2)
Track 13 accurately ripped (confidence 26) [AE6023AD] (AR v2)
Track 14 accurately ripped (confidence 26) [F868CFC9] (AR v2)
Track 15 accurately ripped (confidence 26) [AE02630F] (AR v2)
Track 16 accurately ripped (confidence 25) [F53D5C04] (AR v2)
Track 17 accurately ripped (confidence 27) [654FE626] (AR v2)
Track 18 accurately ripped (confidence 27) [D7F54060] (AR v2)

All tracks accurately ripped

End of status report

–– CUETools DB Plugin V2.1.6

[CTDB TOCID: FxF6bLnyTxRYztH.xIaMHPgesrY-] found
Submit result: FxF6bLnyTxRYztH.xIaMHPgesrY- has been confirmed
Track | CTDB Status
1 | (65/65) Accurately ripped
2 | (65/65) Accurately ripped
3 | (65/65) Accurately ripped
4 | (65/65) Accurately ripped
5 | (65/65) Accurately ripped
6 | (65/65) Accurately ripped
7 | (65/65) Accurately ripped
8 | (65/65) Accurately ripped
9 | (65/65) Accurately ripped
10 | (65/65) Accurately ripped
11 | (65/65) Accurately ripped
12 | (65/65) Accurately ripped
13 | (65/65) Accurately ripped
14 | (65/65) Accurately ripped
15 | (65/65) Accurately ripped
16 | (65/65) Accurately ripped
17 | (65/65) Accurately ripped
18 | (64/65) Accurately ripped

foobar2000 1.2 / Dynamic Range Meter 1.1.1
log date: 2017-05-07 22:03:49

––––––––––––––––––––––––––––––––––––––––
Analyzed: The Highwaymen / The Essential Highwaymen (CD2)
––––––––––––––––––––––––––––––––––––––––

DR Peak RMS Duration Track
––––––––––––––––––––––––––––––––––––––––
DR11 -0.07 dB -14.09 dB 2:58 01-Good Hearted Woman
DR12 -2.40 dB -16.56 dB 3:23 02-A Backstage Pass
DR13 0.00 dB -14.97 dB 2:46 03-How Do You Feel About Foolin' Around
DR11 -0.01 dB -13.47 dB 3:20 04-Luckenback, Texas (Back to Basics of Love)
DR10 -0.95 dB -13.21 dB 3:25 05-The Night Hank Williams Came to Town
DR12 0.00 dB -14.23 dB 3:31 06-If You Don't Like Hank Williams
DR13 0.00 dB -14.72 dB 2:56 07-Are You Sure Hank Done It This Way
DR14 0.00 dB -14.80 dB 2:47 08-Big River
DR14 0.00 dB -15.82 dB 3:47 09-Deportee (Plane Wreck at Los Gatos)
DR11 -2.62 dB -16.13 dB 4:12 10-Me and Bobby McGee
DR14 0.00 dB -16.44 dB 3:11 11-The Last Cowboy Song
DR11 0.00 dB -14.32 dB 2:34 12-Mammas Don't Let Your Babies Grow Up to Be Cowboys
DR14 0.00 dB -16.24 dB 3:04 13-Even Cowgirls Get the Blues
DR9 -5.31 dB -15.50 dB 2:45 14-Nowhere Road
DR6 -6.02 dB -13.67 dB 3:41 15-It Is What It Is
DR14 0.00 dB -15.58 dB 4:01 16-Living Legend
DR13 0.00 dB -15.63 dB 2:30 17-Love Is the Way
DR7 -5.05 dB -13.49 dB 2:48 18-Live Forever
––––––––––––––––––––––––––––––––––––––––

Number of tracks: 18
Official DR value: DR12

Samplerate: 44100 Hz
Channels: 2
Bits per sample: 16
Bitrate: 838 kbps
Codec: FLAC
================================================================================

The Highwaymen - The Essential Highwaymen (2010) 2CDs [Re-Up]

The Highwaymen - The Essential Highwaymen (2010) 2CDs [Re-Up]

All thanks to original releaser - crazivik

More interesting music in My Blog