Tags
Language
Tags

The Many Faces Of Led Zeppelin: The Ultimate Tribute (2007)

Posted By: v3122
The Many Faces Of Led Zeppelin: The Ultimate Tribute (2007)

The Many Faces Of Led Zeppelin: The Ultimate Tribute (2007)
EAC | Flac(Image) + Cue + Log & MP3 CBR 320Kbps
3CD | Music Brokers MBB8011 | ~ 1273 or 553 Mb | Artwork(jpg) -> 12 Mb
Hard Rock

Three CD set featuring 'tribute' albums from Dread Zeppelin and Great White plus a collection of Industrial cover versions. Unlike many of Hard Rock and Heavy Metal's true legends, Led Zeppelin have always appealed to a wider range of music listeners. Their musical output has been embraced by everyone from hippies to Hip Hopsters and has influenced more musicians than any Rock band since the Beatles. This Tribute album features a wide array of artists who owe a debt of thanks and credit to Jimmy, Robert, John and Bonzo. Includes music from Dread Zeppelin, Great White, Sigue Sigue Sputnik, Electric Light Church, Spahn Ranch, Sheep on Drugs and KMFDM amongst others.
The Many Faces Of Led Zeppelin: The Ultimate Tribute (2007):

The Many Faces Of Led Zeppelin: The Ultimate Tribute (2007)

Tracklist CD1 - Dread Zeppelin:

01. Stairway To Heaven (4:40)
02. Whole Lotta Love (3:30)
03. Rock And Roll (2:34)
04. D'yer Mak'er (3:28)
05. Heartbreaker (2:18)
06. Kashmir (4:25)
07. Kingston Celebration (2:48)
08. The Lemon Song (3:02)
09. Ten Years Gone (3:41)
10. Going To California (4:05)
11. Immigrant Song (3:19)
12. Hey, Hey, What Can I Do? (3:28)

Exact Audio Copy V1.0 beta 3 from 29. August 2011

EAC extraction logfile from 4. February 2015, 13:15

Dread Zeppelin / The Many Faces Of Led Zeppelin 1

Used drive : PIONEER BD-RW BDR-TD03 Adapter: 0 ID: 1

Read mode : Secure
Utilize accurate stream : Yes
Defeat audio cache : Yes
Make use of C2 pointers : No

Read offset correction : 667
Overread into Lead-In and Lead-Out : No
Fill up missing offset samples with silence : Yes
Delete leading and trailing silent blocks : No
Null samples used in CRC calculations : Yes
Used interface : Native Win32 interface for Win NT & 2000

Used output format : User Defined Encoder
Selected bitrate : 768 kBit/s
Quality : High
Add ID3 tag : No
Command line compressor : C:\Program Files (x86)\Exact Audio Copy\FLAC\FLAC.EXE
Additional command line options : -6 -V -T "ARTIST=%artist%" -T "TITLE=%title%" -T "ALBUM=%albumtitle%" -T "DATE=%year%" -T "TRACKNUMBER=%tracknr%" -T "GENRE=%genre%" -T "COMMENT=%comment%" -T "BAND=%albuminterpret%" -T "ALBUMARTIST=%albuminterpret%" -T "COMPOSER=%composer%" %haslyrics%–tag-from-file=LYRICS="%lyricsfile%"%haslyrics% -T "DISCNUMBER=%cdnumber%" -T "TOTALDISCS=%totalcds%" -T "TOTALTRACKS=%numtracks%" %hascover%–picture="%coverfile%"%hascover% %source% -o %dest%


TOC of the extracted CD

Track | Start | Length | Start sector | End sector
––––––––––––––––––––––––––––-
1 | 0:00.00 | 4:39.44 | 0 | 20968
2 | 4:39.44 | 3:29.38 | 20969 | 36681
3 | 8:09.07 | 2:33.66 | 36682 | 48222
4 | 10:42.73 | 3:27.55 | 48223 | 63802
5 | 14:10.53 | 2:18.34 | 63803 | 74186
6 | 16:29.12 | 4:24.53 | 74187 | 94039
7 | 20:53.65 | 2:47.44 | 94040 | 106608
8 | 23:41.34 | 3:02.28 | 106609 | 120286
9 | 26:43.62 | 3:41.14 | 120287 | 136875
10 | 30:25.01 | 4:04.69 | 136876 | 155244
11 | 34:29.70 | 3:19.16 | 155245 | 170185
12 | 37:49.11 | 3:28.29 | 170186 | 185814


Range status and errors

Selected range

Filename C:\Users\Deris\Desktop\TriLeZep\cd1\Dread Zeppelin - The Many Faces Of Led Zeppelin 1.wav

Peak level 100.0 %
Extraction speed 4.4 X
Range quality 100.0 %
Test CRC AA9B0A01
Copy CRC AA9B0A01
Copy OK

No errors occurred


AccurateRip summary

Track 1 accurately ripped (confidence 2) [7AA67870] (AR v1)
Track 2 accurately ripped (confidence 2) [5993D980] (AR v1)
Track 3 accurately ripped (confidence 2) [459CA223] (AR v1)
Track 4 accurately ripped (confidence 2) [1EAB7F47] (AR v1)
Track 5 accurately ripped (confidence 2) [8F377EEE] (AR v1)
Track 6 accurately ripped (confidence 2) [469A220F] (AR v1)
Track 7 accurately ripped (confidence 2) [6A677D70] (AR v1)
Track 8 accurately ripped (confidence 2) [374154B3] (AR v1)
Track 9 accurately ripped (confidence 2) [FB9DE12C] (AR v1)
Track 10 accurately ripped (confidence 2) [EB017A7C] (AR v1)
Track 11 accurately ripped (confidence 2) [4A44306A] (AR v1)
Track 12 accurately ripped (confidence 2) [3C56492E] (AR v1)

All tracks accurately ripped

End of status report

–– CUETools DB Plugin V2.1.3

[CTDB TOCID: 44vg4ArKoXpwLjFCE_3DX1rzPOA-] found, Submit result: 44vg4ArKoXpwLjFCE_3DX1rzPOA- has been confirmed
[f4ea2e32] (04/10) Differs in 124 samples @04:39:45,20:53:66,23:41:35,34:29:71
[0784e433] (01/10) No match
[4c0c582b] (05/10) Accurately ripped
You can use CUETools to repair this rip.


==== Log checksum 1C17276C66DCD3C8119B4DB888A01B54F973E6DA76AF0900C58000618026B3D6 ====


[CUETools log; Date: 12.02.2015 23:18:43; Version: 2.1.4]
[CTDB TOCID: 44vg4ArKoXpwLjFCE_3DX1rzPOA-] found.
Track | CTDB Status
1 | (10/11) Accurately ripped
2 | ( 6/11) Accurately ripped, or (4/11) differs in 39 samples @00:00:01
3 | (10/11) Accurately ripped
4 | (10/11) Accurately ripped
5 | (10/11) Accurately ripped
6 | (10/11) Accurately ripped
7 | ( 6/11) Accurately ripped, or (4/11) differs in 17 samples @00:00:01
8 | ( 6/11) Accurately ripped, or (4/11) differs in 40 samples @00:00:01
9 | (10/11) Accurately ripped
10 | (10/11) Accurately ripped
11 | ( 6/11) Accurately ripped, or (4/11) differs in 28 samples @00:00:01
12 | (10/11) Accurately ripped
[AccurateRip ID: 001281fa-00ab76a7-9609ad0c] found.
Track [ CRC | V2 ] Status
01 [7aa67870|fec9d935] (02+00/11) Accurately ripped
02 [5993d980|ffb73618] (02+00/11) Accurately ripped
03 [459ca223|d4af5df5] (02+00/11) Accurately ripped
04 [1eab7f47|89b3c959] (02+00/11) Accurately ripped
05 [8f377eee|afb992ec] (02+00/11) Accurately ripped
06 [469a220f|11422ff1] (02+00/11) Accurately ripped
07 [6a677d70|97d57f16] (02+00/11) Accurately ripped
08 [374154b3|6a266321] (02+00/11) Accurately ripped
09 [fb9de12c|9a23ffd9] (02+00/09) Accurately ripped
10 [eb017a7c|bfbe9f1e] (02+00/09) Accurately ripped
11 [4a44306a|9dfc5933] (02+00/09) Accurately ripped
12 [3c56492e|0766a216] (02+00/09) Accurately ripped
Offsetted by 587:
01 [3721f7cb] (00/11) No match (V2 was not tested)
02 [afff5fb1] (00/11) No match (V2 was not tested)
03 [e82946c5] (00/11) No match (V2 was not tested)
04 [671bffc6] (00/11) No match (V2 was not tested)
05 [88526a16] (00/11) No match (V2 was not tested)
06 [961ee6ca] (00/11) No match (V2 was not tested)
07 [6bf84e35] (00/11) No match (V2 was not tested)
08 [22268970] (00/11) No match (V2 was not tested)
09 [00a8ffa6] (00/09) No match (V2 was not tested)
10 [6527a1e8] (00/09) No match (V2 was not tested)
11 [65399ccd] (00/09) No match (V2 was not tested)
12 [bd91162a] (00/09) No match (V2 was not tested)
Offsetted by 667:
01 [eb06e4da] (00/11) No match (V2 was not tested)
02 [deea4876] (00/11) No match (V2 was not tested)
03 [118088c2] (00/11) No match (V2 was not tested)
04 [62b52db1] (00/11) No match (V2 was not tested)
05 [c85d0f96] (00/11) No match (V2 was not tested)
06 [09d56956] (00/11) No match (V2 was not tested)
07 [1a0189ce] (00/11) No match (V2 was not tested)
08 [40260e0d] (00/11) No match (V2 was not tested)
09 [59522cb4] (00/09) No match
10 [0c87e2bb] (00/09) No match
11 [db9ecf7a] (00/09) No match
12 [fc3c1f0a] (00/09) No match
Offsetted by 1331:
01 [37701611] (00/11) No match (V2 was not tested)
02 [40a13dff] (02/11) Accurately ripped
03 [485c70f3] (02/11) Accurately ripped
04 [ae2679ec] (02/11) Accurately ripped
05 [c24f06d6] (02/11) Accurately ripped
06 [4c534ff7] (00/11) No match (V2 was not tested)
07 [44d4cd33] (00/11) No match (V2 was not tested)
08 [d890706d] (02/11) Accurately ripped
09 [23aa869e] (02/09) Accurately ripped
10 [e86a43fa] (00/09) No match (V2 was not tested)
11 [b60bfbda] (02/09) Accurately ripped
12 [04615627] (02/09) Accurately ripped

Track Peak [ CRC32 ] [W/O NULL] [ LOG ]
– 100,0 [AA9B0A01] [3406C91A] CRC32
01 97,7 [94F5957E] [7D7D4062]
02 97,7 [A34E7897] [D8AFAF56]
03 97,7 [FBD7F465] [9765DAAF]
04 97,7 [6F18E12E] [F0A56DFB]
05 97,7 [49265D4D] [E4E40E68]
06 97,7 [C1E63FA6] [91F90D72]
07 97,7 [B8480BA3] [0890CB76]
08 100,0 [847F6693] [C330D05D]
09 97,7 [1AE238A6] [B3F99D88]
10 97,7 [5E50BD34] [DD5BECD6]
11 97,7 [15DD497F] [60BD08B0]
12 97,7 [DB3148FC] [85098A2C]


The Many Faces Of Led Zeppelin: The Ultimate Tribute (2007)

Tracklist CD2 - Great White:

01. Immigrant Song (2:14)
02. Living Loving Maid (2:37)
03. The Rover (5:46)
04. Stairway To Heaven (8:23)
05. No Quarter (7:54)
06. Since I've Been Loving You (6:37)
07. D'yer Mak'er (4:40)
08. Ramble On (4:33)
09. Tangerine (2:44)
10. Going To California (3:52)
11. In The Night (6:03)
12. Thank You (3:59)
13. All My Love (5:53)
14. When The Levee Breaks (6:52)

Exact Audio Copy V1.0 beta 3 from 29. August 2011

EAC extraction logfile from 4. February 2015, 14:26

Great White / The Many Faces Of Led Zeppelin 2

Used drive : PIONEER BD-RW BDR-TD03 Adapter: 0 ID: 1

Read mode : Secure
Utilize accurate stream : Yes
Defeat audio cache : Yes
Make use of C2 pointers : No

Read offset correction : 667
Overread into Lead-In and Lead-Out : No
Fill up missing offset samples with silence : Yes
Delete leading and trailing silent blocks : No
Null samples used in CRC calculations : Yes
Used interface : Native Win32 interface for Win NT & 2000

Used output format : User Defined Encoder
Selected bitrate : 768 kBit/s
Quality : High
Add ID3 tag : No
Command line compressor : C:\Program Files (x86)\Exact Audio Copy\FLAC\FLAC.EXE
Additional command line options : -6 -V -T "ARTIST=%artist%" -T "TITLE=%title%" -T "ALBUM=%albumtitle%" -T "DATE=%year%" -T "TRACKNUMBER=%tracknr%" -T "GENRE=%genre%" -T "COMMENT=%comment%" -T "BAND=%albuminterpret%" -T "ALBUMARTIST=%albuminterpret%" -T "COMPOSER=%composer%" %haslyrics%–tag-from-file=LYRICS="%lyricsfile%"%haslyrics% -T "DISCNUMBER=%cdnumber%" -T "TOTALDISCS=%totalcds%" -T "TOTALTRACKS=%numtracks%" %hascover%–picture="%coverfile%"%hascover% %source% -o %dest%


TOC of the extracted CD

Track | Start | Length | Start sector | End sector
––––––––––––––––––––––––––––-
1 | 0:00.00 | 2:14.00 | 0 | 10049
2 | 2:14.00 | 2:37.33 | 10050 | 21857
3 | 4:51.33 | 5:45.57 | 21858 | 47789
4 | 10:37.15 | 8:23.14 | 47790 | 85528
5 | 19:00.29 | 7:53.46 | 85529 | 121049
6 | 26:54.00 | 6:36.46 | 121050 | 150795
7 | 33:30.46 | 4:39.67 | 150796 | 171787
8 | 38:10.38 | 4:32.50 | 171788 | 192237
9 | 42:43.13 | 2:44.13 | 192238 | 204550
10 | 45:27.26 | 3:52.18 | 204551 | 221968
11 | 49:19.44 | 6:02.66 | 221969 | 249184
12 | 55:22.35 | 3:59.20 | 249185 | 267129
13 | 59:21.55 | 5:52.44 | 267130 | 293573
14 | 65:14.24 | 6:52.36 | 293574 | 324509


Range status and errors

Selected range

Filename C:\Users\Deris\Desktop\TriLeZep\cd2\Great White - The Many Faces Of Led Zeppelin 2.wav

Peak level 100.0 %
Extraction speed 2.6 X
Range quality 100.0 %
Test CRC 97097163
Copy CRC 97097163
Copy OK

No errors occurred


AccurateRip summary

Track 1 cannot be verified as accurate (confidence 6) [42B7B08A], AccurateRip returned [87D65890] (AR v2)
Track 2 cannot be verified as accurate (confidence 6) [352B5218], AccurateRip returned [389F69F0] (AR v2)
Track 3 cannot be verified as accurate (confidence 6) [9A84ECCD], AccurateRip returned [F0772271] (AR v2)
Track 4 cannot be verified as accurate (confidence 6) [4D5ADDE1], AccurateRip returned [C1F6FAAC] (AR v2)
Track 5 cannot be verified as accurate (confidence 6) [61DD02DF], AccurateRip returned [512C3917] (AR v2)
Track 6 cannot be verified as accurate (confidence 6) [AF50FA0C], AccurateRip returned [C6FADF87] (AR v2)
Track 7 cannot be verified as accurate (confidence 6) [3169FBEA], AccurateRip returned [6FA8191D] (AR v2)
Track 8 cannot be verified as accurate (confidence 6) [782AEB68], AccurateRip returned [B56535AE] (AR v2)
Track 9 cannot be verified as accurate (confidence 6) [D50B2869], AccurateRip returned [948A6606] (AR v2)
Track 10 cannot be verified as accurate (confidence 6) [6DF7FDD9], AccurateRip returned [F41A8C20] (AR v2)
Track 11 cannot be verified as accurate (confidence 6) [B5EA9FB9], AccurateRip returned [303A6690] (AR v2)
Track 12 cannot be verified as accurate (confidence 6) [B5185EEE], AccurateRip returned [9C94314F] (AR v2)
Track 13 cannot be verified as accurate (confidence 6) [D6E6F5A9], AccurateRip returned [8F093ADE] (AR v2)
Track 14 cannot be verified as accurate (confidence 5) [4E69713E], AccurateRip returned [792205A6] (AR v2)

No tracks could be verified as accurate
You may have a different pressing from the one(s) in the database

End of status report

–– CUETools DB Plugin V2.1.3

[CTDB TOCID: YPxT8ZgotraAYQtAZ9JQ.jD5LOY-] found, Submit result: YPxT8ZgotraAYQtAZ9JQ.jD5LOY- has been confirmed
[4906c49b] (04/12) Differs in 518 samples @02:14:01,04:51:34,10:37:16,19:00:30,26:54:01,33:30:47,38:10:39,42:43:14,45:27:27,49:19:45,55:22:36,59:21:56,65:14:25
[8dcf149c] (01/12) No match
[e72aa455] (01/12) No match
[d5972718] (06/12) Accurately ripped
You can use CUETools to repair this rip.


==== Log checksum 3FDC22A34144E31F4201929BDE671FD2299D7C1FE30723E45101C66648EF3977 ====


[CUETools log; Date: 12.02.2015 23:19:22; Version: 2.1.4]
[CTDB TOCID: YPxT8ZgotraAYQtAZ9JQ.jD5LOY-] found.
Track | CTDB Status
1 | (12/13) Accurately ripped
2 | ( 8/13) Accurately ripped, or (4/13) differs in 40 samples @00:00:01
3 | ( 8/13) Accurately ripped, or (4/13) differs in 40 samples @00:00:01
4 | ( 8/13) Accurately ripped, or (4/13) differs in 40 samples @00:00:01
5 | ( 8/13) Accurately ripped, or (4/13) differs in 39 samples @00:00:01
6 | ( 8/13) Accurately ripped, or (4/13) differs in 40 samples @00:00:01
7 | ( 8/13) Accurately ripped, or (4/13) differs in 40 samples @00:00:01
8 | ( 8/13) Accurately ripped, or (4/13) differs in 40 samples @00:00:01
9 | ( 8/13) Accurately ripped, or (4/13) differs in 40 samples @00:00:01
10 | ( 8/13) Accurately ripped, or (4/13) differs in 40 samples @00:00:01
11 | ( 8/13) Accurately ripped, or (4/13) differs in 40 samples @00:00:01
12 | ( 8/13) Accurately ripped, or (4/13) differs in 40 samples @00:00:01
13 | ( 8/13) Accurately ripped, or (4/13) differs in 40 samples @00:00:01
14 | ( 7/13) Accurately ripped, or (4/13) differs in 39 samples @00:00:01
[AccurateRip ID: 00240aa2-018561e3-be10e60e] found.
Track [ CRC | V2 ] Status
01 [1c162905|42b7b08a] (00+00/10) No match
02 [1c1a6017|352b5218] (00+00/08) No match
03 [b63d8fc1|9a84eccd] (00+00/08) No match
04 [70d0e917|4d5adde1] (00+00/10) No match
05 [13e4e3d4|61dd02df] (00+00/08) No match
06 [037a8858|af50fa0c] (00+00/08) No match
07 [78b46d5c|3169fbea] (00+00/08) No match
08 [0d54488d|782aeb68] (00+00/10) No match
09 [671226d4|d50b2869] (00+00/08) No match
10 [5be122bf|6df7fdd9] (00+00/08) No match
11 [6d832c03|b5ea9fb9] (00+00/08) No match
12 [3743e94e|b5185eee] (00+00/08) No match
13 [f597374f|d6e6f5a9] (00+00/08) No match
14 [2ee560e5|4e69713e] (00+00/07) No match
Offsetted by 1331:
01 [54dfd115] (00/10) No match (V2 was not tested)
02 [3591fe5f] (00/08) No match (V2 was not tested)
03 [4184c126] (00/08) No match (V2 was not tested)
04 [e2162b27] (00/10) No match (V2 was not tested)
05 [d5b771b8] (00/08) No match (V2 was not tested)
06 [14bf59d5] (00/08) No match (V2 was not tested)
07 [36011063] (00/08) No match (V2 was not tested)
08 [e5e3d626] (00/10) No match (V2 was not tested)
09 [7fb349a3] (00/08) No match (V2 was not tested)
10 [e56b7346] (00/08) No match (V2 was not tested)
11 [dbef6ecd] (00/08) No match (V2 was not tested)
12 [4897090c] (00/08) No match (V2 was not tested)
13 [393d0ff4] (00/08) No match (V2 was not tested)
14 [2f3305b3] (02/07) Accurately ripped

Track Peak [ CRC32 ] [W/O NULL] [ LOG ]
– 100,0 [97097163] [B95ACDAE] CRC32
01 97,7 [F7605F87] [29AB2A6A]
02 100,0 [A8DEED7C] [C8EABF08]
03 100,0 [FC8E768A] [50E38AD0]
04 97,7 [6BB89B8B] [FE74AF68]
05 97,7 [96286E8A] [D32B7E03]
06 97,8 [5156D487] [76D19EDE]
07 100,0 [C362DB0A] [B2E66870]
08 97,7 [DF11FCE2] [BEEEACD2]
09 97,7 [4AA887AE] [929E811C]
10 97,7 [7D0747B9] [5A0D5224]
11 97,7 [0FC5AF89] [61C54970]
12 97,7 [E5DA35E1] [45A54071]
13 97,7 [5409D145] [396359E7]
14 97,8 [AE39698B] [7B1F49E8]


The Many Faces Of Led Zeppelin: The Ultimate Tribute (2007)

Tracklist CD3 - The Remixes:

01. Sigue Sigue Sputnik - Misty Mountain Hop (4:58)
02. Electric Sky Church - Whola Lotta Love (4:51)
03. Spahn Ranch - Black Dog (4:17)
04. Julian Beeston - Immigrant Song (4:14)
05. Rosetta Stone - Going To California (4:16)
06. Razed In Black - Dancing Days (4:45)
07. Interface - Houses Of The Holy (4:52)
08. Sheep On Drugs - D'yer Mak'er (2:33)
09. KMFDM - Rock And Roll (4:01)
10. Ex Voto - The Rover (4:58)
11. Die Krupps - Nobody's Fault But Mine (3:44)
12. Reconstruction - The Wanton Song (3:55)
13. Astralasia - The Ocean (4:51)
14. Interface - Whole Lotta Love (4:56)

Exact Audio Copy V1.0 beta 3 from 29. August 2011

EAC extraction logfile from 4. February 2015, 23:45

Various / The Many Faces Of Led Zeppelin CD3 The Remixes

Used drive : PIONEER BD-RW BDR-TD03 Adapter: 0 ID: 1

Read mode : Secure
Utilize accurate stream : Yes
Defeat audio cache : Yes
Make use of C2 pointers : No

Read offset correction : 667
Overread into Lead-In and Lead-Out : No
Fill up missing offset samples with silence : Yes
Delete leading and trailing silent blocks : No
Null samples used in CRC calculations : Yes
Used interface : Native Win32 interface for Win NT & 2000

Used output format : User Defined Encoder
Selected bitrate : 768 kBit/s
Quality : High
Add ID3 tag : No
Command line compressor : C:\Program Files (x86)\Exact Audio Copy\FLAC\FLAC.EXE
Additional command line options : -6 -V -T "ARTIST=%artist%" -T "TITLE=%title%" -T "ALBUM=%albumtitle%" -T "DATE=%year%" -T "TRACKNUMBER=%tracknr%" -T "GENRE=%genre%" -T "COMMENT=%comment%" -T "BAND=%albuminterpret%" -T "ALBUMARTIST=%albuminterpret%" -T "COMPOSER=%composer%" %haslyrics%–tag-from-file=LYRICS="%lyricsfile%"%haslyrics% -T "DISCNUMBER=%cdnumber%" -T "TOTALDISCS=%totalcds%" -T "TOTALTRACKS=%numtracks%" %hascover%–picture="%coverfile%"%hascover% %source% -o %dest%


TOC of the extracted CD

Track | Start | Length | Start sector | End sector
––––––––––––––––––––––––––––-
1 | 0:00.00 | 4:58.23 | 0 | 22372
2 | 4:58.23 | 4:50.65 | 22373 | 44187
3 | 9:49.13 | 4:16.40 | 44188 | 63427
4 | 14:05.53 | 4:13.38 | 63428 | 82440
5 | 18:19.16 | 4:16.22 | 82441 | 101662
6 | 22:35.38 | 4:44.64 | 101663 | 123026
7 | 27:20.27 | 4:52.06 | 123027 | 144932
8 | 32:12.33 | 2:32.38 | 144933 | 156370
9 | 34:44.71 | 4:01.21 | 156371 | 174466
10 | 38:46.17 | 4:58.19 | 174467 | 196835
11 | 43:44.36 | 3:44.19 | 196836 | 213654
12 | 47:28.55 | 3:55.22 | 213655 | 231301
13 | 51:24.02 | 4:50.67 | 231302 | 253118
14 | 56:14.69 | 4:56.11 | 253119 | 275329


Range status and errors

Selected range

Filename C:\Users\Deris\Desktop\TriLeZep\cd3\Various - The Many Faces Of Led Zeppelin CD3 The Remixes.wav

Peak level 97.7 %
Extraction speed 4.8 X
Range quality 100.0 %
Test CRC A617DD06
Copy CRC A617DD06
Copy OK

No errors occurred


AccurateRip summary

Track 1 accurately ripped (confidence 2) [652E93A0] (AR v2)
Track 2 cannot be verified as accurate (confidence 2) [569B8F46], AccurateRip returned [10261CEF] (AR v2)
Track 3 accurately ripped (confidence 2) [3F657802] (AR v2)
Track 4 accurately ripped (confidence 2) [D254E9BD] (AR v2)
Track 5 cannot be verified as accurate (confidence 2) [DA369D31], AccurateRip returned [A2F7AAF8] (AR v2)
Track 6 accurately ripped (confidence 2) [BBF7F12A] (AR v2)
Track 7 accurately ripped (confidence 2) [7A454CF7] (AR v2)
Track 8 accurately ripped (confidence 2) [81A73072] (AR v2)
Track 9 accurately ripped (confidence 2) [9AA479FF] (AR v2)
Track 10 accurately ripped (confidence 2) [1AA8A282] (AR v2)
Track 11 accurately ripped (confidence 2) [2895AC75] (AR v2)
Track 12 accurately ripped (confidence 2) [1F783FBC] (AR v2)
Track 13 accurately ripped (confidence 2) [6B4D8301] (AR v2)
Track 14 accurately ripped (confidence 2) [A4399F90] (AR v2)

12 track(s) accurately ripped
2 track(s) could not be verified as accurate

Some tracks could not be verified as accurate

End of status report

–– CUETools DB Plugin V2.1.3

[CTDB TOCID: je39hA3OwF6S7SLgIbIoZmAArPU-] found, Submit result: je39hA3OwF6S7SLgIbIoZmAArPU- has been confirmed
[e7e33f94] (2/8) Differs in 220 samples @09:49:14,14:05:54,18:19:17,27:20:28,47:28:56,56:14:70
[338e2dc4] (4/8) Accurately ripped
[ccace121] (1/8) No match
[557a7e59] (1/8) No match
You can use CUETools to repair this rip.


==== Log checksum 0801B72BC9E730B9BC80E03AD295E7F2122B7DC808CD36D5E73A18394E7C8E42 ====


[CUETools log; Date: 12.02.2015 23:19:55; Version: 2.1.4]
[CTDB TOCID: je39hA3OwF6S7SLgIbIoZmAArPU-] found.
Track | CTDB Status
1 | (9/9) Accurately ripped
2 | (8/9) Accurately ripped
3 | (7/9) Accurately ripped, or (2/9) differs in 36 samples @00:00:01
4 | (7/9) Accurately ripped, or (2/9) differs in 37 samples @00:00:01
5 | (5/9) Accurately ripped, or (2/9) differs in 34 samples @00:00:01
6 | (9/9) Accurately ripped
7 | (7/9) Accurately ripped, or (2/9) differs in 39 samples @00:00:01
8 | (9/9) Accurately ripped
9 | (9/9) Accurately ripped
10 | (9/9) Accurately ripped
11 | (9/9) Accurately ripped
12 | (7/9) Accurately ripped, or (2/9) differs in 38 samples @00:00:01
13 | (9/9) Accurately ripped
14 | (7/9) Accurately ripped, or (2/9) differs in 36 samples @00:00:01
[AccurateRip ID: 001fc93d-01503c0a-ba0e570e] found.
Track [ CRC | V2 ] Status
01 [d2fa2db3|652e93a0] (0+2/4) Accurately ripped
02 [699a1a23|569b8f46] (0+0/2) No match
03 [28ce6dd0|3f657802] (0+2/4) Accurately ripped
04 [b7498acb|d254e9bd] (0+2/4) Accurately ripped
05 [dc31ffa8|da369d31] (0+0/2) No match
06 [ec41e6bf|bbf7f12a] (0+2/4) Accurately ripped
07 [3c0e4d3f|7a454cf7] (0+2/4) Accurately ripped
08 [8ccfc2c5|81a73072] (0+2/4) Accurately ripped
09 [f7269547|9aa479ff] (0+2/4) Accurately ripped
10 [f8890f41|1aa8a282] (0+2/4) Accurately ripped
11 [b285f017|2895ac75] (0+2/4) Accurately ripped
12 [357d04a6|1f783fbc] (0+2/4) Accurately ripped
13 [8b646292|6b4d8301] (0+2/4) Accurately ripped
14 [3d4543e5|a4399f90] (0+2/4) Accurately ripped
Offsetted by 1331:
01 [eca4f5c9] (2/4) Accurately ripped
02 [c737a87d] (0/2) No match (V2 was not tested)
03 [4446c426] (0/4) No match (V2 was not tested)
04 [e1626121] (0/4) No match (V2 was not tested)
05 [a2f7aaf8] (2/2) Accurately ripped
06 [e3e712a9] (0/4) No match (V2 was not tested)
07 [3dbd98af] (2/4) Accurately ripped
08 [0dc68a0a] (2/4) Accurately ripped
09 [096f004e] (2/4) Accurately ripped
10 [43f22a3f] (2/4) Accurately ripped
11 [a2f4f2af] (0/4) No match (V2 was not tested)
12 [9fa12d23] (2/4) Accurately ripped
13 [b1968f25] (0/4) No match (V2 was not tested)
14 [3ba61118] (2/4) Accurately ripped

Track Peak [ CRC32 ] [W/O NULL] [ LOG ]
– 97,7 [A617DD06] [9F35300E] CRC32
01 82,2 [743696D7] [E1455A9E]
02 97,7 [2CEB0D75] [57B33680]
03 82,2 [19F58EDA] [B40CB417]
04 97,7 [5E94E22E] [B7CADED0]
05 97,7 [8F88F138] [694AB5F4]
06 97,7 [95EA363F] [3C89FA29]
07 97,7 [2671D098] [7C746D7C]
08 97,7 [C1CF7465] [9BAC4CB5]
09 87,0 [B44DDDFD] [67C0B65A]
10 97,7 [FC54C11E] [51893D9D]
11 97,7 [72F24E93] [09A3F3B9]
12 97,7 [817FC1C3] [D11C1945]
13 91,6 [AEC4A0A3] [9B5121FB]
14 97,7 [C646EB14] [35BF58E7]


The Many Faces Of Led Zeppelin: The Ultimate Tribute (2007)

All thanks go to the original releaser

Led Zeppelin in my Blog

Download The Many Faces Of Led Zeppelin: The Ultimate Tribute (2007):