Tags
Language
Tags

The Moody Blues - The Polydor Years 1986-1992 (2014)

Posted By: v3122
The Moody Blues - The Polydor Years 1986-1992 (2014)

The Moody Blues - The Polydor Years 1986-1992 (2014)
EAC | Flac(Image) + Cue + Log & MP3 CBR 320Kbps
6CD | Universal Music, 378 941-4 | ~ 2828 or 1014 Mb | Scans
Progressive Rock | 6CD from Super Deluxe Box Set

6 CDs featuring all of the Moody Blues' recorded output for Polydor Records between 1986 & 1992.
Each disc includes previously unreleased and rare bonus tracks. CDs are housed in a slipcase with a 64 page hardbound book & 7' blue vinyl single.

~ amazon
The Moody Blues - The Polydor Years 1986-1992 (2014)

The Moody Blues - The Polydor Years 1986-1992 (2014):

The Moody Blues - The Polydor Years 1986-1992 (2014)

Tracklist CD1:
1986 - The Other Side Of Life

01. Your Wildest Dreams 04:52
02. Talkin' Talkin' 03:55
03. Rock N' Roll Over You 04:50
04. I Just Don’t Care 03:28
05. Running Out Of Love 04:25
06. The Other Side Of Life 06:52
07. The Spirit 04:20
08. Slings And Arrows 04:27
09. It May Be A Fire 04:58

Bonus Tracks:

10. Your Wildest Dreams (Single Version) 03:55
11. The Other Side Of Life (Single Edit) 05:02
12. Nights In White Satin (Live: Recorded At Wembley Arena 1984 / A & B Sides Of Single) 05:51
13. I’m Just A Singer In A Rock And Roll Band (Live: Recorded At Wembley Arena 1984) 05:25
14. Rock N’ Roll Over You (Live: Taken From The 'I Know You’re Out There Somewhere' CD EP 1988) 05:12
15. The Other Side Of Life (Live: B-Side Of 12'' Single) 07:39

Exact Audio Copy V1.0 beta 3 from 29. August 2011

EAC extraction logfile from 4. December 2014, 12:26

The Moody Blues / The Other Side Of Life

Used drive : Optiarc DVD RW AD-7280S Adapter: 5 ID: 0

Read mode : Secure
Utilize accurate stream : Yes
Defeat audio cache : Yes
Make use of C2 pointers : No

Read offset correction : 48
Overread into Lead-In and Lead-Out : No
Fill up missing offset samples with silence : Yes
Delete leading and trailing silent blocks : No
Null samples used in CRC calculations : Yes
Used interface : Native Win32 interface for Win NT & 2000

Used output format : Internal WAV Routines
Sample format : 44.100 Hz; 16 Bit; Stereo


TOC of the extracted CD

Track | Start | Length | Start sector | End sector
––––––––––––––––––––––––––––-
1 | 0:00.00 | 4:52.74 | 0 | 21973
2 | 4:52.74 | 3:55.35 | 21974 | 39633
3 | 8:48.34 | 4:50.40 | 39634 | 61423
4 | 13:38.74 | 3:28.24 | 61424 | 77047
5 | 17:07.23 | 4:25.21 | 77048 | 96943
6 | 21:32.44 | 6:52.09 | 96944 | 127852
7 | 28:24.53 | 4:20.35 | 127853 | 147387
8 | 32:45.13 | 4:27.55 | 147388 | 167467
9 | 37:12.68 | 4:58.02 | 167468 | 189819
10 | 42:10.70 | 3:55.07 | 189820 | 207451
11 | 46:06.02 | 5:02.11 | 207452 | 230112
12 | 51:08.13 | 5:51.62 | 230113 | 256499
13 | 57:00.00 | 5:25.29 | 256500 | 280903
14 | 62:25.29 | 5:12.08 | 280904 | 304311
15 | 67:37.37 | 7:39.37 | 304312 | 338773


Range status and errors

Selected range

Filename C:\Users\Meijin\Desktop\ALLexxess\Moody Blues\2014 Polydor Years (6CD + 2DVD + LP Box Set Polydor Records)\1986 The Other Side Of Life\The Moody Blues - The Other Side Of Life.wav

Peak level 98.8 %
Extraction speed 4.0 X
Range quality 100.0 %
Test CRC 2A5A5F4B
Copy CRC 2A5A5F4B
Copy OK

No errors occurred


AccurateRip summary

Track 1 not present in database
Track 2 not present in database
Track 3 not present in database
Track 4 not present in database
Track 5 not present in database
Track 6 not present in database
Track 7 not present in database
Track 8 not present in database
Track 9 not present in database
Track 10 not present in database
Track 11 not present in database
Track 12 not present in database
Track 13 not present in database
Track 14 not present in database
Track 15 not present in database

None of the tracks are present in the AccurateRip database

End of status report

foobar2000 1.2.9 / Dynamic Range Meter 1.1.1
log date: 2014-12-07 10:50:19

––––––––––––––––––––––––––––––––––––––––
Analyzed: The Moody Blues / The Other Side Of Life
––––––––––––––––––––––––––––––––––––––––

DR Peak RMS Duration Track
––––––––––––––––––––––––––––––––––––––––
DR11 -0.36 dB -13.68 dB 4:53 01-Your Wildest Dreams
DR12 -0.10 dB -13.63 dB 3:55 02-Talkin' Talkin'
DR12 -0.12 dB -13.47 dB 4:51 03-Rock N' Roll Over You
DR12 -0.28 dB -16.16 dB 3:28 04-I Just Don’t Care
DR12 -0.21 dB -14.49 dB 4:25 05-Running Out Of Love
DR12 -0.10 dB -14.85 dB 6:52 06-The Other Side Of Life
DR12 -0.53 dB -14.51 dB 4:20 07-The Spirit
DR12 -0.77 dB -14.71 dB 4:28 08-Slings And Arrows
DR11 -0.59 dB -15.27 dB 4:58 09-It May Be A Fire
DR11 -0.10 dB -13.08 dB 3:55 10-Your Wildest Dreams (Single Version) / Bonus Track
DR11 -0.83 dB -14.21 dB 5:02 11-The Other Side Of Life (Single Edit) / Bonus Track
DR10 -0.23 dB -13.54 dB 5:52 12-Nights In White Satin (Live Wembley 1984 / A & B Sides Of Single) / Bonus Track
DR11 -0.40 dB -12.80 dB 5:25 13-I’m Just A Singer In A Rock And Roll Band (Live Wembley 1984) / Bonus Track
DR12 -0.10 dB -14.03 dB 5:12 14-Rock N’ Roll Over You (Live / CD EP 1988) / Bonus Track
DR13 -0.46 dB -15.38 dB 7:39 15-The Other Side Of Life (Live / B-Side Of 12'' Single) / Bonus Track
––––––––––––––––––––––––––––––––––––––––

Number of tracks: 15
Official DR value: DR12

Samplerate: 44100 Hz
Channels: 2
Bits per sample: 16
Bitrate: 898 kbps
Codec: FLAC

[CUETools log; Date: 07.12.2014 10:50:21; Version: 2.1.4]
[CTDB TOCID: Hfy9QW2GE9fkRyZGa73fiUCFIJ0-] disk not present in database.
[AccurateRip ID: 0026df98-01bccd16-ce11a40f] disk not present in database.

Track Peak [ CRC32 ] [W/O NULL] [ LOG ]
– 98,8 [2A5A5F4B] [8F1D5A71] CRC32
01 95,9 [799B49EF] [88DF29AA]
02 98,8 [B7260340] [FE63C2FC]
03 98,6 [EC417F6C] [78768488]
04 96,8 [04DA6772] [B8EF8977]
05 97,5 [588DD6E4] [15262AAC]
06 98,8 [6080C0BD] [1F60B712]
07 94,1 [9430C174] [B257F6D4]
08 91,4 [1DDAC031] [AA403EA0]
09 93,4 [1C98FB76] [90F9B9D9]
10 98,8 [694FCBE0] [5BCACAB3]
11 90,8 [E4C604C9] [B30BA95E]
12 97,3 [D09FF291] [7C5F4AD5]
13 95,5 [1DA27C80] [DDBD84A2]
14 98,8 [022680CD] [28D347A2]
15 94,8 [7F4664FB] [A88609EF]

The Moody Blues - The Polydor Years 1986-1992 (2014)

Tracklist CD2:
1986 - The Other Side Of Life Tour-Live At The Blossom Music Centre, Cleveland 1986

01. Gemini Dream 05:58
02. The Voice 05:51
03. Tuesday Afternoon 05:12
04. Your Wildest Dreams 05:24
05. Isn’t Life Strange 06:23
06. The Story In Your Eyes 03:43
07. It May Be A Fire 05:33
08. Veteran Cosmic Rocker 05:48
09. I’m Just A Singer (In A Rock And Roll Band) 06:38
10. Nights In White Satin 05:35
11. Legend Of A Mind 08:49
12. Question 06:55

Exact Audio Copy V1.0 beta 3 from 29. August 2011

EAC extraction logfile from 4. December 2014, 11:22

The Moody Blues / The Other Side Of Life Tour

Used drive : Optiarc DVD RW AD-7280S Adapter: 5 ID: 0

Read mode : Secure
Utilize accurate stream : Yes
Defeat audio cache : Yes
Make use of C2 pointers : No

Read offset correction : 48
Overread into Lead-In and Lead-Out : No
Fill up missing offset samples with silence : Yes
Delete leading and trailing silent blocks : No
Null samples used in CRC calculations : Yes
Used interface : Native Win32 interface for Win NT & 2000

Used output format : Internal WAV Routines
Sample format : 44.100 Hz; 16 Bit; Stereo


TOC of the extracted CD

Track | Start | Length | Start sector | End sector
––––––––––––––––––––––––––––-
1 | 0:00.00 | 5:58.63 | 0 | 26912
2 | 5:58.63 | 5:51.09 | 26913 | 53246
3 | 11:49.72 | 5:12.54 | 53247 | 76700
4 | 17:02.51 | 5:24.50 | 76701 | 101050
5 | 22:27.26 | 6:23.24 | 101051 | 129799
6 | 28:50.50 | 3:43.62 | 129800 | 146586
7 | 32:34.37 | 5:33.13 | 146587 | 171574
8 | 38:07.50 | 5:48.40 | 171575 | 197714
9 | 43:56.15 | 6:38.29 | 197715 | 227593
10 | 50:34.44 | 5:35.38 | 227594 | 252756
11 | 56:10.07 | 8:49.02 | 252757 | 292433
12 | 64:59.09 | 6:55.70 | 292434 | 323628


Range status and errors

Selected range

Filename C:\Users\Meijin\Desktop\ALLexxess\Moody Blues\2014 Polydor Years (6CD + 2DVD + LP Box Set Polydor Records)\1986 The Other Side Of Life Tour\The Moody Blues - The Other Side Of Life Tour.wav

Peak level 98.8 %
Extraction speed 4.4 X
Range quality 100.0 %
Test CRC C8A7BFF9
Copy CRC C8A7BFF9
Copy OK

No errors occurred


AccurateRip summary

Track 1 not present in database
Track 2 not present in database
Track 3 not present in database
Track 4 not present in database
Track 5 not present in database
Track 6 not present in database
Track 7 not present in database
Track 8 not present in database
Track 9 not present in database
Track 10 not present in database
Track 11 not present in database
Track 12 not present in database

None of the tracks are present in the AccurateRip database

End of status report

foobar2000 1.2.9 / Dynamic Range Meter 1.1.1
log date: 2014-12-07 10:50:45

––––––––––––––––––––––––––––––––––––––––
Analyzed: The Moody Blues / The Other Side Of Life Tour
––––––––––––––––––––––––––––––––––––––––

DR Peak RMS Duration Track
––––––––––––––––––––––––––––––––––––––––
DR12 -0.10 dB -14.47 dB 5:59 01-Gemini Dream
DR12 -0.10 dB -13.96 dB 5:51 02-The Voice
DR11 -0.15 dB -14.44 dB 5:13 03-Tuesday Afternoon
DR11 -0.15 dB -13.73 dB 5:25 04-Your Wildest Dreams
DR12 -0.10 dB -15.56 dB 6:23 05-Isn’t Life Strange
DR11 -0.10 dB -13.36 dB 3:44 06-The Story In Your Eyes
DR13 -1.16 dB -15.93 dB 5:33 07-It May Be A Fire
DR11 -0.16 dB -13.80 dB 5:49 08-Veteran Cosmic Rocker
DR11 -0.10 dB -13.15 dB 6:38 09-I’m Just A Singer (In A Rock And Roll Band)
DR10 -0.56 dB -14.61 dB 5:36 10-Nights In White Satin
DR12 -0.13 dB -15.42 dB 8:49 11-Legend Of A Mind
DR11 -0.10 dB -13.82 dB 6:56 12-Question
––––––––––––––––––––––––––––––––––––––––

Number of tracks: 12
Official DR value: DR11

Samplerate: 44100 Hz
Channels: 2
Bits per sample: 16
Bitrate: 925 kbps
Codec: FLAC

[CUETools log; Date: 07.12.2014 10:50:47; Version: 2.1.4]
[CTDB TOCID: Yt_PUAJ2f9nEWN.sZE3NatZ2EvY-] disk not present in database.
[AccurateRip ID: 001e8483-011e2e97-9e10db0c] disk not present in database.

Track Peak [ CRC32 ] [W/O NULL] [ LOG ]
– 98,8 [C8A7BFF9] [05A3BE4B] CRC32
01 98,8 [71E5EADE] [1E901379]
02 98,8 [0772E92A] [C997AF12]
03 98,2 [888EB15D] [658B7634]
04 98,3 [054C8234] [2F07A0C7]
05 98,8 [414FB98E] [63B25A5E]
06 98,8 [3867F6AC] [8E13CE15]
07 87,5 [D49F88B5] [6F9B5783]
08 98,2 [A1D26F9B] [63307AF7]
09 98,8 [C976E359] [A7868712]
10 93,7 [1065126F] [2D55996B]
11 98,5 [2075207D] [9E5D1BF5]
12 98,8 [C0523AB2] [94BD78F2]

The Moody Blues - The Polydor Years 1986-1992 (2014)

Tracklist CD3:
1988 - Sur La Mer

01. I Know You’re Out There Somewhere 06:40
02. Want To Be With You 04:50
03. River Of Endless Love 04:46
04. No More Lies 05:16
05. Here Comes The Weekend 04:16
06. Vintage Wine 03:40
07. Breaking Point 04:56
08. Miracle 04:56
09. Love Is On The Run 05:03
10. Deep 06:56

Bonus Tracks:

11. I Know You’re Out There Somewhere (Single Edit / Taken From The 'I Know You’re Out There Somewhere' CD EP 1988) 04:17
12. No More Lies (Radio Edit / A-Sides Of Single1988) 03:46
13. Question (1989 Version) 05:45
14. Isn’t Life Strange (1989 Version / Taken From Album 'The Moody Blues Greatest Hits' 1989) 06:40
15. Al Fin Voy A Encontrate ('I Know You’re Out There Somewhere' Spanish Version / A-Side Of Single In The USA) 04:16

Exact Audio Copy V1.0 beta 3 from 29. August 2011

EAC extraction logfile from 4. December 2014, 9:45

The Moody Blues / Sur La Mer

Used drive : PLEXTOR BD-R PX-B950SA Adapter: 6 ID: 0

Read mode : Secure
Utilize accurate stream : Yes
Defeat audio cache : Yes
Make use of C2 pointers : No

Read offset correction : 6
Overread into Lead-In and Lead-Out : No
Fill up missing offset samples with silence : Yes
Delete leading and trailing silent blocks : No
Null samples used in CRC calculations : Yes
Used interface : Native Win32 interface for Win NT & 2000

Used output format : Internal WAV Routines
Sample format : 44.100 Hz; 16 Bit; Stereo


TOC of the extracted CD

Track | Start | Length | Start sector | End sector
––––––––––––––––––––––––––––-
1 | 0:00.00 | 6:40.27 | 0 | 30026
2 | 6:40.27 | 4:50.04 | 30027 | 51780
3 | 11:30.31 | 4:46.56 | 51781 | 73286
4 | 16:17.12 | 5:16.61 | 73287 | 97047
5 | 21:33.73 | 4:16.07 | 97048 | 116254
6 | 25:50.05 | 3:40.06 | 116255 | 132760
7 | 29:30.11 | 4:56.46 | 132761 | 155006
8 | 34:26.57 | 4:56.71 | 155007 | 177277
9 | 39:23.53 | 5:03.30 | 177278 | 200032
10 | 44:27.08 | 6:56.25 | 200033 | 231257
11 | 51:23.33 | 4:17.67 | 231258 | 250599
12 | 55:41.25 | 3:46.46 | 250600 | 267595
13 | 59:27.71 | 5:45.33 | 267596 | 293503
14 | 65:13.29 | 6:40.05 | 293504 | 323508
15 | 71:53.34 | 4:16.47 | 323509 | 342755


Range status and errors

Selected range

Filename C:\Users\Meijin\Desktop\ALLexxess\Moody Blues\2014 Polydor Years (6CD + 2DVD + LP Box Set Polydor Records)\1988 Sur La Mer\The Moody Blues - Sur La Mer.wav

Peak level 98.8 %
Extraction speed 2.9 X
Range quality 99.9 %
Test CRC 87F90F9A
Copy CRC 87F90F9A
Copy OK

No errors occurred


AccurateRip summary

Track 1 not present in database
Track 2 not present in database
Track 3 not present in database
Track 4 not present in database
Track 5 not present in database
Track 6 not present in database
Track 7 not present in database
Track 8 not present in database
Track 9 not present in database
Track 10 not present in database
Track 11 not present in database
Track 12 not present in database
Track 13 not present in database
Track 14 not present in database
Track 15 not present in database

None of the tracks are present in the AccurateRip database

End of status report

foobar2000 1.2.9 / Dynamic Range Meter 1.1.1
log date: 2014-12-07 10:51:29

––––––––––––––––––––––––––––––––––––––––
Analyzed: The Moody Blues / Sur La Mer
––––––––––––––––––––––––––––––––––––––––

DR Peak RMS Duration Track
––––––––––––––––––––––––––––––––––––––––
DR12 -0.10 dB -14.42 dB 6:40 01-I Know You’re Out There Somewhere
DR12 -0.11 dB -15.47 dB 4:50 02-Want To Be With You
DR13 -0.10 dB -13.89 dB 4:47 03-River Of Endless Love
DR12 -0.10 dB -13.70 dB 5:17 04-No More Lies
DR12 -0.30 dB -13.77 dB 4:16 05-Here Comes The Weekend
DR13 -0.10 dB -14.71 dB 3:40 06-Vintage Wine
DR13 -0.42 dB -15.61 dB 4:57 07-Breaking Point
DR13 -0.10 dB -15.23 dB 4:57 08-Miracle
DR12 -0.87 dB -14.40 dB 5:03 09-Love Is On The Run
DR12 -0.59 dB -15.50 dB 6:56 10-Deep
DR13 -0.10 dB -14.83 dB 4:18 11-I Know You’re Out There Somewhere (Single Edit) / Bonus Track
DR13 -0.77 dB -15.30 dB 3:47 12-No More Lies (Radio Edit) / Bonus Track
DR9 -2.87 dB -16.11 dB 5:45 13-Question (1989 Version) / Bonus Track
DR8 -2.80 dB -15.20 dB 6:40 14-Isn’t Life Strange (1989 Version) / Bonus Track
DR13 -0.10 dB -15.38 dB 4:17 15-Al Fin Voy A Encontrate ('I Know You’re Out There Somewhere' Spanish Version)…
––––––––––––––––––––––––––––––––––––––––

Number of tracks: 15
Official DR value: DR12

Samplerate: 44100 Hz
Channels: 2
Bits per sample: 16
Bitrate: 865 kbps
Codec: FLAC

[CUETools log; Date: 07.12.2014 10:51:32; Version: 2.1.4]
[CTDB TOCID: Mgyvc_PmFbfwIytrJpJ1CFqiwGA-] disk not present in database.
[AccurateRip ID: 0029d9ac-01d7fc88-eb11da0f] disk not present in database.

Track Peak [ CRC32 ] [W/O NULL] [ LOG ]
– 98,8 [87F90F9A] [1DD7952C] CRC32
01 98,8 [48331932] [52AC0CD7]
02 98,7 [253CBC35] [111688E9]
03 98,8 [11B3F454] [0A3DF8F1]
04 98,8 [E43B21F0] [673A6FBB]
05 96,6 [F6F3108C] [3C46B4F5]
06 98,8 [C8B69FEE] [2B737F43]
07 95,3 [C672C7EE] [28D7573D]
08 98,8 [E08E4D0F] [80B02EF3]
09 90,4 [E4C7CF9A] [1E346A13]
10 93,4 [08CA0158] [640717EE]
11 98,8 [1A24F449] [15B6B16E]
12 91,5 [8D36559C] [7E72FF62]
13 71,8 [807546A9] [36D6D0DB]
14 72,4 [DECC98EE] [8876E554]
15 98,8 [BFFF6A15] [E56EF11D]

The Moody Blues - The Polydor Years 1986-1992 (2014)

Tracklist CD4:
1991 - Keys To The Kingdom

01. Say It With Love 03:58
02. Bless The Wings (That Bring You Back) 05:10
03. Is This Heaven? 04:05
04. Say What You Mean (Part One And Two) 05:38
05. Lean On Me (Tonight) 04:58
06. Hope And Pray 05:02
07. Shadows On The Wall 05:07
08. Once Is Enough 04:04
09. Celtic Sonet 05:00
10. Magic 05:12
11. Never Blame The Rainbows For The Rain 05:03

Bonus Tracks:

12. Bless The Wings (That Bring You Back) (US Radio Remix) 03:54
13. Highway (B-Side Of Single 1991) 04:37
14. Forever Autumn (BBC Radio One Acoustic Session 1991) 04:31
15. Say It With Love (BBC Radio One Acoustic Session 1991) 04:01
16. Bless The Wings (That Bring You Back) (BBC Radio One Acoustic Session 1991) 03:44
17. Never Blame The Rainbows For The Rain (BBC Radio One Acoustic Session 1991) 04:44

Exact Audio Copy V1.0 beta 3 from 29. August 2011

EAC extraction logfile from 3. December 2014, 21:00

The Moody Blues / Keys To The Kingdom

Used drive : Optiarc DVD RW AD-7280S Adapter: 5 ID: 0

Read mode : Secure
Utilize accurate stream : Yes
Defeat audio cache : Yes
Make use of C2 pointers : No

Read offset correction : 48
Overread into Lead-In and Lead-Out : No
Fill up missing offset samples with silence : Yes
Delete leading and trailing silent blocks : No
Null samples used in CRC calculations : Yes
Used interface : Native Win32 interface for Win NT & 2000

Used output format : Internal WAV Routines
Sample format : 44.100 Hz; 16 Bit; Stereo


TOC of the extracted CD

Track | Start | Length | Start sector | End sector
––––––––––––––––––––––––––––-
1 | 0:00.00 | 3:58.02 | 0 | 17851
2 | 3:58.02 | 5:10.11 | 17852 | 41112
3 | 9:08.13 | 4:05.07 | 41113 | 59494
4 | 13:13.20 | 5:38.34 | 59495 | 84878
5 | 18:51.54 | 4:58.59 | 84879 | 107287
6 | 23:50.38 | 5:02.46 | 107288 | 129983
7 | 28:53.09 | 5:07.42 | 129984 | 153050
8 | 34:00.51 | 4:04.03 | 153051 | 171353
9 | 38:04.54 | 5:00.28 | 171354 | 193881
10 | 43:05.07 | 5:12.54 | 193882 | 217335
11 | 48:17.61 | 5:03.09 | 217336 | 240069
12 | 53:20.70 | 3:54.06 | 240070 | 257625
13 | 57:15.01 | 4:37.27 | 257626 | 278427
14 | 61:52.28 | 4:31.24 | 278428 | 298776
15 | 66:23.52 | 4:01.27 | 298777 | 316878
16 | 70:25.04 | 3:44.38 | 316879 | 333716
17 | 74:09.42 | 4:44.08 | 333717 | 355024


Range status and errors

Selected range

Filename C:\Users\Meijin\Desktop\ALLexxess\Moody Blues\2014 Polydor Years (6CD + 2DVD + LP Box Set Polydor Records)\1991 Keys To The Kingdom\The Moody Blues - Keys To The Kingdom.wav

Peak level 98.8 %
Extraction speed 4.3 X
Range quality 99.9 %
Test CRC 3795F212
Copy CRC 3795F212
Copy OK

No errors occurred


AccurateRip summary

Track 1 not present in database
Track 2 not present in database
Track 3 not present in database
Track 4 not present in database
Track 5 not present in database
Track 6 not present in database
Track 7 not present in database
Track 8 not present in database
Track 9 not present in database
Track 10 not present in database
Track 11 not present in database
Track 12 not present in database
Track 13 not present in database
Track 14 not present in database
Track 15 not present in database
Track 16 not present in database
Track 17 not present in database

None of the tracks are present in the AccurateRip database

End of status report

foobar2000 1.2.9 / Dynamic Range Meter 1.1.1
log date: 2014-12-07 10:51:54

––––––––––––––––––––––––––––––––––––––––
Analyzed: The Moody Blues / Keys To The Kingdom
––––––––––––––––––––––––––––––––––––––––

DR Peak RMS Duration Track
––––––––––––––––––––––––––––––––––––––––
DR13 -0.10 dB -14.32 dB 3:58 01-Say It With Love
DR12 -0.10 dB -14.26 dB 5:10 02-Bless The Wings (That Bring You Back)
DR13 -0.10 dB -15.74 dB 4:05 03-Is This Heaven?
DR12 -0.10 dB -14.41 dB 5:38 04-Say What You Mean (Part One And Two)
DR13 -0.11 dB -16.03 dB 4:59 05-Lean On Me (Tonight)
DR12 -0.10 dB -13.70 dB 5:03 06-Hope And Pray
DR12 -0.10 dB -14.57 dB 5:08 07-Shadows On The Wall
DR13 -0.10 dB -14.36 dB 4:04 08-Once Is Enough
DR12 -0.10 dB -16.61 dB 5:00 09-Celtic Sonet
DR11 -0.10 dB -14.36 dB 5:13 10-Magic
DR11 -0.10 dB -14.06 dB 5:03 11-Never Blame The Rainbows For The Rain
DR11 -0.14 dB -13.92 dB 3:54 12-Bless The Wings (That Bring You Back) (US Radio Remix) / Bonus Track
DR11 -0.72 dB -14.71 dB 4:37 13-Highway (B-Side Of Single 1991) / Bonus Track
DR11 -3.08 dB -18.33 dB 4:31 14-Forever Autumn (BBC Radio One Acoustic Session 1991) / Bonus Track
DR11 -3.10 dB -16.64 dB 4:01 15-Say It With Love (BBC Radio One Acoustic Session 1991) / Bonus Track
DR12 -3.77 dB -18.18 dB 3:45 16-Bless The Wings (That Bring You Back) (BBC Radio One Acoustic Session 1991) /…
DR12 -3.39 dB -18.20 dB 4:44 17-Never Blame The Rainbows For The Rain (BBC Radio One Acoustic Session 1991) /…
––––––––––––––––––––––––––––––––––––––––

Number of tracks: 17
Official DR value: DR12

Samplerate: 44100 Hz
Channels: 2
Bits per sample: 16
Bitrate: 850 kbps
Codec: FLAC

[CUETools log; Date: 07.12.2014 10:51:56; Version: 2.1.4]
[CTDB TOCID: YMgKY80XzfNinDhIf1u6k2SbPTM-] disk not present in database.
[AccurateRip ID: 0031b1b4-0274e209-f2127d11] disk not present in database.

Track Peak [ CRC32 ] [W/O NULL] [ LOG ]
– 98,8 [3795F212] [AC96A8D0] CRC32
01 98,8 [D115F6C6] [5D9C97EC]
02 98,8 [9C358444] [11E6B8AC]
03 98,8 [C456934C] [1ADE14D8]
04 98,8 [139CE654] [2527AD86]
05 98,6 [DFEDAF62] [0C941B55]
06 98,8 [4D954C0E] [336EDF98]
07 98,8 [A2028711] [FCB7A0A2]
08 98,8 [AF16EF74] [EDCD6D2C]
09 98,8 [C914DC11] [61D8ADEF]
10 98,8 [38F981F8] [1E3E56FA]
11 98,8 [919495AB] [E0344676]
12 98,3 [C1537510] [A2013272]
13 92,0 [FBBAEE96] [4D6CF432]
14 70,1 [038EEB3F] [1A00EF69]
15 69,9 [3B9432D8] [E62BFF5A]
16 64,8 [3A89987D] [419FBE03]
17 67,6 [079B1604] [0BB50100]

The Moody Blues - The Polydor Years 1986-1992 (2014)

Tracklist CD5:
1992 - A Night At Red Rocks With The Colorado Symphony Orchestra. Part One

01. Overture 07:16
02. Late Lament 01:24
03. Tuesday Afternoon 04:58
04. For My Lady 05:36
05. Bless The Wings (That Bring You Back) 04:02
06. Emily’s Song 04:37
07. New Horizons 06:36
08. Lean On Me (Tonight) 05:00
09. Voices In The Sky 04:15
10. Lovely To See You 04:03
11. Gemini Dream 04:29
12. I Know You’re Out There Somewhere 05:23
13. The Voice 05:37

Exact Audio Copy V1.0 beta 3 from 29. August 2011

EAC extraction logfile from 3. December 2014, 19:57

The Moody Blues / A Night At Red Rocks Part 1

Used drive : Optiarc DVD RW AD-7280S Adapter: 5 ID: 0

Read mode : Secure
Utilize accurate stream : Yes
Defeat audio cache : Yes
Make use of C2 pointers : No

Read offset correction : 48
Overread into Lead-In and Lead-Out : No
Fill up missing offset samples with silence : Yes
Delete leading and trailing silent blocks : No
Null samples used in CRC calculations : Yes
Used interface : Native Win32 interface for Win NT & 2000

Used output format : Internal WAV Routines
Sample format : 44.100 Hz; 16 Bit; Stereo


TOC of the extracted CD

Track | Start | Length | Start sector | End sector
––––––––––––––––––––––––––––-
1 | 0:00.00 | 7:16.34 | 0 | 32733
2 | 7:16.34 | 1:24.19 | 32734 | 39052
3 | 8:40.53 | 4:58.68 | 39053 | 61470
4 | 13:39.46 | 5:36.03 | 61471 | 86673
5 | 19:15.49 | 4:02.02 | 86674 | 104825
6 | 23:17.51 | 4:37.13 | 104826 | 125613
7 | 27:54.64 | 6:36.33 | 125614 | 155346
8 | 34:31.22 | 5:00.01 | 155347 | 177847
9 | 39:31.23 | 4:15.17 | 177848 | 196989
10 | 43:46.40 | 4:03.17 | 196990 | 215231
11 | 47:49.57 | 4:29.28 | 215232 | 235434
12 | 52:19.10 | 5:23.14 | 235435 | 259673
13 | 57:42.24 | 5:37.21 | 259674 | 284969


Range status and errors

Selected range

Filename C:\Users\Meijin\Desktop\ALLexxess\Moody Blues\2014 Polydor Years (6CD + 2DVD + LP Box Set Polydor Records)\1992 A Night At Red Rocks Part 1\The Moody Blues - A Night At Red Rocks Part 1.wav

Peak level 98.8 %
Extraction speed 3.6 X
Range quality 100.0 %
Test CRC B63C629B
Copy CRC B63C629B
Copy OK

No errors occurred


AccurateRip summary

Track 1 not present in database
Track 2 not present in database
Track 3 not present in database
Track 4 not present in database
Track 5 not present in database
Track 6 not present in database
Track 7 not present in database
Track 8 not present in database
Track 9 not present in database
Track 10 not present in database
Track 11 not present in database
Track 12 not present in database
Track 13 not present in database

None of the tracks are present in the AccurateRip database

End of status report

foobar2000 1.2.9 / Dynamic Range Meter 1.1.1
log date: 2014-12-07 10:52:23

––––––––––––––––––––––––––––––––––––––––
Analyzed: The Moody Blues / A Night At Red Rocks Part 1
––––––––––––––––––––––––––––––––––––––––

DR Peak RMS Duration Track
––––––––––––––––––––––––––––––––––––––––
DR12 -0.10 dB -16.28 dB 7:16 01-Overture
DR11 -0.10 dB -17.65 dB 1:24 02-Late Lament
DR12 -0.10 dB -15.20 dB 4:59 03-Tuesday Afternoon
DR13 -0.10 dB -16.73 dB 5:36 04-For My Lady
DR13 -0.10 dB -15.56 dB 4:02 05-Bless The Wings (That Bring You Back)
DR14 -1.31 dB -18.12 dB 4:37 06-Emily’s Song
DR13 -1.61 dB -18.45 dB 6:36 07-New Horizons
DR14 -0.10 dB -17.54 dB 5:00 08-Lean On Me (Tonight)
DR14 -0.13 dB -17.09 dB 4:15 09-Voices In The Sky
DR14 -0.10 dB -15.62 dB 4:03 10-Lovely To See You
DR14 -0.10 dB -15.57 dB 4:29 11-Gemini Dream
DR14 -0.10 dB -15.95 dB 5:23 12-I Know You’re Out There Somewhere
DR13 -0.10 dB -14.30 dB 5:37 13-The Voice
––––––––––––––––––––––––––––––––––––––––

Number of tracks: 13
Official DR value: DR13

Samplerate: 44100 Hz
Channels: 2
Bits per sample: 16
Bitrate: 853 kbps
Codec: FLAC

[CUETools log; Date: 07.12.2014 10:52:25; Version: 2.1.4]
[CTDB TOCID: fejpEKZ7_hzRYvyIzaqarIfTkYs-] disk not present in database.
[AccurateRip ID: 001e263c-012d3b76-b60ed70d] disk not present in database.

Track Peak [ CRC32 ] [W/O NULL] [ LOG ]
– 98,8 [B63C629B] [0BF390FD] CRC32
01 98,8 [A811092D] [A69DCD28]
02 98,8 [8F8826A5] [21F74A92]
03 98,8 [0C29897D] [9D578C25]
04 98,8 [B80A5FD7] [5FFEB958]
05 98,8 [325E5ED8] [B600E69D]
06 85,9 [3EE80E15] [124C06E6]
07 83,0 [AD7375A9] [60EF6FA3]
08 98,8 [937F5977] [36CBF44F]
09 98,5 [9F01D58A] [32C7FACE]
10 98,8 [C884544D] [3680F6F3]
11 98,8 [EE1DCDFB] [660577A8]
12 98,8 [214D243B] [C00ED2F6]
13 98,8 [B2D3B3EF] [E6F2106D]

The Moody Blues - The Polydor Years 1986-1992 (2014)

Tracklist CD6:
1992 - A Night At Red Rocks With The Colorado Symphony Orchestra. Part Two

01. Say It With Love 04:57
02. The Story In Your Eyes 03:57
03. Your Wildest Dreams 05:17
04. Isn’t Life Strange 06:49
05. The Other Side Of Life 07:32
06. I’m Just A Singer (In A Rock And Roll Band) 08:01
07. Nights In White Satin 06:37
08. Legend Of A Mind 09:23
09. Question 06:58
10. Ride My See Saw 05:28

Exact Audio Copy V1.0 beta 3 from 29. August 2011

EAC extraction logfile from 3. December 2014, 19:03

The Moody Blues / A Night At Red Rocks Part 2

Used drive : Optiarc DVD RW AD-7280S Adapter: 5 ID: 0

Read mode : Secure
Utilize accurate stream : Yes
Defeat audio cache : Yes
Make use of C2 pointers : No

Read offset correction : 48
Overread into Lead-In and Lead-Out : No
Fill up missing offset samples with silence : Yes
Delete leading and trailing silent blocks : No
Null samples used in CRC calculations : Yes
Used interface : Native Win32 interface for Win NT & 2000

Used output format : Internal WAV Routines
Sample format : 44.100 Hz; 16 Bit; Stereo


TOC of the extracted CD

Track | Start | Length | Start sector | End sector
––––––––––––––––––––––––––––-
1 | 0:00.00 | 4:57.46 | 0 | 22320
2 | 4:57.46 | 3:57.24 | 22321 | 40119
3 | 8:54.70 | 5:17.54 | 40120 | 63948
4 | 14:12.49 | 6:49.49 | 63949 | 94672
5 | 21:02.23 | 7:32.11 | 94673 | 128583
6 | 28:34.34 | 8:01.47 | 128584 | 164705
7 | 36:36.06 | 6:37.06 | 164706 | 194486
8 | 43:13.12 | 9:23.08 | 194487 | 236719
9 | 52:36.20 | 6:58.63 | 236720 | 268132
10 | 59:35.08 | 5:28.38 | 268133 | 292770


Range status and errors

Selected range

Filename C:\Users\Meijin\Desktop\ALLexxess\Moody Blues\2014 Polydor Years (6CD + 2DVD + LP Box Set Polydor Records)\1992 A Night At Red Rocks Part 2\The Moody Blues - A Night At Red Rocks Part 2.wav

Peak level 98.8 %
Extraction speed 3.8 X
Range quality 99.9 %
Test CRC 8D23875C
Copy CRC 8D23875C
Copy OK

No errors occurred


AccurateRip summary

Track 1 not present in database
Track 2 not present in database
Track 3 not present in database
Track 4 not present in database
Track 5 not present in database
Track 6 not present in database
Track 7 not present in database
Track 8 not present in database
Track 9 not present in database
Track 10 not present in database

None of the tracks are present in the AccurateRip database

End of status report

foobar2000 1.2.9 / Dynamic Range Meter 1.1.1
log date: 2014-12-07 10:52:48

––––––––––––––––––––––––––––––––––––––––
Analyzed: The Moody Blues / A Night At Red Rocks Part 2
––––––––––––––––––––––––––––––––––––––––

DR Peak RMS Duration Track
––––––––––––––––––––––––––––––––––––––––
DR14 -0.10 dB -15.08 dB 4:58 01-Say It With Love
DR12 -0.10 dB -14.05 dB 3:57 02-The Story In Your Eyes
DR13 -0.10 dB -15.29 dB 5:18 03-Your Wildest Dreams
DR13 -0.10 dB -17.22 dB 6:50 04-Isn’t Life Strange
DR15 -0.10 dB -16.24 dB 7:32 05-The Other Side Of Life
DR12 -0.10 dB -14.47 dB 8:02 06-I’m Just A Singer (In A Rock And Roll Band)
DR13 -0.10 dB -17.02 dB 6:37 07-Nights In White Satin
DR13 -0.10 dB -16.87 dB 9:23 08-Legend Of A Mind
DR14 -0.10 dB -16.96 dB 6:59 09-Question
DR14 -0.10 dB -16.35 dB 5:29 10-Ride My See Saw
––––––––––––––––––––––––––––––––––––––––

Number of tracks: 10
Official DR value: DR13

Samplerate: 44100 Hz
Channels: 2
Bits per sample: 16
Bitrate: 845 kbps
Codec: FLAC

[CUETools log; Date: 07.12.2014 10:52:51; Version: 2.1.4]
[CTDB TOCID: d4QjUyEFfNQ3reRrOO7IHqDQMrM-] disk not present in database.
[AccurateRip ID: 0016fca0-00bd500d-a10f3f0a] disk not present in database.

Track Peak [ CRC32 ] [W/O NULL] [ LOG ]
– 98,8 [8D23875C] [259F9621] CRC32
01 98,8 [F2210E82] [A09E778E]
02 98,8 [D17D96A2] [D8A7625D]
03 98,8 [EAF5E017] [E0789B08]
04 98,8 [BDD9A3D8] [C8FC13C6]
05 98,8 [BAFD55ED] [25CAC731]
06 98,8 [71F2A4E1] [C700E4A8]
07 98,8 [431AD457] [39012C0F]
08 98,8 [4E027505] [35A62C56]
09 98,8 [944C0F34] [5991EE8D]
10 98,8 [45A34FAF] [BC3FB895]

The Moody Blues - The Polydor Years 1986-1992 (2014)

All thanks go to ALLexxess