Tags
Language
Tags
June 2024
Su Mo Tu We Th Fr Sa
26 27 28 29 30 31 1
2 3 4 5 6 7 8
9 10 11 12 13 14 15
16 17 18 19 20 21 22
23 24 25 26 27 28 29
30 1 2 3 4 5 6

The Moody Blues - The Singles+ (2000)

Posted By: Rtax
The Moody Blues - The Singles+ (2000)

The Moody Blues - The Singles+ (2000)
EAC Rip | FLAC (tracks, cue, log) - 956 MB | MP3 CBR 320 kbps - 394 MB
2:35:04 | Full Scans Included | Folk Rock, Psychedelic Rock, Classic Rock | Label: BR Music

This Dutch compilation approaches the Moody Blues' career from an unusual angle. Although scoring three Top Ten hits in its native U.K. and another three in the U.S., the group is known primarily as an album act, having reached the Top Ten of the LP charts six times in Britain and eight times in America. During their initial period, 1964-1966, when Denny Laine was the lead singer, they were a singles band (as all rock & roll performers were then), but they had only one hit single, "Go Now!" Their real success came with the release of the album Days of Future Passed in 1967. By compiling all (well, almost all) of their A-side singles, the makers of this two-CD set have created not only a greatest hits collection, but also a rarities album. That is because, of the Moody Blues' first ten U.K. singles, only "Go Now!" and both sides of their sixth single, "Stop!"/"Bye Bye Bird," were included on their 1965 debut album. A 1993 CD reissue of that album added the singles "Steal Your Heart Away" and "I Don't Want to Go on Without You," included here, but that still leaves six tracks included on the present collection – "Everyday," "Boulevard de la Madeleine," "This Is My House (But Nobody Calls)," "Life's Not Life," "Fly Me High," and "Love and Beauty" – that have not been much heard since their release as British singles in 1965-1967.

The last two titles date from after the reconfiguration of the band in 1966 with the departure of Laine and Clint Warwick and the recruitment of Justin Hayward and John Lodge, and represent the first recordings of the band's most successful lineup. All of this is to say that The Singles+ should be sought out by Moody Blues fans who don't know this early material. The changeover in style after the first ten tracks on the first CD, from a blues-based group to more of a folk-pop one, is so extreme that this is one band that probably should have changed its name when its personnel changed, and it's no surprise that the later group has suppressed its early music ever since. From the appearance of the 13th track on the first CD, the second lineup's biggest hit "Nights in White Satin," The Singles+ plays as a standard compilation of the Moody Blues' most familiar tracks. The compilers add a couple of album-only songs from On the Threshold of a Dream and include hits by the duo of Hayward & Lodge and by Hayward solo during the band's mid-'70s hiatus. Songs that became American but not British hits, such as "Tuesday Afternoon (Forever Afternoon)" and a series of U.S.-only 1980s singles like "Gemini Dream" and "Your Wildest Dreams," have also been included. Discographies list a non-charting 1984 single release of "Under My Feet" from The Present that seems to have escaped the compilers' attention, but otherwise this is a thorough collection of Moody Blues singles that outdistances comparable domestic compilations.

Tracklist
CD1
1. Steal Your Heart Away (2:13)
2. Go Now! (3:10)
3. I Don't Want To Go On Without You (2:43)
4. From The Bottom Of My Heart (I Love You) (3:25)
5. Everyday (1:47)
6. Stop! (2:04)
7. Bye Bye Bird (2:48)
8. Boulevard de la Madeleine (2:54)
9. This Is My House (But Nobody Calls) (2:35)
10. Life's Not Life (2:34)
11. Fly Me High (2:53)
12. Love And Beauty (2:24)
13. Nights In White Satin (4:26)
14. Cities (2:21)
15. Tuesday Afternoon (Forever Afternoon) (4:47)
16. Voices In The Sky (3:32)
17. Ride My See-Saw (3:42)
18. Lovely To See You (2:35)
19. Dear Diary (3:56)
20. Never Comes The Day (4:40)
21. Eyes Of A Child (2:36)
22. Watching And Waiting (4:12)
24. Question (4:54)
23. Candle Of Life (3:15)

CD2
1. Melancholy Man (5:05)
2. The Story In Your Eyes (2:52)
3. Isn't Life Strange (6:04)
4. I'm Just A Singer (In A Rock And Roll Band) (4:15)
5. For My Lady (3:58)
6. Remember Me, My Friend (3:40)
7. Blue Guitar (3:38)
8. Forever Autumn (4:15)
9. Had To Fall In Love (3:39)
10. Steppin In A Slide Zone (3:25)
11. Driftwood (3:57)
12. Gemini Dream (3:46)
13. The Voice (5:10)
14. Talking Out Of Turn (4:12)
15. Sitting At The Wheel (3:29)
16. Blue World (3:38)
17. Your Wildest Dreams (3:51)
18. The Other Side Of Life (5:03)
19. I Know You're Out There Somewhere (4:18)
Exact Audio Copy V1.0 beta 4 from 7. December 2014

EAC extraction logfile from 4. February 2015, 0:43

Moody Blues, The / The Singles+

Used drive : HL-DT-STDVDRAM GT20N Adapter: 1 ID: 0

Read mode : Secure
Utilize accurate stream : Yes
Defeat audio cache : Yes
Make use of C2 pointers : No

Read offset correction : 667
Overread into Lead-In and Lead-Out : No
Fill up missing offset samples with silence : Yes
Delete leading and trailing silent blocks : No
Null samples used in CRC calculations : Yes
Used interface : Native Win32 interface for Win NT & 2000
Gap handling : Appended to previous track

Used output format : User Defined Encoder
Selected bitrate : 1024 kBit/s
Quality : High
Add ID3 tag : No
Command line compressor : C:\Program Files\Exact Audio Copy\Flac\flac.exe
Additional command line options : -8 -V -T "ARTIST=%artist%" -T "TITLE=%title%" -T "ALBUM=%albumtitle%" -T "DATE=%year%" -T "TRACKNUMBER=%tracknr%" -T "GENRE=%genre%" -T "PERFORMER=%albuminterpret%" -T "COMPOSER=%composer%" %haslyrics%–tag-from-file=LYRICS="%lyricsfile%"%haslyrics% -T "ALBUMARTIST=%albumartist%" -T "DISCNUMBER=%cdnumber%" -T "TOTALDISCS=%totalcds%" -T "TOTALTRACKS=%numtracks%" -T "COMMENT=%comment%" %source% -o %dest%


TOC of the extracted CD

Track | Start | Length | Start sector | End sector
––––––––––––––––––––––––––––-
1 | 0:00.00 | 2:13.45 | 0 | 10019
2 | 2:13.45 | 3:10.30 | 10020 | 24299
3 | 5:24.00 | 2:42.52 | 24300 | 36501
4 | 8:06.52 | 3:25.28 | 36502 | 51904
5 | 11:32.05 | 1:47.02 | 51905 | 59931
6 | 13:19.07 | 2:04.48 | 59932 | 69279
7 | 15:23.55 | 2:48.22 | 69280 | 81901
8 | 18:12.02 | 2:54.30 | 81902 | 94981
9 | 21:06.32 | 2:35.70 | 94982 | 106676
10 | 23:42.27 | 2:34.18 | 106677 | 118244
11 | 26:16.45 | 2:53.67 | 118245 | 131286
12 | 29:10.37 | 2:24.13 | 131287 | 142099
13 | 31:34.50 | 4:26.17 | 142100 | 162066
14 | 36:00.67 | 2:21.60 | 162067 | 172701
15 | 38:22.52 | 4:47.68 | 172702 | 194294
16 | 43:10.45 | 3:32.32 | 194295 | 210226
17 | 46:43.02 | 3:42.43 | 210227 | 226919
18 | 50:25.45 | 2:35.12 | 226920 | 238556
19 | 53:00.57 | 3:56.43 | 238557 | 256299
20 | 56:57.25 | 4:40.15 | 256300 | 277314
21 | 61:37.40 | 2:36.52 | 277315 | 289066
22 | 64:14.17 | 4:12.73 | 289067 | 308039
23 | 68:27.15 | 4:54.65 | 308040 | 330154
24 | 73:22.05 | 3:15.55 | 330155 | 344834


Track 1

Filename C:\Users\MY\Music\The Moody Blues\The Moody Blues-The Singles+\01 Steel Your Heart Away.wav

Pre-gap length 0:00:02.00

Peak level 81.2 %
Extraction speed 1.0 X
Track quality 100.0 %
Test CRC 65365350
Copy CRC 65365350
Accurately ripped (confidence 10) [BCD1B07D] (AR v2)
Copy OK

Track 2

Filename C:\Users\MY\Music\The Moody Blues\The Moody Blues-The Singles+\02 Go Now!.wav

Peak level 88.4 %
Extraction speed 1.2 X
Track quality 100.0 %
Test CRC A29D0247
Copy CRC A29D0247
Accurately ripped (confidence 10) [172B2D2E] (AR v2)
Copy OK

Track 3

Filename C:\Users\MY\Music\The Moody Blues\The Moody Blues-The Singles+\03 I Don't Want To Go On Without You.wav

Peak level 93.0 %
Extraction speed 1.1 X
Track quality 99.9 %
Test CRC F0095F75
Copy CRC F0095F75
Accurately ripped (confidence 9) [9393362F] (AR v2)
Copy OK

Track 4

Filename C:\Users\MY\Music\The Moody Blues\The Moody Blues-The Singles+\04 From The Bottom Of My Heart (I Love You).wav

Peak level 93.3 %
Extraction speed 1.4 X
Track quality 100.0 %
Test CRC F0B80F4C
Copy CRC F0B80F4C
Accurately ripped (confidence 9) [BF315EC5] (AR v2)
Copy OK

Track 5

Filename C:\Users\MY\Music\The Moody Blues\The Moody Blues-The Singles+\05 Everyday.wav

Peak level 91.2 %
Extraction speed 1.3 X
Track quality 100.0 %
Test CRC FAC1AE7D
Copy CRC FAC1AE7D
Accurately ripped (confidence 9) [696CF860] (AR v2)
Copy OK

Track 6

Filename C:\Users\MY\Music\The Moody Blues\The Moody Blues-The Singles+\06 Stop!.wav

Peak level 88.1 %
Extraction speed 1.4 X
Track quality 100.0 %
Test CRC B7C99398
Copy CRC B7C99398
Accurately ripped (confidence 9) [C8E35FAA] (AR v2)
Copy OK

Track 7

Filename C:\Users\MY\Music\The Moody Blues\The Moody Blues-The Singles+\07 Bye Bye Bird.wav

Peak level 85.0 %
Extraction speed 1.3 X
Track quality 99.9 %
Test CRC 23A977B0
Copy CRC 23A977B0
Accurately ripped (confidence 9) [A1B34BFE] (AR v2)
Copy OK

Track 8

Filename C:\Users\MY\Music\The Moody Blues\The Moody Blues-The Singles+\08 Boulevard De La Madeleine.wav

Peak level 94.4 %
Extraction speed 1.6 X
Track quality 100.0 %
Test CRC 69343435
Copy CRC 69343435
Accurately ripped (confidence 9) [4627D391] (AR v2)
Copy OK

Track 9

Filename C:\Users\MY\Music\The Moody Blues\The Moody Blues-The Singles+\09 This Is My House (But Nobody Calls).wav

Peak level 90.7 %
Extraction speed 1.6 X
Track quality 100.0 %
Test CRC 3C901E13
Copy CRC 3C901E13
Accurately ripped (confidence 9) [9B2A3EF4] (AR v2)
Copy OK

Track 10

Filename C:\Users\MY\Music\The Moody Blues\The Moody Blues-The Singles+\10 Life's Not Life.wav

Peak level 94.4 %
Extraction speed 1.6 X
Track quality 100.0 %
Test CRC E8DBD141
Copy CRC E8DBD141
Accurately ripped (confidence 9) [D4268768] (AR v2)
Copy OK

Track 11

Filename C:\Users\MY\Music\The Moody Blues\The Moody Blues-The Singles+\11 Fly Me High.wav

Peak level 94.4 %
Extraction speed 1.7 X
Track quality 100.0 %
Test CRC 19CAEF51
Copy CRC 19CAEF51
Accurately ripped (confidence 9) [16C6FB48] (AR v2)
Copy OK

Track 12

Filename C:\Users\MY\Music\The Moody Blues\The Moody Blues-The Singles+\12 Love And Beauty.wav

Peak level 94.4 %
Extraction speed 1.8 X
Track quality 100.0 %
Test CRC 1DD93581
Copy CRC 1DD93581
Accurately ripped (confidence 9) [BF02C634] (AR v2)
Copy OK

Track 13

Filename C:\Users\MY\Music\The Moody Blues\The Moody Blues-The Singles+\13 Nights In White Satin.wav

Peak level 83.8 %
Extraction speed 1.8 X
Track quality 99.9 %
Test CRC 81447C8D
Copy CRC 81447C8D
Accurately ripped (confidence 9) [FE8B32A0] (AR v2)
Copy OK

Track 14

Filename C:\Users\MY\Music\The Moody Blues\The Moody Blues-The Singles+\14 Cities.wav

Peak level 94.3 %
Extraction speed 1.9 X
Track quality 100.0 %
Test CRC 5E8377DA
Copy CRC 5E8377DA
Accurately ripped (confidence 9) [DCB75168] (AR v2)
Copy OK

Track 15

Filename C:\Users\MY\Music\The Moody Blues\The Moody Blues-The Singles+\15 Tuesday Afternoon.wav

Peak level 94.4 %
Extraction speed 2.2 X
Track quality 100.0 %
Test CRC 9854A90E
Copy CRC 9854A90E
Accurately ripped (confidence 9) [73F653F3] (AR v2)
Copy OK

Track 16

Filename C:\Users\MY\Music\The Moody Blues\The Moody Blues-The Singles+\16 Voices In The Sky.wav

Peak level 94.4 %
Extraction speed 2.1 X
Track quality 100.0 %
Test CRC 68036250
Copy CRC 68036250
Accurately ripped (confidence 9) [C6CF6CA9] (AR v2)
Copy OK

Track 17

Filename C:\Users\MY\Music\The Moody Blues\The Moody Blues-The Singles+\17 Ride My See-Saw.wav

Peak level 92.2 %
Extraction speed 2.3 X
Track quality 100.0 %
Test CRC 2EAFDFC5
Copy CRC 2EAFDFC5
Accurately ripped (confidence 9) [10E70E69] (AR v2)
Copy OK

Track 18

Filename C:\Users\MY\Music\The Moody Blues\The Moody Blues-The Singles+\18 Lovely To See You.wav

Peak level 94.4 %
Extraction speed 2.2 X
Track quality 100.0 %
Test CRC 67E35DAD
Copy CRC 67E35DAD
Accurately ripped (confidence 9) [458CFF71] (AR v2)
Copy OK

Track 19

Filename C:\Users\MY\Music\The Moody Blues\The Moody Blues-The Singles+\19 Dear Diary.wav

Peak level 85.5 %
Extraction speed 2.3 X
Track quality 100.0 %
Test CRC 219ED1FF
Copy CRC 219ED1FF
Accurately ripped (confidence 9) [67C7705D] (AR v2)
Copy OK

Track 20

Filename C:\Users\MY\Music\The Moody Blues\The Moody Blues-The Singles+\20 Never Comes The Day.wav

Peak level 89.1 %
Extraction speed 2.2 X
Track quality 99.9 %
Test CRC 65B8C112
Copy CRC 65B8C112
Accurately ripped (confidence 9) [32ED26BB] (AR v2)
Copy OK

Track 21

Filename C:\Users\MY\Music\The Moody Blues\The Moody Blues-The Singles+\21 Eyes Of A Child.wav

Peak level 79.2 %
Extraction speed 1.9 X
Track quality 99.9 %
Test CRC 8AB96F97
Copy CRC 8AB96F97
Accurately ripped (confidence 9) [DA6A8A4B] (AR v2)
Copy OK

Track 22

Filename C:\Users\MY\Music\The Moody Blues\The Moody Blues-The Singles+\22 Watching And Waiting.wav

Peak level 90.1 %
Extraction speed 2.2 X
Track quality 99.9 %
Test CRC 25D4C5B4
Copy CRC 25D4C5B4
Accurately ripped (confidence 9) [CE978630] (AR v2)
Copy OK

Track 23

Filename C:\Users\MY\Music\The Moody Blues\The Moody Blues-The Singles+\23 Question.wav

Peak level 94.4 %
Extraction speed 2.7 X
Track quality 100.0 %
Test CRC 09CF81AE
Copy CRC 09CF81AE
Accurately ripped (confidence 9) [40681B95] (AR v2)
Copy OK

Track 24

Filename C:\Users\MY\Music\The Moody Blues\The Moody Blues-The Singles+\24 Candle Of Life.wav

Peak level 92.8 %
Extraction speed 2.6 X
Track quality 100.0 %
Test CRC D0B9A8E5
Copy CRC D0B9A8E5
Accurately ripped (confidence 7) [20B57B2E] (AR v2)
Copy OK


All tracks accurately ripped

No errors occurred

End of status report

–– CUETools DB Plugin V2.1.4

[CTDB TOCID: b0kZrnF3OwizRAAtG4iQ_ErYl8g-] found
Submit result: b0kZrnF3OwizRAAtG4iQ_ErYl8g- has been confirmed
Track | CTDB Status
1 | (3/3) Accurately ripped
2 | (3/3) Accurately ripped
3 | (3/3) Accurately ripped
4 | (3/3) Accurately ripped
5 | (3/3) Accurately ripped
6 | (3/3) Accurately ripped
7 | (3/3) Accurately ripped
8 | (3/3) Accurately ripped
9 | (3/3) Accurately ripped
10 | (3/3) Accurately ripped
11 | (3/3) Accurately ripped
12 | (3/3) Accurately ripped
13 | (3/3) Accurately ripped
14 | (3/3) Accurately ripped
15 | (3/3) Accurately ripped
16 | (3/3) Accurately ripped
17 | (3/3) Accurately ripped
18 | (3/3) Accurately ripped
19 | (3/3) Accurately ripped
20 | (3/3) Accurately ripped
21 | (3/3) Accurately ripped
22 | (3/3) Accurately ripped
23 | (2/3) Accurately ripped
24 | (1/3) Accurately ripped


==== Log checksum 3C3B98793557D21AD456A706785FDE69C32502A7F7EEC98051A368C222F51469 ====


Exact Audio Copy V1.0 beta 4 from 7. December 2014

EAC extraction logfile from 4. February 2015, 7:30

Moody Blues, The / The Singles+

Used drive : HL-DT-STDVDRAM GT20N Adapter: 1 ID: 0

Read mode : Secure
Utilize accurate stream : Yes
Defeat audio cache : Yes
Make use of C2 pointers : No

Read offset correction : 667
Overread into Lead-In and Lead-Out : No
Fill up missing offset samples with silence : Yes
Delete leading and trailing silent blocks : No
Null samples used in CRC calculations : Yes
Used interface : Native Win32 interface for Win NT & 2000
Gap handling : Appended to previous track

Used output format : User Defined Encoder
Selected bitrate : 1024 kBit/s
Quality : High
Add ID3 tag : No
Command line compressor : C:\Program Files\Exact Audio Copy\Flac\flac.exe
Additional command line options : -8 -V -T "ARTIST=%artist%" -T "TITLE=%title%" -T "ALBUM=%albumtitle%" -T "DATE=%year%" -T "TRACKNUMBER=%tracknr%" -T "GENRE=%genre%" -T "PERFORMER=%albuminterpret%" -T "COMPOSER=%composer%" %haslyrics%–tag-from-file=LYRICS="%lyricsfile%"%haslyrics% -T "ALBUMARTIST=%albumartist%" -T "DISCNUMBER=%cdnumber%" -T "TOTALDISCS=%totalcds%" -T "TOTALTRACKS=%numtracks%" -T "COMMENT=%comment%" %source% -o %dest%


TOC of the extracted CD

Track | Start | Length | Start sector | End sector
––––––––––––––––––––––––––––-
1 | 0:00.00 | 5:05.69 | 0 | 22943
2 | 5:05.69 | 2:52.71 | 22944 | 35914
3 | 7:58.65 | 6:04.35 | 35915 | 63249
4 | 14:03.25 | 4:15.35 | 63250 | 82409
5 | 18:18.60 | 3:58.57 | 82410 | 100316
6 | 22:17.42 | 3:40.65 | 100317 | 116881
7 | 25:58.32 | 3:38.20 | 116882 | 133251
8 | 29:36.52 | 4:15.20 | 133252 | 152396
9 | 33:51.72 | 3:39.23 | 152397 | 168844
10 | 37:31.20 | 3:25.30 | 168845 | 184249
11 | 40:56.50 | 3:57.57 | 184250 | 202081
12 | 44:54.32 | 3:46.53 | 202082 | 219084
13 | 48:41.10 | 5:10.45 | 219085 | 242379
14 | 53:51.55 | 4:12.22 | 242380 | 261301
15 | 58:04.02 | 3:29.38 | 261302 | 277014
16 | 61:33.40 | 3:38.47 | 277015 | 293411
17 | 65:12.12 | 3:51.57 | 293412 | 310793
18 | 69:03.69 | 5:03.43 | 310794 | 333561
19 | 74:07.37 | 4:18.60 | 333562 | 352971


Track 1

Filename C:\Users\MY\Music\The Moody Blues\The Moody Blues-The Singles+ Disc 2\01 Melancholy Man.wav

Pre-gap length 0:00:02.00

Peak level 90.6 %
Extraction speed 3.0 X
Track quality 100.0 %
Test CRC B74E1FC1
Copy CRC B74E1FC1
Accurately ripped (confidence 7) [980D6724] (AR v2)
Copy OK

Track 2

Filename C:\Users\MY\Music\The Moody Blues\The Moody Blues-The Singles+ Disc 2\02 The Story In Your Eyes.wav

Peak level 92.6 %
Extraction speed 2.2 X
Track quality 99.9 %
Test CRC 62DAFB07
Copy CRC 62DAFB07
Accurately ripped (confidence 7) [047557CC] (AR v2)
Copy OK

Track 3

Filename C:\Users\MY\Music\The Moody Blues\The Moody Blues-The Singles+ Disc 2\03 Isn't Life Strange.wav

Peak level 87.7 %
Extraction speed 2.4 X
Track quality 100.0 %
Test CRC 873104C2
Copy CRC 873104C2
Accurately ripped (confidence 8) [E50494DE] (AR v2)
Copy OK

Track 4

Filename C:\Users\MY\Music\The Moody Blues\The Moody Blues-The Singles+ Disc 2\04 I'm Just A Singer (In A Rock 'N Roll Band).wav

Peak level 84.1 %
Extraction speed 2.5 X
Track quality 100.0 %
Test CRC 4145F36D
Copy CRC 4145F36D
Accurately ripped (confidence 7) [4EC84E38] (AR v2)
Copy OK

Track 5

Filename C:\Users\MY\Music\The Moody Blues\The Moody Blues-The Singles+ Disc 2\05 For My Lady.wav

Peak level 81.5 %
Extraction speed 2.6 X
Track quality 100.0 %
Test CRC 61C28D4F
Copy CRC 61C28D4F
Accurately ripped (confidence 7) [895F8571] (AR v2)
Copy OK

Track 6

Filename C:\Users\MY\Music\The Moody Blues\The Moody Blues-The Singles+ Disc 2\06 Remember Me (My Friend).wav

Peak level 90.6 %
Extraction speed 2.7 X
Track quality 100.0 %
Test CRC 2AF962C1
Copy CRC 2AF962C1
Accurately ripped (confidence 7) [99365B78] (AR v2)
Copy OK

Track 7

Filename C:\Users\MY\Music\The Moody Blues\The Moody Blues-The Singles+ Disc 2\07 Blue Guitar.wav

Peak level 94.4 %
Extraction speed 2.8 X
Track quality 100.0 %
Test CRC E233A1D5
Copy CRC E233A1D5
Accurately ripped (confidence 8) [10ED7DC8] (AR v2)
Copy OK

Track 8

Filename C:\Users\MY\Music\The Moody Blues\The Moody Blues-The Singles+ Disc 2\08 Forever Autumn.wav

Peak level 86.3 %
Extraction speed 2.6 X
Track quality 99.9 %
Test CRC 6D6AD6CB
Copy CRC 6D6AD6CB
Accurately ripped (confidence 8) [423DF1B6] (AR v2)
Copy OK

Track 9

Filename C:\Users\MY\Music\The Moody Blues\The Moody Blues-The Singles+ Disc 2\09 Had To Fall In Love.wav

Peak level 89.4 %
Extraction speed 1.9 X
Track quality 100.0 %
Test CRC A3A318A4
Copy CRC A3A318A4
Accurately ripped (confidence 8) [45EF0FE4] (AR v2)
Copy OK

Track 10

Filename C:\Users\MY\Music\The Moody Blues\The Moody Blues-The Singles+ Disc 2\10 Steppin' In A Slide Zone.wav

Peak level 87.1 %
Extraction speed 2.0 X
Track quality 100.0 %
Test CRC 45AD2FB6
Copy CRC 45AD2FB6
Accurately ripped (confidence 7) [C74AF9F6] (AR v2)
Copy OK

Track 11

Filename C:\Users\MY\Music\The Moody Blues\The Moody Blues-The Singles+ Disc 2\11 Driftwood.wav

Peak level 91.2 %
Extraction speed 2.1 X
Track quality 100.0 %
Test CRC 750BDFD7
Copy CRC 750BDFD7
Accurately ripped (confidence 7) [B90EC9B5] (AR v2)
Copy OK

Track 12

Filename C:\Users\MY\Music\The Moody Blues\The Moody Blues-The Singles+ Disc 2\12 Gemini Dream.wav

Peak level 84.1 %
Extraction speed 1.9 X
Track quality 99.9 %
Test CRC 27F20339
Copy CRC 27F20339
Accurately ripped (confidence 7) [8C7D4958] (AR v2)
Copy OK

Track 13

Filename C:\Users\MY\Music\The Moody Blues\The Moody Blues-The Singles+ Disc 2\13 The Voice.wav

Peak level 84.1 %
Extraction speed 2.3 X
Track quality 100.0 %
Test CRC BCC53D1C
Copy CRC BCC53D1C
Accurately ripped (confidence 7) [E2088F2D] (AR v2)
Copy OK

Track 14

Filename C:\Users\MY\Music\The Moody Blues\The Moody Blues-The Singles+ Disc 2\14 Talking Out Of Turn.wav

Peak level 83.4 %
Extraction speed 2.0 X
Track quality 99.9 %
Test CRC 041365AD
Copy CRC 041365AD
Accurately ripped (confidence 7) [D7BC5D7A] (AR v2)
Copy OK

Track 15

Filename C:\Users\MY\Music\The Moody Blues\The Moody Blues-The Singles+ Disc 2\15 Sitting At The Wheel.wav

Peak level 92.5 %
Extraction speed 2.0 X
Track quality 99.9 %
Test CRC 93C94A70
Copy CRC 93C94A70
Accurately ripped (confidence 7) [29CBE678] (AR v2)
Copy OK

Track 16

Filename C:\Users\MY\Music\The Moody Blues\The Moody Blues-The Singles+ Disc 2\16 Blue World.wav

Peak level 94.3 %
Extraction speed 2.4 X
Track quality 100.0 %
Test CRC CD0748F9
Copy CRC CD0748F9
Accurately ripped (confidence 7) [7FE8B1D6] (AR v2)
Copy OK

Track 17

Filename C:\Users\MY\Music\The Moody Blues\The Moody Blues-The Singles+ Disc 2\17 Your Wildest Dreams.wav

Peak level 84.0 %
Extraction speed 2.1 X
Track quality 99.9 %
Test CRC 3D7CB466
Copy CRC 3D7CB466
Accurately ripped (confidence 7) [43862441] (AR v2)
Copy OK

Track 18

Filename C:\Users\MY\Music\The Moody Blues\The Moody Blues-The Singles+ Disc 2\18 The Other Side Of Life.wav

Peak level 84.0 %
Extraction speed 2.6 X
Track quality 100.0 %
Test CRC B1B2DF10
Copy CRC B1B2DF10
Accurately ripped (confidence 7) [8E9CC73F] (AR v2)
Copy OK

Track 19

Filename C:\Users\MY\Music\The Moody Blues\The Moody Blues-The Singles+ Disc 2\19 I Know You're Out There Somewhere.wav

Pre-gap length 0:00:02.00

Peak level 84.0 %
Extraction speed 2.6 X
Track quality 100.0 %
Test CRC 76CDFDCB
Copy CRC 76CDFDCB
Accurately ripped (confidence 7) [A4800A69] (AR v2)
Copy OK


All tracks accurately ripped

No errors occurred

End of status report

–– CUETools DB Plugin V2.1.4

[CTDB TOCID: AjxHdRdBcYhXQ7MkDrHD0TPraBQ-] found
Submit result: AjxHdRdBcYhXQ7MkDrHD0TPraBQ- has been confirmed
Track | CTDB Status
1 | (6/6) Accurately ripped
2 | (6/6) Accurately ripped
3 | (6/6) Accurately ripped
4 | (5/6) Accurately ripped, or (1/6) differs in 18 samples @03:59:25
5 | (6/6) Accurately ripped
6 | (6/6) Accurately ripped
7 | (6/6) Accurately ripped
8 | (6/6) Accurately ripped
9 | (6/6) Accurately ripped
10 | (6/6) Accurately ripped
11 | (6/6) Accurately ripped
12 | (6/6) Accurately ripped
13 | (6/6) Accurately ripped
14 | (6/6) Accurately ripped
15 | (6/6) Accurately ripped
16 | (6/6) Accurately ripped
17 | (5/6) Accurately ripped, or (1/6) differs in 12 samples @00:48:31
18 | (6/6) Accurately ripped
19 | (4/6) Accurately ripped, or (1/6) differs in 12 samples @00:43:09


==== Log checksum F4AA95964C305B3C11D9123D59CFB5485EA629D8ADFEF1D65B46453D8E99B163 ====