Subcategories

The Newton Brothers - The Haunting of Hill House (2018)

Posted By: aasana
The Newton Brothers - The Haunting of Hill House (2018)

The Newton Brothers - The Haunting of Hill House (2018)
XLD Rip | FLAC (tracks+.cue) | 00:59:10 | 235,50 MB
Soundtrack | Label: Waxwork Records

The plot centers around The Crain family which consists of a mother, father and five children that temporarily move into the Hill House mansion in 1992. The intention is to renovate the sprawling home and then sell it for a profit in effort to build their very own dream house. Soon after moving into Hill House, they begin to experience increasing paranormal activity that results in a tragic loss and the family fleeing from the house. 26 years later, the Crain siblings and their estranged father reunite after a new tragedy, and they are all forced to confront how their time in Hill House affected each of them. The superb music to The Haunting Of Hill House was composed by The Newton Brothers and features compositions that are a complex blend of ambient orchestral cues and melancholy, haunting piano.

Tracklist:
15. The Newton Brothers - 12:00 A.M. (1:45)
01. The Newton Brothers - The Haunting of Hill House (Main Titles) (1:06)
02. The Newton Brothers - Come Home (5:12)
03. The Newton Brothers - Larks and Katydids (1:20)
04. The Newton Brothers - Darkness and Chaos (1:46)
05. The Newton Brothers - That Night (1:48)
06. The Newton Brothers - Take Her Down (1:27)
07. The Newton Brothers - Whatever Walked There, Walked Alone (1:05)
08. The Newton Brothers - Hill House (1:11)
09. The Newton Brothers - Go Tomorrow (2:38)
10. The Newton Brothers - Science vs. Religion (0:54)
11. The Newton Brothers - What Did You Really See (4:34)
12. The Newton Brothers - The Red Room (1:11)
13. The Newton Brothers - Missing Things (1:06)
14. The Newton Brothers - I Believe You (1:43)
16. The Newton Brothers - In the Shadow of Ghosts (1:35)
17. The Newton Brothers - I Want to Wake Up So Badly (3:17)
18. The Newton Brothers - Luke (1:28)
19. The Newton Brothers - Approaching the House (2:39)
20. The Newton Brothers - Haunted Past (1:52)
21. The Newton Brothers - You Remember (1:58)
22. The Newton Brothers - Feel Nothing (2:39)
23. The Newton Brothers - Beginning of the End Movement I (3:28)
24. The Newton Brothers - Beginning of the End Movement II (2:44)
25. The Newton Brothers - Beginning of the End Movement III (2:29)
26. The Newton Brothers - Beginning of the End Movement IV (3:27)
27. The Newton Brothers - The End (2:48)

X Lossless Decoder version 20191004 (152.0)

XLD extraction logfile from 2019-12-02 12:25:31 -0800

The Newton Brothers / The Haunting of Hill House

Used drive : HL-DT-ST DVDRAM GP65NB60 (revision PF00)
Media type : Pressed CD

Ripper mode : XLD Secure Ripper
Disable audio cache : OK for the drive with a cache less than 1375KiB
Make use of C2 pointers : NO
Read offset correction : 6
Max retry count : 100
Gap status : Analyzed, Appended (except HTOA)

TOC of the extracted CD
Track | Start | Length | Start sector | End sector
––––––––––––––––––––––––––––-
1 | 00:00:00 | 01:06:25 | 0 | 4974
2 | 01:06:25 | 05:11:47 | 4975 | 28346
3 | 06:17:72 | 01:19:59 | 28347 | 34330
4 | 07:37:56 | 01:45:51 | 34331 | 42256
5 | 09:23:32 | 01:47:74 | 42257 | 50355
6 | 11:11:31 | 01:26:72 | 50356 | 56877
7 | 12:38:28 | 01:04:48 | 56878 | 61725
8 | 13:43:01 | 01:10:59 | 61726 | 67034
9 | 14:53:60 | 02:37:74 | 67035 | 78883
10 | 17:31:59 | 00:54:17 | 78884 | 82950
11 | 18:26:01 | 04:33:73 | 82951 | 103498
12 | 22:59:74 | 01:11:36 | 103499 | 108859
13 | 24:11:35 | 01:06:15 | 108860 | 113824
14 | 25:17:50 | 01:42:70 | 113825 | 121544
15 | 27:00:45 | 01:45:01 | 121545 | 129420
16 | 28:45:46 | 01:34:47 | 129421 | 136517
17 | 30:20:18 | 03:16:59 | 136518 | 151276
18 | 33:37:02 | 01:28:17 | 151277 | 157893
19 | 35:05:19 | 02:39:28 | 157894 | 169846
20 | 37:44:47 | 01:51:68 | 169847 | 178239
21 | 39:36:40 | 01:57:39 | 178240 | 187053
22 | 41:34:04 | 02:39:32 | 187054 | 199010
23 | 44:13:36 | 03:28:29 | 199011 | 214639
24 | 47:41:65 | 02:44:16 | 214640 | 226955
25 | 50:26:06 | 02:29:26 | 226956 | 238156
26 | 52:55:32 | 03:27:09 | 238157 | 253690
27 | 56:22:41 | 02:48:22 | 253691 | 266312

AccurateRip Summary (DiscID: 0034dd28-0402b772-930dde1b)
Track 01 : OK (v2, confidence 3/3)
Track 02 : OK (v2, confidence 3/3)
Track 03 : OK (v2, confidence 3/3)
Track 04 : OK (v2, confidence 3/3)
Track 05 : OK (v2, confidence 3/3)
Track 06 : OK (v2, confidence 3/3)
Track 07 : OK (v2, confidence 3/3)
Track 08 : OK (v2, confidence 3/3)
Track 09 : OK (v2, confidence 3/3)
Track 10 : OK (v2, confidence 3/3)
Track 11 : OK (v2, confidence 3/3)
Track 12 : OK (v2, confidence 3/3)
Track 13 : OK (v2, confidence 3/3)
Track 14 : OK (v2, confidence 3/3)
Track 15 : OK (v2, confidence 3/3)
Track 16 : OK (v2, confidence 3/3)
Track 17 : OK (v2, confidence 3/3)
Track 18 : OK (v2, confidence 3/3)
Track 19 : OK (v2, confidence 3/3)
Track 20 : OK (v2, confidence 3/3)
Track 21 : OK (v2, confidence 3/3)
Track 22 : OK (v2, confidence 3/3)
Track 23 : OK (v2, confidence 3/3)
Track 24 : OK (v2, confidence 3/3)
Track 25 : OK (v2, confidence 3/3)
Track 26 : OK (v2, confidence 3/3)
Track 27 : OK (v2, confidence 3/3)
->All tracks accurately ripped.

All Tracks
Album gain : -1.49 dB
Peak : 0.943054
Statistics
Read error : 0
Jitter error (maybe fixed) : 0
Retry sector count : 0
Damaged sector count : 0

Track 01
Filename : /Volumes/Hollywood and Vine/Rips/The Newton Brothers - The Haunting of Hill House (2018) [FLAC]/01 The Haunting of Hill House (Main Titles).flac
Pre-gap length : 00:02:00

Track gain : -4.53 dB
Peak : 0.943054
CRC32 hash (test run) : 02E607AD
CRC32 hash : 02E607AD
CRC32 hash (skip zero) : 3DAF3618
AccurateRip v1 signature : 172881EC
AccurateRip v2 signature : DAC45C06
->Accurately ripped (v2, confidence 3/3)
Statistics
Read error : 0
Jitter error (maybe fixed) : 0
Retry sector count : 0
Damaged sector count : 0

Track 02
Filename : /Volumes/Hollywood and Vine/Rips/The Newton Brothers - The Haunting of Hill House (2018) [FLAC]/02 Come Home.flac

Track gain : 1.08 dB
Peak : 0.850372
CRC32 hash (test run) : 3983FBD5
CRC32 hash : 3983FBD5
CRC32 hash (skip zero) : A1E88029
AccurateRip v1 signature : 47A8A842
AccurateRip v2 signature : AC617E2D
->Accurately ripped (v2, confidence 3/3)
Statistics
Read error : 0
Jitter error (maybe fixed) : 0
Retry sector count : 0
Damaged sector count : 0

Track 03
Filename : /Volumes/Hollywood and Vine/Rips/The Newton Brothers - The Haunting of Hill House (2018) [FLAC]/03 Larks and Katydids.flac

Track gain : 3.88 dB
Peak : 0.471588
CRC32 hash (test run) : 7991F643
CRC32 hash : 7991F643
CRC32 hash (skip zero) : A5BB744E
AccurateRip v1 signature : 00737C9F
AccurateRip v2 signature : 1371F866
->Accurately ripped (v2, confidence 3/3)
Statistics
Read error : 0
Jitter error (maybe fixed) : 0
Retry sector count : 0
Damaged sector count : 0

Track 04
Filename : /Volumes/Hollywood and Vine/Rips/The Newton Brothers - The Haunting of Hill House (2018) [FLAC]/04 Darkness and Chaos.flac

Track gain : 0.68 dB
Peak : 0.943024
CRC32 hash (test run) : 2F6BB01E
CRC32 hash : 2F6BB01E
CRC32 hash (skip zero) : D9D2894D
AccurateRip v1 signature : 3329337D
AccurateRip v2 signature : E2E9116A
->Accurately ripped (v2, confidence 3/3)
Statistics
Read error : 0
Jitter error (maybe fixed) : 0
Retry sector count : 0
Damaged sector count : 0

Track 05
Filename : /Volumes/Hollywood and Vine/Rips/The Newton Brothers - The Haunting of Hill House (2018) [FLAC]/05 That Night.flac

Track gain : -7.81 dB
Peak : 0.943054
CRC32 hash (test run) : C0A6255C
CRC32 hash : C0A6255C
CRC32 hash (skip zero) : AFBFFEBA
AccurateRip v1 signature : F99FD13C
AccurateRip v2 signature : 4FCC686B
->Accurately ripped (v2, confidence 3/3)
Statistics
Read error : 0
Jitter error (maybe fixed) : 0
Retry sector count : 0
Damaged sector count : 0

Track 06
Filename : /Volumes/Hollywood and Vine/Rips/The Newton Brothers - The Haunting of Hill House (2018) [FLAC]/06 Take Her Down.flac

Track gain : 1.58 dB
Peak : 0.552338
CRC32 hash (test run) : 61F16979
CRC32 hash : 61F16979
CRC32 hash (skip zero) : 644D483E
AccurateRip v1 signature : 50D7E5B3
AccurateRip v2 signature : 061BF3DC
->Accurately ripped (v2, confidence 3/3)
Statistics
Read error : 0
Jitter error (maybe fixed) : 0
Retry sector count : 0
Damaged sector count : 0

Track 07
Filename : /Volumes/Hollywood and Vine/Rips/The Newton Brothers - The Haunting of Hill House (2018) [FLAC]/07 Whatever Walked There, Walked Alone.flac

Track gain : 1.07 dB
Peak : 0.701874
CRC32 hash (test run) : 015BC69D
CRC32 hash : 015BC69D
CRC32 hash (skip zero) : 6589BCF2
AccurateRip v1 signature : 87B0A2D2
AccurateRip v2 signature : 79D93A6E
->Accurately ripped (v2, confidence 3/3)
Statistics
Read error : 0
Jitter error (maybe fixed) : 0
Retry sector count : 0
Damaged sector count : 0

Track 08
Filename : /Volumes/Hollywood and Vine/Rips/The Newton Brothers - The Haunting of Hill House (2018) [FLAC]/08 Hill House.flac

Track gain : -1.77 dB
Peak : 0.692139
CRC32 hash (test run) : 2BAC953B
CRC32 hash : 2BAC953B
CRC32 hash (skip zero) : F1B8160A
AccurateRip v1 signature : F9D177EA
AccurateRip v2 signature : 11A6E566
->Accurately ripped (v2, confidence 3/3)
Statistics
Read error : 0
Jitter error (maybe fixed) : 0
Retry sector count : 0
Damaged sector count : 0

Track 09
Filename : /Volumes/Hollywood and Vine/Rips/The Newton Brothers - The Haunting of Hill House (2018) [FLAC]/09 Go Tomorrow.flac

Track gain : 4.69 dB
Peak : 0.809906
CRC32 hash (test run) : 79C95A2E
CRC32 hash : 79C95A2E
CRC32 hash (skip zero) : 1CA19FB9
AccurateRip v1 signature : 6E5EA34F
AccurateRip v2 signature : C3FED1DF
->Accurately ripped (v2, confidence 3/3)
Statistics
Read error : 0
Jitter error (maybe fixed) : 0
Retry sector count : 0
Damaged sector count : 0

Track 10
Filename : /Volumes/Hollywood and Vine/Rips/The Newton Brothers - The Haunting of Hill House (2018) [FLAC]/10 Science vs. Religion.flac

Track gain : 6.08 dB
Peak : 0.368896
CRC32 hash (test run) : 7B91BFE4
CRC32 hash : 7B91BFE4
CRC32 hash (skip zero) : A534FC14
AccurateRip v1 signature : 4933F9AB
AccurateRip v2 signature : 15B2B793
->Accurately ripped (v2, confidence 3/3)
Statistics
Read error : 0
Jitter error (maybe fixed) : 0
Retry sector count : 0
Damaged sector count : 0

Track 11
Filename : /Volumes/Hollywood and Vine/Rips/The Newton Brothers - The Haunting of Hill House (2018) [FLAC]/11 What Did You Really See.flac

Track gain : 0.19 dB
Peak : 0.892395
CRC32 hash (test run) : 8823FBBA
CRC32 hash : 8823FBBA
CRC32 hash (skip zero) : 33A720D2
AccurateRip v1 signature : 9A1E6719
AccurateRip v2 signature : 269CA36F
->Accurately ripped (v2, confidence 3/3)
Statistics
Read error : 0
Jitter error (maybe fixed) : 0
Retry sector count : 0
Damaged sector count : 0

Track 12
Filename : /Volumes/Hollywood and Vine/Rips/The Newton Brothers - The Haunting of Hill House (2018) [FLAC]/12 The Red Room.flac

Track gain : -4.79 dB
Peak : 0.942963
CRC32 hash (test run) : 46AB28BE
CRC32 hash : 46AB28BE
CRC32 hash (skip zero) : 037FACDB
AccurateRip v1 signature : 8645B071
AccurateRip v2 signature : F3496C16
->Accurately ripped (v2, confidence 3/3)
Statistics
Read error : 0
Jitter error (maybe fixed) : 0
Retry sector count : 0
Damaged sector count : 0

Track 13
Filename : /Volumes/Hollywood and Vine/Rips/The Newton Brothers - The Haunting of Hill House (2018) [FLAC]/13 Missing Things.flac

Track gain : 1.91 dB
Peak : 0.543793
CRC32 hash (test run) : 714150FB
CRC32 hash : 714150FB
CRC32 hash (skip zero) : 2F5B0800
AccurateRip v1 signature : A514A500
AccurateRip v2 signature : 12F5AFFB
->Accurately ripped (v2, confidence 3/3)
Statistics
Read error : 0
Jitter error (maybe fixed) : 0
Retry sector count : 0
Damaged sector count : 0

Track 14
Filename : /Volumes/Hollywood and Vine/Rips/The Newton Brothers - The Haunting of Hill House (2018) [FLAC]/14 I Believe You.flac

Track gain : 3.64 dB
Peak : 0.694580
CRC32 hash (test run) : BCEB57B7
CRC32 hash : BCEB57B7
CRC32 hash (skip zero) : 9D15C7C9
AccurateRip v1 signature : 3DFC72BB
AccurateRip v2 signature : 2DC3F30C
->Accurately ripped (v2, confidence 3/3)
Statistics
Read error : 0
Jitter error (maybe fixed) : 0
Retry sector count : 0
Damaged sector count : 0

Track 15
Filename : /Volumes/Hollywood and Vine/Rips/The Newton Brothers - The Haunting of Hill House (2018) [FLAC]/15 12:00 A.M..flac

Track gain : -3.67 dB
Peak : 0.943024
CRC32 hash (test run) : 70DF28B1
CRC32 hash : 70DF28B1
CRC32 hash (skip zero) : B6661D36
AccurateRip v1 signature : 97D0C8FE
AccurateRip v2 signature : DBBF6E16
->Accurately ripped (v2, confidence 3/3)
Statistics
Read error : 0
Jitter error (maybe fixed) : 0
Retry sector count : 0
Damaged sector count : 0

Track 16
Filename : /Volumes/Hollywood and Vine/Rips/The Newton Brothers - The Haunting of Hill House (2018) [FLAC]/16 In the Shadow of Ghosts.flac

Track gain : 4.17 dB
Peak : 0.577454
CRC32 hash (test run) : BD4B8704
CRC32 hash : BD4B8704
CRC32 hash (skip zero) : 64BDE8A1
AccurateRip v1 signature : 8664D2DF
AccurateRip v2 signature : DC89FDC2
->Accurately ripped (v2, confidence 3/3)
Statistics
Read error : 0
Jitter error (maybe fixed) : 0
Retry sector count : 0
Damaged sector count : 0

Track 17
Filename : /Volumes/Hollywood and Vine/Rips/The Newton Brothers - The Haunting of Hill House (2018) [FLAC]/17 I Want to Wake Up So Badly.flac

Track gain : -3.00 dB
Peak : 0.943024
CRC32 hash (test run) : 035D2DDA
CRC32 hash : 035D2DDA
CRC32 hash (skip zero) : 5F874FC6
AccurateRip v1 signature : 29034B6E
AccurateRip v2 signature : 948FF27C
->Accurately ripped (v2, confidence 3/3)
Statistics
Read error : 0
Jitter error (maybe fixed) : 0
Retry sector count : 0
Damaged sector count : 0

Track 18
Filename : /Volumes/Hollywood and Vine/Rips/The Newton Brothers - The Haunting of Hill House (2018) [FLAC]/18 Luke.flac

Track gain : 2.15 dB
Peak : 0.663330
CRC32 hash (test run) : 8CD8241C
CRC32 hash : 8CD8241C
CRC32 hash (skip zero) : 55A8FC84
AccurateRip v1 signature : 41E127BA
AccurateRip v2 signature : 34955911
->Accurately ripped (v2, confidence 3/3)
Statistics
Read error : 0
Jitter error (maybe fixed) : 0
Retry sector count : 0
Damaged sector count : 0

Track 19
Filename : /Volumes/Hollywood and Vine/Rips/The Newton Brothers - The Haunting of Hill House (2018) [FLAC]/19 Approaching the House.flac

Track gain : -1.48 dB
Peak : 0.943054
CRC32 hash (test run) : 40A1A697
CRC32 hash : 40A1A697
CRC32 hash (skip zero) : B3B48233
AccurateRip v1 signature : 9C74642F
AccurateRip v2 signature : 21488B70
->Accurately ripped (v2, confidence 3/3)
Statistics
Read error : 0
Jitter error (maybe fixed) : 0
Retry sector count : 0
Damaged sector count : 0

Track 20
Filename : /Volumes/Hollywood and Vine/Rips/The Newton Brothers - The Haunting of Hill House (2018) [FLAC]/20 Haunted Past.flac

Track gain : 8.73 dB
Peak : 0.548340
CRC32 hash (test run) : 61CAEEDA
CRC32 hash : 61CAEEDA
CRC32 hash (skip zero) : E1DC1E0D
AccurateRip v1 signature : B7E317AF
AccurateRip v2 signature : 37B698F3
->Accurately ripped (v2, confidence 3/3)
Statistics
Read error : 0
Jitter error (maybe fixed) : 0
Retry sector count : 0
Damaged sector count : 0

Track 21
Filename : /Volumes/Hollywood and Vine/Rips/The Newton Brothers - The Haunting of Hill House (2018) [FLAC]/21 You Remember.flac

Track gain : 0.51 dB
Peak : 0.919312
CRC32 hash (test run) : 0B75F1A9
CRC32 hash : 0B75F1A9
CRC32 hash (skip zero) : 05DC278E
AccurateRip v1 signature : 0C6CE792
AccurateRip v2 signature : D769ABD5
->Accurately ripped (v2, confidence 3/3)
Statistics
Read error : 0
Jitter error (maybe fixed) : 0
Retry sector count : 0
Damaged sector count : 0

Track 22
Filename : /Volumes/Hollywood and Vine/Rips/The Newton Brothers - The Haunting of Hill House (2018) [FLAC]/22 Feel Nothing.flac

Track gain : -2.69 dB
Peak : 0.943024
CRC32 hash (test run) : 92F8865F
CRC32 hash : 92F8865F
CRC32 hash (skip zero) : D6CF2224
AccurateRip v1 signature : 877A1C4A
AccurateRip v2 signature : 8ABB3E5D
->Accurately ripped (v2, confidence 3/3)
Statistics
Read error : 0
Jitter error (maybe fixed) : 0
Retry sector count : 0
Damaged sector count : 0

Track 23
Filename : /Volumes/Hollywood and Vine/Rips/The Newton Brothers - The Haunting of Hill House (2018) [FLAC]/23 Beginning of the End Movement I.flac

Track gain : -1.28 dB
Peak : 0.778137
CRC32 hash (test run) : 3BBDDD07
CRC32 hash : 3BBDDD07
CRC32 hash (skip zero) : C1D771DE
AccurateRip v1 signature : BEC829E4
AccurateRip v2 signature : 5CF54A3E
->Accurately ripped (v2, confidence 3/3)
Statistics
Read error : 0
Jitter error (maybe fixed) : 0
Retry sector count : 0
Damaged sector count : 0

Track 24
Filename : /Volumes/Hollywood and Vine/Rips/The Newton Brothers - The Haunting of Hill House (2018) [FLAC]/24 Beginning of the End Movement II.flac

Track gain : -0.80 dB
Peak : 0.943024
CRC32 hash (test run) : 58B6DCAA
CRC32 hash : 58B6DCAA
CRC32 hash (skip zero) : 3C039E31
AccurateRip v1 signature : C8A85C08
AccurateRip v2 signature : C591C5EE
->Accurately ripped (v2, confidence 3/3)
Statistics
Read error : 0
Jitter error (maybe fixed) : 0
Retry sector count : 0
Damaged sector count : 0

Track 25
Filename : /Volumes/Hollywood and Vine/Rips/The Newton Brothers - The Haunting of Hill House (2018) [FLAC]/25 Beginning of the End Movement III.flac

Track gain : -0.63 dB
Peak : 0.942932
CRC32 hash (test run) : 46936348
CRC32 hash : 46936348
CRC32 hash (skip zero) : BC74123D
AccurateRip v1 signature : 45546016
AccurateRip v2 signature : D7CE3099
->Accurately ripped (v2, confidence 3/3)
Statistics
Read error : 0
Jitter error (maybe fixed) : 0
Retry sector count : 0
Damaged sector count : 0

Track 26
Filename : /Volumes/Hollywood and Vine/Rips/The Newton Brothers - The Haunting of Hill House (2018) [FLAC]/26 Beginning of the End Movement IV.flac

Track gain : -3.80 dB
Peak : 0.942993
CRC32 hash (test run) : 9DF7E29D
CRC32 hash : 9DF7E29D
CRC32 hash (skip zero) : 2852EA32
AccurateRip v1 signature : 0B733D3F
AccurateRip v2 signature : FADFAEF0
->Accurately ripped (v2, confidence 3/3)
Statistics
Read error : 0
Jitter error (maybe fixed) : 0
Retry sector count : 0
Damaged sector count : 0

Track 27
Filename : /Volumes/Hollywood and Vine/Rips/The Newton Brothers - The Haunting of Hill House (2018) [FLAC]/27 The End.flac

Track gain : 1.07 dB
Peak : 0.942993
CRC32 hash (test run) : 70E59D4C
CRC32 hash : 70E59D4C
CRC32 hash (skip zero) : 9543416C
AccurateRip v1 signature : 4CACEB77
AccurateRip v2 signature : D1B6C455
->Accurately ripped (v2, confidence 3/3)
Statistics
Read error : 0
Jitter error (maybe fixed) : 0
Retry sector count : 0
Damaged sector count : 0

No errors occurred

End of status report

––-BEGIN XLD SIGNATURE––-
kZibXVb74VItnDIIdktMsbekjqGjUB0Z1SqLj8s.iSxSyljuSIvvy8TMcWqg3XwNMASCwLcpJtw0otpmBTvp5H6kCoPA3YrxX6GPbdi
––-END XLD SIGNATURE––-