Subcategories
Tags
Language
Tags

The O'Jays - The O'Jays in Philadelphia (1970) Remastered 2013 [Re-Up]

Posted By: Designol
The O'Jays - The O'Jays in Philadelphia (1970) Remastered 2013 [Re-Up]

The O'Jays - The O'Jays in Philadelphia (1970) Remastered 2013
XLD | FLAC | Tracks (Cue&Log) ~ 198 Mb | Mp3 (CBR320) ~ 70 Mb | Scans ~ 71 Mb
Philly Soul, Pop-Soul, R&B | Label: Big Break | # CDBBR 0229 | Time: 00:30:05

Contrary to what its title suggests, The O'Jays in Philadelphia isn't a live album. Rather, the title of this studio date refers to the beginning of their association with Philly's R&B scene and producers/songwriters Kenny Gamble & Leon Huff. What they didn't know in 1969 was just how long and fruitful that association would end up being. This album wasn't the major hit that Back Stabbers would be, but not for lack of strong material. From "One Night Affair" to "Let Me in Your World," this superb album is quintessential Philly soul. While Eddie Levert's gospel-influenced belting is as gritty as anything that came from Stax Records, the production is as notably sleek. A few years later, Gamble & Huff would produce a longer, heavily syncopated version of "Affair" for Jerry Butler that some soul historians exalt as the first disco single.

Review by Alex Henderson, Allmusic.com

The O'Jays - The O'Jays in Philadelphia (1970) Remastered 2013 [Re-Up]



Tracklist:

01. One Night Affair (02:17)
02. You're The Best Thing Since Candy (02:55)
03. Branded Bad (02:52)
04. I Should Be Your Lover (02:03)
05. Looky Looky (Look At Me Girl) (02:43)
06. Deeper (In Love With You) (02:38)
07. Let Me In Your World (02:35)
08. Just Can't Get Enough (02:07)
09. I've Got The Groove (02:16)
10. Medley: Little Green Apples / Something (04:30)
11. It's Too Strong (03:04)


X Lossless Decoder version 20131102 (145.0)

XLD extraction logfile from 2014-04-15 18:22:33 +0200

The O'Jays / In Philadelphia

Used drive : HL-DT-ST BD-RE BP40NS20 (revision ML01)
Media type : Pressed CD

Ripper mode : XLD Secure Ripper
Disable audio cache : OK for the drive with a cache less than 1375KiB
Make use of C2 pointers : NO
Read offset correction : 667
Max retry count : 100
Gap status : Analyzed, Appended

TOC of the extracted CD
Track | Start | Length | Start sector | End sector
––––––––––––––––––––––––––––-
1 | 00:00:00 | 02:19:27 | 0 | 10451
2 | 02:19:27 | 02:58:23 | 10452 | 23824
3 | 05:17:50 | 02:54:63 | 23825 | 36937
4 | 08:12:38 | 02:04:74 | 36938 | 46311
5 | 10:17:37 | 02:45:70 | 46312 | 58756
6 | 13:03:32 | 02:41:17 | 58757 | 70848
7 | 15:44:49 | 02:38:02 | 70849 | 82700
8 | 18:22:51 | 02:10:11 | 82701 | 92461
9 | 20:32:62 | 02:19:31 | 92462 | 102917
10 | 22:52:18 | 04:32:60 | 102918 | 123377
11 | 27:25:03 | 03:04:18 | 123378 | 137195

AccurateRip Summary
Disc not found in AccurateRip DB.

All Tracks
Statistics
Read error : 0
Jitter error (maybe fixed) : 0
Retry sector count : 0
Damaged sector count : 0

Track 01
Filename : /Users/DrBanan/Desktop/01 The O'Jays - One Night Affair.flac
Pre-gap length : 00:02:00

CRC32 hash (test run) : C7042ED7
CRC32 hash : C7042ED7
CRC32 hash (skip zero) : B8265C33
AccurateRip v1 signature : 2FB89D54
AccurateRip v2 signature : 2EEF8655
->Track not present in AccurateRip database.
Statistics
Read error : 0
Jitter error (maybe fixed) : 0
Retry sector count : 0
Damaged sector count : 0

Track 02
Filename : /Users/DrBanan/Desktop/02 The O'Jays - You're The Best Thing Since Candy.flac
Pre-gap length : 00:02:04

CRC32 hash (test run) : 39EB9491
CRC32 hash : 39EB9491
CRC32 hash (skip zero) : DDF9C769
AccurateRip v1 signature : AF1897C7
AccurateRip v2 signature : 6F9726E8
->Track not present in AccurateRip database.
Statistics
Read error : 0
Jitter error (maybe fixed) : 0
Retry sector count : 0
Damaged sector count : 0

Track 03
Filename : /Users/DrBanan/Desktop/03 The O'Jays - Branded Bad.flac
Pre-gap length : 00:02:56

CRC32 hash (test run) : 9E925CB8
CRC32 hash : 9E925CB8
CRC32 hash (skip zero) : 5A119074
AccurateRip v1 signature : 20AEA2BD
AccurateRip v2 signature : 05CE3EAC
->Track not present in AccurateRip database.
Statistics
Read error : 0
Jitter error (maybe fixed) : 0
Retry sector count : 0
Damaged sector count : 0

Track 04
Filename : /Users/DrBanan/Desktop/04 The O'Jays - I Should Be Your Lover.flac
Pre-gap length : 00:02:19

CRC32 hash (test run) : 426DBC9B
CRC32 hash : 426DBC9B
CRC32 hash (skip zero) : 55FEA4BD
AccurateRip v1 signature : 5CBAFDE0
AccurateRip v2 signature : 8A1F6D3F
->Track not present in AccurateRip database.
Statistics
Read error : 0
Jitter error (maybe fixed) : 0
Retry sector count : 0
Damaged sector count : 0

Track 05
Filename : /Users/DrBanan/Desktop/05 The O'Jays - Looky Looky (Look At Me Girl).flac
Pre-gap length : 00:01:66

CRC32 hash (test run) : 3BACF26D
CRC32 hash : 3BACF26D
CRC32 hash (skip zero) : 3D0DE871
AccurateRip v1 signature : 3E35B9E2
AccurateRip v2 signature : D1E6BA1B
->Track not present in AccurateRip database.
Statistics
Read error : 0
Jitter error (maybe fixed) : 0
Retry sector count : 0
Damaged sector count : 0

Track 06
Filename : /Users/DrBanan/Desktop/06 The O'Jays - Deeper (In Love With You).flac
Pre-gap length : 00:01:74

CRC32 hash (test run) : A3704351
CRC32 hash : A3704351
CRC32 hash (skip zero) : DAB7A3E4
AccurateRip v1 signature : 2FBCF5B9
AccurateRip v2 signature : 548AA679
->Track not present in AccurateRip database.
Statistics
Read error : 0
Jitter error (maybe fixed) : 0
Retry sector count : 0
Damaged sector count : 0

Track 07
Filename : /Users/DrBanan/Desktop/07 The O'Jays - Let Me In Your World.flac
Pre-gap length : 00:02:27

CRC32 hash (test run) : 8710B497
CRC32 hash : 8710B497
CRC32 hash (skip zero) : 19FB8C22
AccurateRip v1 signature : 05666B27
AccurateRip v2 signature : F1EBCF43
->Track not present in AccurateRip database.
Statistics
Read error : 0
Jitter error (maybe fixed) : 0
Retry sector count : 0
Damaged sector count : 0

Track 08
Filename : /Users/DrBanan/Desktop/08 The O'Jays - Just Can't Get Enough.flac
Pre-gap length : 00:02:04

CRC32 hash (test run) : 43F6CE04
CRC32 hash : 43F6CE04
CRC32 hash (skip zero) : 5E243030
AccurateRip v1 signature : 883059E5
AccurateRip v2 signature : 917D6EA1
->Track not present in AccurateRip database.
Statistics
Read error : 0
Jitter error (maybe fixed) : 0
Retry sector count : 0
Damaged sector count : 0

Track 09
Filename : /Users/DrBanan/Desktop/09 The O'Jays - I've Got The Groove.flac
Pre-gap length : 00:02:25

CRC32 hash (test run) : 527C680C
CRC32 hash : 527C680C
CRC32 hash (skip zero) : 6C7FE6FC
AccurateRip v1 signature : 5B2F5660
AccurateRip v2 signature : 2442052B
->Track not present in AccurateRip database.
Statistics
Read error : 0
Jitter error (maybe fixed) : 0
Retry sector count : 0
Damaged sector count : 0

Track 10
Filename : /Users/DrBanan/Desktop/10 The O'Jays - Little Green Apples_Something.flac
Pre-gap length : 00:03:09

CRC32 hash (test run) : ED5E010B
CRC32 hash : ED5E010B
CRC32 hash (skip zero) : D3097391
AccurateRip v1 signature : BA8C264A
AccurateRip v2 signature : A0973231
->Track not present in AccurateRip database.
Statistics
Read error : 0
Jitter error (maybe fixed) : 0
Retry sector count : 0
Damaged sector count : 0

Track 11
Filename : /Users/DrBanan/Desktop/11 The O'Jays - It's Too Strong.flac
Pre-gap length : 00:02:54

CRC32 hash (test run) : 0D37492D
CRC32 hash : 0D37492D
CRC32 hash (skip zero) : 0BA487F3
AccurateRip v1 signature : 358130BF
AccurateRip v2 signature : 58D91211
->Track not present in AccurateRip database.
Statistics
Read error : 0
Jitter error (maybe fixed) : 0
Retry sector count : 0
Damaged sector count : 0

No errors occurred

End of status report

[CUETools log; Date: 24.05.2018 2:42:16; Version: 2.1.4]
[CTDB TOCID: ANNR0BOnFpbx3keltbZHeTyTrAk-] found.
Track | CTDB Status
1 | (1/1) Accurately ripped
2 | (1/1) Accurately ripped
3 | (1/1) Accurately ripped
4 | (1/1) Accurately ripped
5 | (1/1) Accurately ripped
6 | (1/1) Accurately ripped
7 | (1/1) Accurately ripped
8 | (1/1) Accurately ripped
9 | (1/1) Accurately ripped
10 | (1/1) Accurately ripped
11 | (1/1) Accurately ripped
[AccurateRip ID: 000bfd7c-006878a9-8e07250b] found.
Track [ CRC | V2 ] Status
01 [2fb89d54|2eef8655] (0+2/2) Accurately ripped
02 [af1897c7|6f9726e8] (0+2/2) Accurately ripped
03 [20aea2bd|05ce3eac] (0+2/2) Accurately ripped
04 [5cbafde0|8a1f6d3f] (0+2/2) Accurately ripped
05 [3e35b9e2|d1e6ba1b] (0+2/2) Accurately ripped
06 [2fbcf5b9|548aa679] (0+2/2) Accurately ripped
07 [05666b27|f1ebcf43] (0+2/2) Accurately ripped
08 [883059e5|917d6ea1] (0+2/2) Accurately ripped
09 [5b2f5660|2442052b] (0+2/2) Accurately ripped
10 [ba8c264a|a0973231] (0+2/2) Accurately ripped
11 [358130bf|58d91211] (0+2/2) Accurately ripped

Track Peak [ CRC32 ] [W/O NULL]
– 96,6 [3AE978C5] [DC0913D3]
01 96,6 [C7042ED7] [B8265C33]
02 96,6 [39EB9491] [DDF9C769]
03 96,6 [9E925CB8] [5A119074]
04 96,6 [426DBC9B] [55FEA4BD]
05 96,6 [3BACF26D] [3D0DE871]
06 96,6 [A3704351] [DAB7A3E4]
07 96,6 [8710B497] [19FB8C22]
08 96,6 [43F6CE04] [5E243030]
09 96,6 [527C680C] [6C7FE6FC]
10 96,6 [ED5E010B] [D3097391]
11 96,6 [0D37492D] [0BA487F3]

foobar2000 1.2 / Dynamic Range Meter 1.1.1
log date: 2015-01-17 20:45:36

––––––––––––––––––––––––––––––––––––––––
Analyzed: The O'Jays / The O'Jays In Philadelphia
––––––––––––––––––––––––––––––––––––––––

DR Peak RMS Duration Track
––––––––––––––––––––––––––––––––––––––––
DR11 -0.30 dB -14.13 dB 2:19 01-One Night Affair
DR13 -0.30 dB -15.63 dB 2:58 02-You're The Best Thing Since Candy
DR11 -0.30 dB -13.93 dB 2:55 04-Branded Bad
DR10 -0.30 dB -12.79 dB 2:05 05-I Should Be Your Lover
DR12 -0.30 dB -14.53 dB 2:46 06-Looky Looky (Look At Me Girl)
DR12 -0.30 dB -13.97 dB 2:41 07-Deeper (In Love With You)
DR12 -0.30 dB -15.46 dB 2:38 08-07 The O'Jays - Let Me In Your World
DR10 -0.30 dB -12.63 dB 2:10 08-Just Can't Get Enough
DR12 -0.30 dB -14.07 dB 2:19 09-I've Got The Groove
DR10 -0.30 dB -14.43 dB 4:33 10-Little Green Apples_Something
DR12 -0.30 dB -14.48 dB 3:04 11-It's Too Strong
––––––––––––––––––––––––––––––––––––––––

Number of tracks: 11
Official DR value: DR11

Samplerate: 44100 Hz
Channels: 2
Bits per sample: 16
Bitrate: 944 kbps
Codec: FLAC
================================================================================

The O'Jays - The O'Jays in Philadelphia (1970) Remastered 2013 [Re-Up]

The O'Jays - The O'Jays in Philadelphia (1970) Remastered 2013 [Re-Up]

All thanks to original releaser - DrBanan

More interesting music in My Blog