Tags
Language
Tags

The Prisoners - A Taste Of Pink! (2003) {Remastered}

Posted By:
The Prisoners - A Taste Of Pink! (2003) {Remastered}

The Prisoners - A Taste Of Pink! (2003) {Remastered}
EAC Rip | WavPack (Img) + Cue + Log ~ 425 Mb | MP3 CBR320 ~ 173 Mb
Full Scans | 01:03:39 | RAR 5% Recovery
Garage Rock, Mod | Big Beat Records #CDWIKM 222

The Prisoners are one of the great lost bands of the 1980s. The Rochester four-piece fused garage rock, post punk and classic 60s pop melodies to create a distinctive sound. Lead singer and guitarist Graham Day is a song composer of note. They released four albums over a four-year period. This reissue of their 1982 debut album is re-mastered from the original tapes & is joined by nine bonus tracks, 'Baby Come Alive' ('Taste of Pink' session), 'Pretend' (Radio Session), 'There's a Time' (Live at Oakwood), 'Lilac Reflections' (Cecil Road demo), 'Talking Bout My Baby' (Cecil Road demo), & 'Don't Call My Name' (Cecil Road demo), 'Say Your Prayers' (Cecil Road demo), 'Somewhere' (BBC Kent Radio Session), & 'Love Changes' (Live at Quines).

***************

The Prisoners - A Taste Of Pink! (2003) {Remastered}

Track List:

A Taste Of Pink (1982)
01. Better in Black [2:25]
02. A Taste of Pink [2:22]
03. Maybe I was Wrong [2:41]
04. Creepy Crawlies [2:10]
05. There Can't Be a Place [2:59]
06. Pretend [3:41]
07. Coming Home [2:31]
08. Threw My Heart Away [3:13]
09. Come to the Mushroom [2:29]
10. Till The Morning Light [3:13]
11. Say Your Prayers [2:29]
12. Don't Call My Name [3:17]
Previously Unissued
13. Baby Come Alive [2:57]
14. Pretend [3:33]
15. There's a Time [3:25]
16. Lilac Reflections [2:13]
17. Talking Bout My Baby [3:58]
18. Don't Call My Name [2:59]
19. Say Your Prayers [2:52]
20. Somewhere [3:35]
21. Love Changes [4:37]

Exact Audio Copy V1.3 from 2. September 2016

EAC extraction logfile from 21. January 2020, 10:09

The Prisoners / A Taste of Pink

Used drive : PLEXTOR DVDR PX-L890SA Adapter: 1 ID: 0

Read mode : Secure
Utilize accurate stream : Yes
Defeat audio cache : Yes
Make use of C2 pointers : No

Read offset correction : 6
Overread into Lead-In and Lead-Out : No
Fill up missing offset samples with silence : Yes
Delete leading and trailing silent blocks : No
Null samples used in CRC calculations : Yes
Used interface : Native Win32 interface for Win NT & 2000

Used output format : User Defined Encoder
Selected bitrate : 1024 kBit/s
Quality : High
Add ID3 tag : No
Command line compressor : C:\Program Files (x86)\Exact Audio Copy\wavpack.exe
Additional command line options : -lm %source%


TOC of the extracted CD

Track | Start | Length | Start sector | End sector
––––––––––––––––––––––––––––-
1 | 0:00.00 | 2:24.60 | 0 | 10859
2 | 2:24.60 | 2:21.69 | 10860 | 21503
3 | 4:46.54 | 2:41.20 | 21504 | 33598
4 | 7:27.74 | 2:10.34 | 33599 | 43382
5 | 9:38.33 | 2:59.09 | 43383 | 56816
6 | 12:37.42 | 3:40.38 | 56817 | 73354
7 | 16:18.05 | 2:31.10 | 73355 | 84689
8 | 18:49.15 | 3:13.13 | 84690 | 99177
9 | 22:02.28 | 2:29.13 | 99178 | 110365
10 | 24:31.41 | 3:13.21 | 110366 | 124861
11 | 27:44.62 | 2:29.10 | 124862 | 136046
12 | 30:13.72 | 3:16.69 | 136047 | 150815
13 | 33:30.66 | 2:56.67 | 150816 | 164082
14 | 36:27.58 | 3:33.29 | 164083 | 180086
15 | 40:01.12 | 3:24.39 | 180087 | 195425
16 | 43:25.51 | 2:12.58 | 195426 | 205383
17 | 45:38.34 | 3:58.03 | 205384 | 223236
18 | 49:36.37 | 2:59.05 | 223237 | 236666
19 | 52:35.42 | 2:52.02 | 236667 | 249568
20 | 55:27.44 | 3:35.10 | 249569 | 265703
21 | 59:02.54 | 4:36.50 | 265704 | 286453


Range status and errors

Selected range

Filename D:\wwphil\The Prisoners - A Taste of Pink (2003, Big Beat Rs)\The Prisoners - A Taste of Pink.wav

Peak level 99.8 %
Extraction speed 9.4 X
Range quality 100.0 %
Test CRC AF7D34F5
Copy CRC AF7D34F5
Copy OK

No errors occurred


AccurateRip summary

Track 1 cannot be verified as accurate (confidence 17) [E967FED6], AccurateRip returned [78BE67F5] (AR v2)
Track 2 cannot be verified as accurate (confidence 17) [42B5C978], AccurateRip returned [93CA29DB] (AR v2)
Track 3 cannot be verified as accurate (confidence 17) [415FB227], AccurateRip returned [705B72B6] (AR v2)
Track 4 cannot be verified as accurate (confidence 17) [F551CED7], AccurateRip returned [056EA64D] (AR v2)
Track 5 cannot be verified as accurate (confidence 17) [A886B627], AccurateRip returned [8203FDC1] (AR v2)
Track 6 cannot be verified as accurate (confidence 17) [A324BA4E], AccurateRip returned [A50975C4] (AR v2)
Track 7 cannot be verified as accurate (confidence 17) [07005A60], AccurateRip returned [CBF2B341] (AR v2)
Track 8 cannot be verified as accurate (confidence 17) [F83C756E], AccurateRip returned [FEB9BC79] (AR v2)
Track 9 cannot be verified as accurate (confidence 17) [BE127521], AccurateRip returned [EF7CA45D] (AR v2)
Track 10 cannot be verified as accurate (confidence 17) [59C1BFC8], AccurateRip returned [D17365C1] (AR v2)
Track 11 cannot be verified as accurate (confidence 17) [2E96E044], AccurateRip returned [C2228C67] (AR v2)
Track 12 cannot be verified as accurate (confidence 17) [0E98C467], AccurateRip returned [D457B9C1] (AR v2)
Track 13 cannot be verified as accurate (confidence 17) [FE3A82B4], AccurateRip returned [4A66361D] (AR v2)
Track 14 cannot be verified as accurate (confidence 17) [C8FF4495], AccurateRip returned [67A9E143] (AR v2)
Track 15 cannot be verified as accurate (confidence 17) [179BCBEB], AccurateRip returned [6F06BEFB] (AR v2)
Track 16 cannot be verified as accurate (confidence 17) [28C2B802], AccurateRip returned [FEF67931] (AR v2)
Track 17 cannot be verified as accurate (confidence 17) [7C60273F], AccurateRip returned [8DAEB89F] (AR v2)
Track 18 cannot be verified as accurate (confidence 17) [CF173445], AccurateRip returned [789EC731] (AR v2)
Track 19 cannot be verified as accurate (confidence 17) [5BAB14D4], AccurateRip returned [1952B7E4] (AR v2)
Track 20 cannot be verified as accurate (confidence 17) [2F6C42FD], AccurateRip returned [DF18E8BB] (AR v2)
Track 21 cannot be verified as accurate (confidence 16) [C0F2B4B0], AccurateRip returned [B726B5F9] (AR v2)

No tracks could be verified as accurate
You may have a different pressing from the one(s) in the database

End of status report

==== Log checksum BD61633F2703D53A051709D4798F3DA32AA56C63DBB336DA87E790EE02F6AD68 ====

The Prisoners - A Taste Of Pink! (2003) {Remastered}


All thanks go to wwphil

>>> My Blog <<<

DOWNLOAD: