Subcategories

The Rankins - Souvenir: 1989-1998 (2002) 2CDs

Posted By: Designol
The Rankins - Souvenir: 1989-1998 (2002) 2CDs

The Rankins - Souvenir: 1989-1998 (2002) 2CDs
EAC | FLAC | Tracks (Cue&Log) ~ 661 Mb | Mp3 (CBR320) ~ 230 Mb | Scans included
Country-Folk, Celtic, Folk-Rock | Label: Capitol | # 72435-38923-2-6 | 01:38:29

EMI's two-disc collection Souvenir: 1989-1998 rather nicely chronicles the decade when the Rankin Family rose to prominence in the Canadian pop/folk scene and opened a floodgate of likeminded musicians who brought Celtic influences into the contemporary scene. The collection is evenly focused on their entire career, with a bit of emphasis on the albums North Country and Uprooted, but also properly serves as an end cap to an impressive career (the Rankins disbanded in 1999) and as a memorial to the late John Morris Rankin (1959-2000). It is the perfect place to start for the curious and a fine set for those looking for a comprehensive retrospective.

Review by Gregory McIntosh, Allmusic.com

The Rankins - Souvenir: 1989-1998 (2002) 2CDs



Tracklist:

CD1 (48:22)

01. You Feel the Same Way Too (4:51)
02. Borders and Time (3:22)
03. Rise Again (3:47)
04. North Country (3:36)
05. Orangedale Whistle (3:26)
06. The River (3:33)
07. Let it Go (3:59)
08. Maybe You're Right (4:15)
09. Bells (3:28)
10. Gillis Mountain (3:04)
11. Forty Days and Nights (Radio Edit) (3:23)
12. Movin' On (3:34)
13. Roving Gypsy Boy (Remix) (4:04)


CD2 (50:07)

01. Fare Thee Well Love (4:30)
02. O Tha Mo Dhuil Ruit (Oh How I Love Thee) (2:58)
03. Greenberg Medley (4:11)
04. Down by the Sally Gardens (5:12)
05. Grey Dusk of Eve (Portobello) (Leis An Lurgainn Remix) (3:05)
06. Christy Campbell Medley (4:38)
07. An Innis Aigh (The Happy Isle) (3:30)
08. Parlour Medley (5:56)
09. Mull River Shuffle (7:50)
10. Fare Well to Lochaber (3:39)
11. Weddings Wakes and Funerals (Big Mind Radio Mix) (4:38)


Exact Audio Copy V0.99 prebeta 4 from 23. January 2008

EAC extraction logfile from 14. June 2009, 12:45

The Rankins / Souvenir Disc 1

Used drive : PLEXTOR DVDR PX-716A Adapter: 2 ID: 0

Read mode : Secure
Utilize accurate stream : Yes
Defeat audio cache : Yes
Make use of C2 pointers : No

Read offset correction : 30
Overread into Lead-In and Lead-Out : No
Fill up missing offset samples with silence : Yes
Delete leading and trailing silent blocks : No
Null samples used in CRC calculations : No
Used interface : Native Win32 interface for Win NT & 2000
Gap handling : Appended to previous track

Used output format : User Defined Encoder
Selected bitrate : 1024 kBit/s
Quality : High
Add ID3 tag : Yes
Command line compressor : C:\Program Files\Exact Audio Copy\FLAC\FLAC.EXE
Additional command line options : -6 -V -T "ARTIST=%a" -T "TITLE=%t" -T "ALBUM=%g" -T "DATE=%y" -T "TRACKNUMBER=%n" -T "GENRE=%m" -T "COMMENT=%e" %s -o %d


TOC of the extracted CD

Track | Start | Length | Start sector | End sector
––––––––––––––––––––––––––––-
1 | 0:00.00 | 4:50.46 | 0 | 21795
2 | 4:50.46 | 3:22.10 | 21796 | 36955
3 | 8:12.56 | 3:46.50 | 36956 | 53955
4 | 11:59.31 | 3:35.43 | 53956 | 70123
5 | 15:34.74 | 3:26.06 | 70124 | 85579
6 | 19:01.05 | 3:33.05 | 85580 | 101559
7 | 22:34.10 | 3:59.14 | 101560 | 119498
8 | 26:33.24 | 4:14.58 | 119499 | 138606
9 | 30:48.07 | 3:27.60 | 138607 | 154191
10 | 34:15.67 | 3:04.19 | 154192 | 168010
11 | 37:20.11 | 3:23.33 | 168011 | 183268
12 | 40:43.44 | 3:33.50 | 183269 | 199293
13 | 44:17.19 | 4:04.23 | 199294 | 217616


Track 1

Filename C:\Users\Administrator\My Documents\EAC Rips\01. The Rankins - You Feel the Same Way Too.wav

Pre-gap length 0:00:02.00

Peak level 94.0 %
Track quality 100.0 %
Test CRC A68BD532
Copy CRC A68BD532
Track not present in AccurateRip database
Copy OK

Track 2

Filename C:\Users\Administrator\My Documents\EAC Rips\02. The Rankins - Borders and Time.wav

Peak level 94.0 %
Track quality 100.0 %
Test CRC 476BFDC4
Copy CRC 476BFDC4
Track not present in AccurateRip database
Copy OK

Track 3

Filename C:\Users\Administrator\My Documents\EAC Rips\03. The Rankins - Rise Again.wav

Peak level 94.0 %
Track quality 100.0 %
Test CRC F3BCB335
Copy CRC F3BCB335
Track not present in AccurateRip database
Copy OK

Track 4

Filename C:\Users\Administrator\My Documents\EAC Rips\04. The Rankins - North Country.wav

Peak level 94.0 %
Track quality 100.0 %
Test CRC 96105B7F
Copy CRC 96105B7F
Track not present in AccurateRip database
Copy OK

Track 5

Filename C:\Users\Administrator\My Documents\EAC Rips\05. The Rankins - Orangedale Whistle.wav

Peak level 94.0 %
Track quality 100.0 %
Test CRC A1047897
Copy CRC A1047897
Track not present in AccurateRip database
Copy OK

Track 6

Filename C:\Users\Administrator\My Documents\EAC Rips\06. The Rankins - The River.wav

Peak level 94.0 %
Track quality 100.0 %
Test CRC 0D638086
Copy CRC 0D638086
Track not present in AccurateRip database
Copy OK

Track 7

Filename C:\Users\Administrator\My Documents\EAC Rips\07. The Rankins - Let it Go.wav

Peak level 94.0 %
Track quality 100.0 %
Test CRC 8A4A8B67
Copy CRC 8A4A8B67
Track not present in AccurateRip database
Copy OK

Track 8

Filename C:\Users\Administrator\My Documents\EAC Rips\08. The Rankins - Maybe You're Right.wav

Peak level 94.0 %
Track quality 100.0 %
Test CRC C17FA283
Copy CRC C17FA283
Track not present in AccurateRip database
Copy OK

Track 9

Filename C:\Users\Administrator\My Documents\EAC Rips\09. The Rankins - Bells.wav

Peak level 94.0 %
Track quality 100.0 %
Test CRC 6DE7DF2A
Copy CRC 6DE7DF2A
Track not present in AccurateRip database
Copy OK

Track 10

Filename C:\Users\Administrator\My Documents\EAC Rips\10. The Rankins - Gillis Mountain.wav

Peak level 94.0 %
Track quality 100.0 %
Test CRC E617B0AF
Copy CRC E617B0AF
Track not present in AccurateRip database
Copy OK

Track 11

Filename C:\Users\Administrator\My Documents\EAC Rips\11. The Rankins - Forty Days and Nights (Radio Edit).wav

Peak level 94.0 %
Track quality 100.0 %
Test CRC F070B63A
Copy CRC F070B63A
Track not present in AccurateRip database
Copy OK

Track 12

Filename C:\Users\Administrator\My Documents\EAC Rips\12. The Rankins - Movin' On.wav

Peak level 94.0 %
Track quality 100.0 %
Test CRC 153F9CFC
Copy CRC 153F9CFC
Track not present in AccurateRip database
Copy OK

Track 13

Filename C:\Users\Administrator\My Documents\EAC Rips\13. The Rankins - Roving Gypsy Boy (Remix).wav

Peak level 94.0 %
Track quality 100.0 %
Test CRC 5EB47518
Copy CRC 5EB47518
Track not present in AccurateRip database
Copy OK


None of the tracks are present in the AccurateRip database

No errors occurred

End of status report

[CUETools log; Date: 12.08.2017 0:55:38; Version: 2.1.4]
[CTDB TOCID: .mPpp85zuYf2GI18ov2AIn2zWNc-] found.
Track | CTDB Status
1 | (6/6) Accurately ripped
2 | (6/6) Accurately ripped
3 | (6/6) Accurately ripped
4 | (6/6) Accurately ripped
5 | (6/6) Accurately ripped
6 | (6/6) Accurately ripped
7 | (6/6) Accurately ripped
8 | (6/6) Accurately ripped
9 | (6/6) Accurately ripped
10 | (6/6) Accurately ripped
11 | (6/6) Accurately ripped
12 | (6/6) Accurately ripped
13 | (6/6) Accurately ripped
[AccurateRip ID: 0017a87d-00ea9c81-b30b550d] found.
Track [ CRC | V2 ] Status
01 [47d74c55|a0d5f4cf] (2+2/4) Accurately ripped
02 [4a3547a2|8841bd20] (2+2/4) Accurately ripped
03 [41f7b451|e28de0d3] (2+2/4) Accurately ripped
04 [bdb64576|b23f138b] (2+2/4) Accurately ripped
05 [383e8c3c|6d0d78a1] (2+2/4) Accurately ripped
06 [ee8b8373|78475c88] (2+2/4) Accurately ripped
07 [34f5ac84|fa5cc424] (2+2/4) Accurately ripped
08 [31624385|84beccdd] (2+2/4) Accurately ripped
09 [779555a2|0648fa5b] (2+2/4) Accurately ripped
10 [858716bd|1f0d1050] (2+2/4) Accurately ripped
11 [ae055278|1c39ce0c] (2+2/4) Accurately ripped
12 [a0f87de7|e85236d8] (2+2/4) Accurately ripped
13 [2e22fee9|0caf2f5d] (2+2/4) Accurately ripped

Track Peak [ CRC32 ] [W/O NULL] [ LOG ]
– 94,0 [0031279A] [D6A4E3A2]
01 94,0 [4D0C4A0E] [A68BD532] W/O NULL
02 94,0 [9574189D] [476BFDC4] W/O NULL
03 94,0 [5336DB1C] [F3BCB335] W/O NULL
04 94,0 [C277B943] [96105B7F] W/O NULL
05 94,0 [27C67444] [A1047897] W/O NULL
06 94,0 [239510AF] [0D638086] W/O NULL
07 94,0 [929B7FA5] [8A4A8B67] W/O NULL
08 94,0 [2B43EDAF] [C17FA283] W/O NULL
09 94,0 [151D9668] [6DE7DF2A] W/O NULL
10 94,0 [429510A1] [E617B0AF] W/O NULL
11 94,0 [34B281D5] [F070B63A] W/O NULL
12 94,0 [C2F2E445] [153F9CFC] W/O NULL
13 94,0 [93C57A08] [5EB47518] W/O NULL

foobar2000 1.2 / Dynamic Range Meter 1.1.1
log date: 2017-10-29 19:34:38

––––––––––––––––––––––––––––––––––––––––
Analyzed: The Rankins / Souvenir Disc 1
––––––––––––––––––––––––––––––––––––––––

DR Peak RMS Duration Track
––––––––––––––––––––––––––––––––––––––––
DR8 -0.53 dB -9.62 dB 4:51 01-You Feel the Same Way Too
DR8 -0.53 dB -10.34 dB 3:22 02-Borders and Time
DR8 -0.53 dB -11.87 dB 3:47 03-Rise Again
DR9 -0.53 dB -10.48 dB 3:36 04-North Country
DR9 -0.53 dB -11.36 dB 3:26 05-Orangedale Whistle
DR9 -0.53 dB -11.41 dB 3:33 06-The River
DR8 -0.53 dB -11.12 dB 3:59 07-Let it Go
DR9 -0.53 dB -11.19 dB 4:15 08-Maybe You're Right
DR10 -0.53 dB -13.86 dB 3:28 09-Bells
DR9 -0.53 dB -10.55 dB 3:04 10-Gillis Mountain
DR8 -0.53 dB -11.03 dB 3:23 11-Forty Days and Nights (Radio Edit)
DR9 -0.53 dB -10.60 dB 3:34 12-Movin' On
DR9 -0.53 dB -11.25 dB 4:04 13-Roving Gypsy Boy (Remix)
––––––––––––––––––––––––––––––––––––––––

Number of tracks: 13
Official DR value: DR9

Samplerate: 44100 Hz
Channels: 2
Bits per sample: 16
Bitrate: 1001 kbps
Codec: FLAC
================================================================================


Exact Audio Copy V0.99 prebeta 4 from 23. January 2008

EAC extraction logfile from 14. June 2009, 13:35

The Rankins / Souvenir Disc 2

Used drive : PLEXTOR DVDR PX-716A Adapter: 2 ID: 0

Read mode : Secure
Utilize accurate stream : Yes
Defeat audio cache : Yes
Make use of C2 pointers : No

Read offset correction : 30
Overread into Lead-In and Lead-Out : No
Fill up missing offset samples with silence : Yes
Delete leading and trailing silent blocks : No
Null samples used in CRC calculations : No
Used interface : Native Win32 interface for Win NT & 2000
Gap handling : Appended to previous track

Used output format : User Defined Encoder
Selected bitrate : 1024 kBit/s
Quality : High
Add ID3 tag : Yes
Command line compressor : C:\Program Files\Exact Audio Copy\FLAC\FLAC.EXE
Additional command line options : -6 -V -T "ARTIST=%a" -T "TITLE=%t" -T "ALBUM=%g" -T "DATE=%y" -T "TRACKNUMBER=%n" -T "GENRE=%m" -T "COMMENT=%e" %s -o %d


TOC of the extracted CD

Track | Start | Length | Start sector | End sector
––––––––––––––––––––––––––––-
1 | 0:00.00 | 4:29.59 | 0 | 20233
2 | 4:29.59 | 2:58.05 | 20234 | 33588
3 | 7:27.64 | 4:10.67 | 33589 | 52405
4 | 11:38.56 | 5:12.24 | 52406 | 75829
5 | 16:51.05 | 3:05.34 | 75830 | 89738
6 | 19:56.39 | 4:37.70 | 89739 | 110583
7 | 24:34.34 | 3:29.68 | 110584 | 126326
8 | 28:04.27 | 5:56.13 | 126327 | 153039
9 | 34:00.40 | 7:50.07 | 153040 | 188296
10 | 41:50.47 | 3:39.10 | 188297 | 204731
11 | 45:29.57 | 4:37.42 | 204732 | 225548


Track 1

Filename C:\Users\Administrator\My Documents\EAC Rips\01. The Rankins - Fare Thee Well Love.wav

Pre-gap length 0:00:02.00

Peak level 91.4 %
Track quality 100.0 %
Test CRC B38FB121
Copy CRC B38FB121
Track not present in AccurateRip database
Copy OK

Track 2

Filename C:\Users\Administrator\My Documents\EAC Rips\02. The Rankins - O Tha Mo Dhuil Ruit (Oh How I Love Thee).wav

Peak level 100.0 %
Track quality 100.0 %
Test CRC B7E4E2BE
Copy CRC B7E4E2BE
Track not present in AccurateRip database
Copy OK

Track 3

Filename C:\Users\Administrator\My Documents\EAC Rips\03. The Rankins - Greenberg Medley.wav

Peak level 94.0 %
Track quality 100.0 %
Test CRC A2E0CA28
Copy CRC A2E0CA28
Track not present in AccurateRip database
Copy OK

Track 4

Filename C:\Users\Administrator\My Documents\EAC Rips\04. The Rankins - Down by the Sally Gardens.wav

Peak level 94.0 %
Track quality 100.0 %
Test CRC 22975E28
Copy CRC 22975E28
Track not present in AccurateRip database
Copy OK

Track 5

Filename C:\Users\Administrator\My Documents\EAC Rips\05. The Rankins - Grey Dusk of Eve (Portobello) (Leis An Lurgainn Remix).wav

Peak level 90.7 %
Track quality 100.0 %
Test CRC 5732211E
Copy CRC 5732211E
Track not present in AccurateRip database
Copy OK

Track 6

Filename C:\Users\Administrator\My Documents\EAC Rips\06. The Rankins - Christy Campbell Medley.wav

Peak level 87.0 %
Track quality 99.9 %
Test CRC 57390E86
Copy CRC 57390E86
Track not present in AccurateRip database
Copy OK

Track 7

Filename C:\Users\Administrator\My Documents\EAC Rips\07. The Rankins - An Innis Aigh (The Happy Isle).wav

Peak level 90.1 %
Track quality 100.0 %
Test CRC 0611A61E
Copy CRC 0611A61E
Track not present in AccurateRip database
Copy OK

Track 8

Filename C:\Users\Administrator\My Documents\EAC Rips\08. The Rankins - Parlour Medley.wav

Peak level 93.9 %
Track quality 100.0 %
Test CRC 2565B9BD
Copy CRC 2565B9BD
Track not present in AccurateRip database
Copy OK

Track 9

Filename C:\Users\Administrator\My Documents\EAC Rips\09. The Rankins - Mull River Shuffle.wav

Peak level 83.9 %
Track quality 100.0 %
Test CRC 6E0BE9BA
Copy CRC 6E0BE9BA
Track not present in AccurateRip database
Copy OK

Track 10

Filename C:\Users\Administrator\My Documents\EAC Rips\10. The Rankins - Fare Well to Lochaber.wav

Peak level 88.8 %
Track quality 99.9 %
Test CRC C234616B
Copy CRC C234616B
Track not present in AccurateRip database
Copy OK

Track 11

Filename C:\Users\Administrator\My Documents\EAC Rips\11. The Rankins - Weddings Wakes and Funerals (Big Mind Radio Mix).wav

Pre-gap length 0:00:05.27

Peak level 93.9 %
Track quality 100.0 %
Test CRC 5CEC1302
Copy CRC 5CEC1302
Track not present in AccurateRip database
Copy OK


None of the tracks are present in the AccurateRip database

No errors occurred

End of status report

[CUETools log; Date: 12.08.2017 0:55:54; Version: 2.1.4]
[CTDB TOCID: 9HsJwfRW73hJ8epbXDo1v1E23xk-] found.
Track | CTDB Status
1 | (3/3) Accurately ripped
2 | (3/3) Accurately ripped
3 | (3/3) Accurately ripped
4 | (3/3) Accurately ripped
5 | (3/3) Accurately ripped
6 | (3/3) Accurately ripped
7 | (3/3) Accurately ripped
8 | (3/3) Accurately ripped
9 | (1/3) Accurately ripped, or (2/3) differs in 161 samples @04:53:41-04:53:42,04:53:58
10 | (3/3) Accurately ripped
11 | (3/3) Accurately ripped
[AccurateRip ID: 00138947-00abffb6-820bbf0b] found.
Track [ CRC | V2 ] Status
01 [9b4d76b1|e87f552f] (2+2/4) Accurately ripped
02 [bdece6fa|0bf8b8f7] (2+2/4) Accurately ripped
03 [d8091b05|ae042a1e] (2+2/4) Accurately ripped
04 [8438f5da|a71d46e3] (2+2/4) Accurately ripped
05 [f5db1ceb|8da16589] (2+2/4) Accurately ripped
06 [07f66032|a70054f0] (2+2/4) Accurately ripped
07 [9633bc98|e56aff09] (2+2/4) Accurately ripped
08 [88bf8d2f|83bdb072] (2+2/4) Accurately ripped
09 [8b09ca08|c64a152a] (0+0/2) No match
10 [27589078|530c8c4e] (2+2/4) Accurately ripped
11 [f8400e82|304ff889] (2+2/4) Accurately ripped

Track Peak [ CRC32 ] [W/O NULL] [ LOG ]
– 100,0 [08AB1155] [288CB86E]
01 91,4 [C3DE26D2] [B38FB121] W/O NULL
02 100,0 [3F57ABB0] [B7E4E2BE] W/O NULL
03 94,0 [C281B7FA] [A2E0CA28] W/O NULL
04 94,0 [4AF42613] [22975E28] W/O NULL
05 90,7 [AED57467] [5732211E] W/O NULL
06 87,0 [AE669D3D] [57390E86] W/O NULL
07 90,1 [3480602B] [0611A61E] W/O NULL
08 93,9 [54A1A651] [2565B9BD] W/O NULL
09 83,9 [42314F5F] [6E0BE9BA] W/O NULL
10 88,8 [B0A16D12] [C234616B] W/O NULL
11 93,9 [4EDD63B5] [5CEC1302] W/O NULL

foobar2000 1.2 / Dynamic Range Meter 1.1.1
log date: 2017-10-29 19:35:00

––––––––––––––––––––––––––––––––––––––––
Analyzed: The Rankins / Souvenir Disc 2
––––––––––––––––––––––––––––––––––––––––

DR Peak RMS Duration Track
––––––––––––––––––––––––––––––––––––––––
DR8 -0.78 dB -11.52 dB 4:30 01-Fare Thee Well Love
DR10 0.00 dB -12.65 dB 2:58 02-O Tha Mo Dhuil Ruit (Oh How I Love Thee)
DR11 -0.53 dB -13.56 dB 4:11 03-Greenberg Medley
DR10 -0.53 dB -12.38 dB 5:12 04-Down by the Sally Gardens
DR9 -0.84 dB -11.86 dB 3:05 05-Grey Dusk of Eve (Portobello) (Leis An Lurgainn Remix)
DR11 -1.21 dB -13.32 dB 4:38 06-Christy Campbell Medley
DR11 -0.90 dB -15.04 dB 3:30 07-An Innis Aigh (The Happy Isle)
DR11 -0.54 dB -13.92 dB 5:56 08-Parlour Medley
DR9 -1.52 dB -13.73 dB 7:50 09-Mull River Shuffle
DR11 -1.03 dB -14.77 dB 3:39 10-Fare Well to Lochaber
DR10 -0.55 dB -12.65 dB 4:38 11-Weddings Wakes and Funerals (Big Mind Radio Mix)
––––––––––––––––––––––––––––––––––––––––

Number of tracks: 11
Official DR value: DR10

Samplerate: 44100 Hz
Channels: 2
Bits per sample: 16
Bitrate: 940 kbps
Codec: FLAC
================================================================================

The Rankins - Souvenir: 1989-1998 (2002) 2CDs

The Rankins - Souvenir: 1989-1998 (2002) 2CDs

All thanks to original releaser

More interesting music in My Blog