Tags
Language
Tags
January 2023
Su Mo Tu We Th Fr Sa
1 2 3 4 5 6 7
8 9 10 11 12 13 14
15 16 17 18 19 20 21
22 23 24 25 26 27 28
29 30 31 1 2 3 4

The Rolling Stones - Flower (1967) [4 Releases]

Posted By: v3122
The Rolling Stones - Flower (1967) [4 Releases]

The Rolling Stones - Flower (1967)
EAC | Flac(Image) + Cue + Log & MP3 CBR 320Kbps
4CD | London, ABKCO, Polydor | ~ 868 or 377 Mb | Artwork(jpg) -> 247 Mb
Blues Rock, Classic Rock, Rock & Roll

~ 1986 Germany Original, London 820 139-2 + 1986 USA Remaster, ABKCO 75092 + 1995 Japan Original, Polydor POCD-1921 + 2002 EU Remaster, ABKCO 8822992 ~

Flowers was dismissed as a rip-off of sorts by some critics, since it took the patchwork bastardization of British releases for the American audience to extremes, gathering stray tracks from the U.K. versions of Aftermath and Between the Buttons, 1966-1967 singles (some of which had already been used on the U.S. editions of Aftermath and Between the Buttons), and a few outtakes. Judged solely by the music, though, it's rather great. "Lady Jane," "Ruby Tuesday," and "Let's Spend the Night Together" are all classics (although they had all been on an LP before); the 1966 single "Mother's Little Helper," a Top Ten hit, is also terrific; and "Have You Seen Your Mother Baby, Standing in the Shadow?," making its first album appearance, is the early Stones at their most surrealistic and angst-ridden. A lot of the rest of the cuts rate among their most outstanding 1966-1967 work. "Out of Time" is hit-worthy in its own right (and in fact topped the British charts in an inferior cover by Chris Farlowe); "Backstreet Girl," with its European waltz flavor, is one of the great underrated Stones songs. The same goes for the psychedelic Bo Diddley of "Please Go Home," and the acoustic, pensively sardonic "Sittin' on a Fence," with its strong Appalachian flavor. Almost every track is strong, so if you're serious about your Stones, don't pass this by just because a bunch of people slag it as an exploitative marketing trick (which it is). There's some outstanding material you can't get anywhere else, and the album as a whole plays very well from end to end.

by Richie Unterberger, allmusic
The Rolling Stones - Flower (1967):

The Rolling Stones - Flower (1967) [4 Releases]

Tracklist CD1 - Flowers (1986 Germany Original, London 820 139-2):

1. Ruby Tuesday (3:16)
2. Have You Seen Your Mother, Baby, Standing In The Shadow (2:33)
3. Let's Spend The Night Together (3:37)
4. Lady Jane (3:08)
5. Out Of Time (3:42)
6. My Girl (2:39)
7. Backstreet Girl (3:24)
8. Please Go Home (3:14)
9. Mother's Little Helper (2:45)
10. Take It Or Leave It (2:46)
11. Ride On, Baby (2:53)
12. Sittin' On A Fence (3:03)

Exact Audio Copy V1.0 beta 3 from 29. August 2011

EAC extraction logfile from 27. June 2013, 0:59

The Rolling Stones / Flowers (5th West German Pressing)

Used drive : _NEC DVD+-RW ND-6500A Adapter: 1 ID: 0

Read mode : Secure
Utilize accurate stream : Yes
Defeat audio cache : Yes
Make use of C2 pointers : No

Read offset correction : 48
Overread into Lead-In and Lead-Out : No
Fill up missing offset samples with silence : Yes
Delete leading and trailing silent blocks : No
Null samples used in CRC calculations : Yes
Used interface : Native Win32 interface for Win NT & 2000

Used output format : User Defined Encoder
Selected bitrate : 768 kBit/s
Quality : High
Add ID3 tag : No
Command line compressor : C:\Program Files\Exact Audio Copy\FLAC\FLAC.EXE
Additional command line options : -V -8 -T "Date=%year%" -T "Genre=%genre%" %source%


TOC of the extracted CD

Track | Start | Length | Start sector | End sector
––––––––––––––––––––––––––––-
1 | 0:00.32 | 3:21.63 | 32 | 15169
2 | 3:22.20 | 2:38.22 | 15170 | 27041
3 | 6:00.42 | 3:44.53 | 27042 | 43894
4 | 9:45.20 | 3:12.00 | 43895 | 58294
5 | 12:57.20 | 3:46.27 | 58295 | 75271
6 | 16:43.47 | 2:42.33 | 75272 | 87454
7 | 19:26.05 | 3:29.02 | 87455 | 103131
8 | 22:55.07 | 3:19.23 | 103132 | 118079
9 | 26:14.30 | 2:49.30 | 118080 | 130784
10 | 29:03.60 | 2:50.52 | 130785 | 143586
11 | 31:54.37 | 2:58.00 | 143587 | 156936
12 | 34:52.37 | 3:03.05 | 156937 | 170666


Range status and errors

Selected range

Filename E:\RUTRA\1967 - Flowers\The Rolling Stones - Flowers (5th West German Pressing).wav

Peak level 93.2 %
Extraction speed 3.2 X
Range quality 99.9 %
Test CRC 9950C3EF
Copy CRC 9950C3EF
Copy OK

No errors occurred


AccurateRip summary

Track 1 accurately ripped (confidence 17) [DC98C53C] (AR v1)
Track 2 accurately ripped (confidence 17) [F8EF4559] (AR v1)
Track 3 accurately ripped (confidence 17) [7433CB02] (AR v1)
Track 4 accurately ripped (confidence 17) [25500B03] (AR v1)
Track 5 accurately ripped (confidence 17) [ED0F3C2F] (AR v1)
Track 6 accurately ripped (confidence 17) [486179B7] (AR v1)
Track 7 accurately ripped (confidence 17) [2D454692] (AR v1)
Track 8 accurately ripped (confidence 17) [9D4D05D2] (AR v1)
Track 9 accurately ripped (confidence 17) [A8B1C88C] (AR v1)
Track 10 accurately ripped (confidence 17) [1E1581D6] (AR v1)
Track 11 accurately ripped (confidence 17) [EDAA72F3] (AR v1)
Track 12 accurately ripped (confidence 17) [8D6C0B60] (AR v1)

All tracks accurately ripped

End of status report

==== Log checksum 12F2B952618E096080A9DCF8CA5379F61B0973B90B51077BE541E499E15B65A8 ====


[CUETools log; Date: 10.06.2017 0:19:20; Version: 2.1.5]
Pregap length 00:00:32.
[CTDB TOCID: fy4geISWLjF9rU.M.PhXhRnOaqc-] found.
Track | CTDB Status
1 | (29/31) Accurately ripped
2 | (30/31) Accurately ripped
3 | (30/31) Accurately ripped
4 | (30/31) Accurately ripped
5 | (30/31) Accurately ripped
6 | (30/31) Accurately ripped
7 | (30/31) Accurately ripped
8 | (31/31) Accurately ripped
9 | (31/31) Accurately ripped
10 | (30/31) Accurately ripped
11 | (30/31) Accurately ripped
12 | (30/31) Accurately ripped
[AccurateRip ID: 00113f6d-00a08348-aa08e30c] found.
Track [ CRC | V2 ] Status
01 [dc98c53c|c948d81d] (17+12/56) Accurately ripped
02 [f8ef4559|0bc6c594] (17+11/57) Accurately ripped
03 [7433cb02|4bdf0d8b] (17+11/57) Accurately ripped
04 [25500b03|3a70bcc5] (17+11/57) Accurately ripped
05 [ed0f3c2f|a8a0c948] (17+11/57) Accurately ripped
06 [486179b7|4f0a7c3d] (17+10/56) Accurately ripped
07 [2d454692|88cf6abf] (17+10/56) Accurately ripped
08 [9d4d05d2|7e2c0996] (17+10/56) Accurately ripped
09 [a8b1c88c|6d4f096c] (17+10/56) Accurately ripped
10 [1e1581d6|f41b95f4] (17+10/56) Accurately ripped
11 [edaa72f3|7d7736b7] (17+10/55) Accurately ripped
12 [8d6c0b60|595756ce] (17+10/56) Accurately ripped
Offsetted by -374:
01 [9e9cfe08] (09/56) Accurately ripped
02 [69fa6df6] (10/57) Accurately ripped
03 [239a0188] (10/57) Accurately ripped
04 [083308e1] (10/57) Accurately ripped
05 [8fd7225a] (10/57) Accurately ripped
06 [2e22f806] (10/56) Accurately ripped
07 [aa80673a] (10/56) Accurately ripped
08 [ecc489c3] (10/56) Accurately ripped
09 [f63559a3] (10/56) Accurately ripped
10 [a10c3bf0] (10/56) Accurately ripped
11 [6ed85cfd] (09/55) Accurately ripped
12 [b8f2c66b] (10/56) Accurately ripped
Offsetted by -26:
01 [3eff2fcf] (00/56) No match
02 [c055c14c] (02/57) Accurately ripped
03 [0ac89259] (00/57) No match (V2 was not tested)
04 [f2943251] (00/57) No match
05 [51c3e5da] (00/57) No match
06 [0eb10c5e] (00/56) No match
07 [5582383e] (00/56) No match
08 [ce54303d] (00/56) No match
09 [48037ff2] (00/56) No match
10 [5fc5c257] (00/56) No match
11 [12fff02b] (00/55) No match
12 [11013411] (00/56) No match
Offsetted by 472:
01 [5717b655] (00/56) No match (V2 was not tested)
02 [01ce3305] (00/57) No match
03 [d8ea5a7c] (00/57) No match
04 [6cec3e9f] (02/57) Accurately ripped
05 [abc4dc13] (00/57) No match (V2 was not tested)
06 [bf446486] (02/56) Accurately ripped
07 [a38e7a17] (02/56) Accurately ripped
08 [32e02c5e] (02/56) Accurately ripped
09 [02fb9659] (02/56) Accurately ripped
10 [03d60bec] (02/56) Accurately ripped
11 [792626af] (02/55) Accurately ripped
12 [24411a02] (02/56) Accurately ripped

Track Peak [ CRC32 ] [W/O NULL] [ LOG ]
– 93,2 [9950C3EF] [5C459CCF] CRC32
01 90,6 [33A10F1F] [2375870C]
02 85,4 [E459767A] [8076613D]
03 86,1 [79BC9815] [217439B4]
04 93,2 [F3207013] [1D5DD7D3]
05 87,4 [647B31CD] [A9442E41]
06 84,0 [4225F883] [533C0AD4]
07 72,7 [4762C223] [28059DAE]
08 89,7 [4569D4DF] [50E57CDD]
09 93,1 [040EE55B] [7797624E]
10 86,4 [9DE80B3D] [F6E455E8]
11 93,2 [752EA32E] [2EF40625]
12 77,6 [1489EEDC] [BF721CF0]


The Rolling Stones - Flower (1967) [4 Releases]

Tracklist CD2 - Flowers (1986 USA Remaster, ABKCO 75092):

1. Ruby Tuesday (3:18)
2. Have You Seen Your Mother, Baby, Standing In The Shadow? (2:36)
3. Let's Spend The Night Together (3:40)
4. Lady Jane (3:12)
5. Out Of Time (3:45)
6. My Girl (2:42)
7. Back Street Girl (3:29)
8. Please Go Home (3:20)
9. Mother's Little Helper (2:48)
10. Take It Or Leave It (2:51)
11. Ride On, Baby (2:56)
12. Sittin' On A Fence (3:03)

Exact Audio Copy V1.0 beta 3 from 29. August 2011

EAC extraction logfile from 17. March 2013, 0:28

The Rolling Stones / Flowers (ABKCO 75092)

Used drive : PLEXTOR DVDR PX-891SA Adapter: 1 ID: 0

Read mode : Secure
Utilize accurate stream : Yes
Defeat audio cache : Yes
Make use of C2 pointers : No

Read offset correction : 6
Overread into Lead-In and Lead-Out : No
Fill up missing offset samples with silence : Yes
Delete leading and trailing silent blocks : No
Null samples used in CRC calculations : Yes
Used interface : Native Win32 interface for Win NT & 2000

Used output format : User Defined Encoder
Selected bitrate : 1024 kBit/s
Quality : High
Add ID3 tag : No
Command line compressor : C:\Program Files\Exact Audio Copy\Flac\flac.exe
Additional command line options : -V -8 -T "Genre=%genre%" -T "Artist=%artist%" -T "Title=%title%" -T "Album=%albumtitle%" -T "Date=%year%" -T "Tracknumber=%tracknr%" -T "Comment=%comment%" %source%


TOC of the extracted CD

Track | Start | Length | Start sector | End sector
––––––––––––––––––––––––––––-
1 | 0:00.00 | 3:18.60 | 0 | 14909
2 | 3:18.60 | 2:36.45 | 14910 | 26654
3 | 5:55.30 | 3:40.10 | 26655 | 43164
4 | 9:35.40 | 3:12.42 | 43165 | 57606
5 | 12:48.07 | 3:45.40 | 57607 | 74521
6 | 16:33.47 | 2:42.55 | 74522 | 86726
7 | 19:16.27 | 3:29.53 | 86727 | 102454
8 | 22:46.05 | 3:20.05 | 102455 | 117459
9 | 26:06.10 | 2:48.65 | 117460 | 130124
10 | 28:55.00 | 2:51.70 | 130125 | 143019
11 | 31:46.70 | 2:56.62 | 143020 | 156281
12 | 34:43.57 | 3:03.05 | 156282 | 170011


Range status and errors

Selected range

Filename H:\dafnaplus\1967 Flowers [ABKCO 75092]\The Rolling Stones - Flowers (ABKCO 75092).wav

Peak level 100.0 %
Extraction speed 7.7 X
Range quality 100.0 %
Test CRC 3BBF9A8A
Copy CRC 3BBF9A8A
Copy OK

No errors occurred


AccurateRip summary

Track 1 accurately ripped (confidence 3) [2E3D286B] (AR v2)
Track 2 accurately ripped (confidence 3) [FB97CD29] (AR v2)
Track 3 accurately ripped (confidence 3) [EE217CED] (AR v2)
Track 4 accurately ripped (confidence 3) [5DC9CAA9] (AR v2)
Track 5 accurately ripped (confidence 3) [8815969B] (AR v2)
Track 6 accurately ripped (confidence 3) [F5002582] (AR v2)
Track 7 accurately ripped (confidence 3) [08C5A4E1] (AR v2)
Track 8 accurately ripped (confidence 3) [151A86D0] (AR v2)
Track 9 accurately ripped (confidence 3) [948E0BCB] (AR v2)
Track 10 accurately ripped (confidence 3) [DD08D28D] (AR v2)
Track 11 accurately ripped (confidence 3) [59CB1AE6] (AR v2)
Track 12 accurately ripped (confidence 3) [2560BC9B] (AR v2)

All tracks accurately ripped

End of status report

==== Log checksum A8A7AE4058BFE953DA55090E94A2D775EDC38445013FEBE303FFE73F27124E6C ====


[CUETools log; Date: 10.06.2017 0:18:48; Version: 2.1.5]
[CTDB TOCID: jFSIZzvy2x7YbXozUnCduAjocpk-] found.
Track | CTDB Status
1 | (38/38) Accurately ripped
2 | (38/38) Accurately ripped
3 | (38/38) Accurately ripped
4 | (38/38) Accurately ripped
5 | (38/38) Accurately ripped
6 | (37/38) Accurately ripped
7 | (38/38) Accurately ripped
8 | (38/38) Accurately ripped
9 | (37/38) Accurately ripped
10 | (38/38) Accurately ripped
11 | (38/38) Accurately ripped
12 | (38/38) Accurately ripped
[AccurateRip ID: 0011227c-009fa134-b308da0c] found.
Track [ CRC | V2 ] Status
01 [fccb5298|2e3d286b] (25+16/76) Accurately ripped
02 [6eab5698|fb97cd29] (24+16/75) Accurately ripped
03 [97d68854|ee217ced] (25+16/76) Accurately ripped
04 [29be8ec7|5dc9caa9] (24+16/75) Accurately ripped
05 [3ef7841e|8815969b] (25+16/76) Accurately ripped
06 [d5e8d5b0|f5002582] (24+16/76) Accurately ripped
07 [946bfd40|08c5a4e1] (26+16/78) Accurately ripped
08 [0db48a22|151a86d0] (25+16/76) Accurately ripped
09 [043fe7e4|948e0bcb] (25+16/74) Accurately ripped
10 [676ec3c4|dd08d28d] (25+16/76) Accurately ripped
11 [ff3c8447|59cb1ae6] (25+16/77) Accurately ripped
12 [71de4f86|2560bc9b] (26+16/78) Accurately ripped
Offsetted by -669:
01 [c36361b7] (11/76) Accurately ripped
02 [5d6109b3] (11/75) Accurately ripped
03 [3d01dc6e] (11/76) Accurately ripped
04 [fafb898f] (11/75) Accurately ripped
05 [9654b290] (10/76) Accurately ripped
06 [af50c016] (11/76) Accurately ripped
07 [d722c5f3] (11/78) Accurately ripped
08 [d8431535] (11/76) Accurately ripped
09 [a4394a2d] (11/74) Accurately ripped
10 [9ab2ea90] (11/76) Accurately ripped
11 [74bd05cc] (11/77) Accurately ripped
12 [be7e1c58] (11/78) Accurately ripped
Offsetted by -67:
01 [81c4a6c4] (03/76) Accurately ripped
02 [80d9ad3e] (03/75) Accurately ripped
03 [ec6369e3] (03/76) Accurately ripped
04 [2ad4b343] (03/75) Accurately ripped
05 [6c4802ac] (04/76) Accurately ripped
06 [17cf1238] (04/76) Accurately ripped
07 [5382ebf3] (04/78) Accurately ripped
08 [5c9fbd8b] (04/76) Accurately ripped
09 [542e4337] (04/74) Accurately ripped
10 [303c64e3] (04/76) Accurately ripped
11 [502fa2bd] (04/77) Accurately ripped
12 [67105ea5] (03/78) Accurately ripped
Offsetted by 149:
01 [aa423c3c] (03/76) Accurately ripped
02 [e577a7cf] (03/75) Accurately ripped
03 [9c52a09a] (03/76) Accurately ripped
04 [2c5ca457] (03/75) Accurately ripped
05 [231126de] (03/76) Accurately ripped
06 [80c3d967] (03/76) Accurately ripped
07 [0ae81f1d] (03/78) Accurately ripped
08 [d16a2b8a] (03/76) Accurately ripped
09 [f375e3d8] (03/74) Accurately ripped
10 [db680c40] (03/76) Accurately ripped
11 [4919e810] (03/77) Accurately ripped
12 [689283c0] (03/78) Accurately ripped
Offsetted by 166:
01 [d32433e3] (02/76) Accurately ripped
02 [80f93455] (02/75) Accurately ripped
03 [222a17ad] (02/76) Accurately ripped
04 [d07ab0c8] (02/75) Accurately ripped
05 [5ae0f3b4] (02/76) Accurately ripped
06 [98fdd449] (02/76) Accurately ripped
07 [74a11a4a] (02/78) Accurately ripped
08 [1e781159] (02/76) Accurately ripped
09 [5169cb6f] (02/74) Accurately ripped
10 [35e0e5de] (02/76) Accurately ripped
11 [76bea596] (02/77) Accurately ripped
12 [ab2ffd6c] (03/78) Accurately ripped
Offsetted by -244:
01 [7bc7b338] (00/76) No match (V2 was not tested)
02 [fd445f13] (00/75) No match (V2 was not tested)
03 [f18c763c] (00/76) No match (V2 was not tested)
04 [2096a89b] (00/75) No match (V2 was not tested)
05 [6809c874] (00/76) No match (V2 was not tested)
06 [315832c9] (00/76) No match (V2 was not tested)
07 [df629f58] (00/78) No match (V2 was not tested)
08 [767ddb24] (00/76) No match (V2 was not tested)
09 [9420e553] (00/74) No match (V2 was not tested)
10 [de08935b] (00/76) No match (V2 was not tested)
11 [74e39baf] (00/77) No match (V2 was not tested)
12 [66459b0d] (00/78) No match (V2 was not tested)

Track Peak [ CRC32 ] [W/O NULL] [ LOG ]
– 100,0 [3BBF9A8A] [15FF707F] CRC32
01 82,6 [6EBD9885] [060ED029]
02 87,0 [DD3E629D] [83A8EF62]
03 92,3 [41C166BD] [80C39ED7]
04 70,6 [85DD8FEF] [2C818C72]
05 81,1 [38B038C2] [12C7CDA3]
06 100,0 [E89BD862] [CBA96DA3]
07 64,0 [DB00569C] [2B8F3B91]
08 83,1 [AB9FCA4B] [58F84A42]
09 82,3 [5D62C695] [46847C1E]
10 80,7 [E6C202D5] [390159B5]
11 100,0 [57AD0779] [BEE8F352]
12 75,9 [4740A5CC] [77735FE3]


The Rolling Stones - Flower (1967) [4 Releases]

Tracklist CD3 - Flowers (1995 Japan Original, Polydor POCD-1921):

1. Ruby Tuesday (3:17)
2. Have You Seen Your Mother, Baby, Standing In The Shadow (2:34)
3. Let's Spend The Night Together (3:38)
4. Lady Jane (3:08)
5. Out Of Time (3:44)
6. My Girl (2:40)
7. Backstreet Girl (3:25)
8. Please Go Home (3:16)
9. Mother's Little Helper (2:44)
10. Take It Or Leave It (2:46)
11. Ride On, Baby (2:54)
12. Sittin' On A Fence (3:04)

Exact Audio Copy V1.0 beta 3 from 29. August 2011

EAC extraction logfile from 7. April 2013, 23:18

The Rolling Stones / Flowers (POCD-1921)

Used drive : PLEXTOR DVDR PX-891SA Adapter: 1 ID: 0

Read mode : Secure
Utilize accurate stream : Yes
Defeat audio cache : Yes
Make use of C2 pointers : No

Read offset correction : 6
Overread into Lead-In and Lead-Out : No
Fill up missing offset samples with silence : Yes
Delete leading and trailing silent blocks : No
Null samples used in CRC calculations : Yes
Used interface : Native Win32 interface for Win NT & 2000

Used output format : User Defined Encoder
Selected bitrate : 1024 kBit/s
Quality : High
Add ID3 tag : No
Command line compressor : C:\Program Files\Exact Audio Copy\Flac\flac.exe
Additional command line options : -V -8 -T "Genre=%genre%" -T "Artist=%artist%" -T "Title=%title%" -T "Album=%albumtitle%" -T "Date=%year%" -T "Tracknumber=%tracknr%" -T "Comment=%comment%" %source%


TOC of the extracted CD

Track | Start | Length | Start sector | End sector
––––––––––––––––––––––––––––-
1 | 0:00.32 | 3:22.03 | 32 | 15184
2 | 3:22.35 | 2:38.30 | 15185 | 27064
3 | 6:00.65 | 3:44.65 | 27065 | 43929
4 | 9:45.55 | 3:12.00 | 43930 | 58329
5 | 12:57.55 | 3:46.10 | 58330 | 75289
6 | 16:43.65 | 2:42.50 | 75290 | 87489
7 | 19:26.40 | 3:28.67 | 87490 | 103156
8 | 22:55.32 | 3:19.43 | 103157 | 118124
9 | 26:15.00 | 2:49.07 | 118125 | 130806
10 | 29:04.07 | 2:50.58 | 130807 | 143614
11 | 31:54.65 | 2:57.70 | 143615 | 156959
12 | 34:52.60 | 3:03.60 | 156960 | 170744


Range status and errors

Selected range

Filename H:\dafnaplus\The Rolling Stones - Flowers [Polydor POCD-1921]\The Rolling Stones - Flowers (POCD-1921).wav

Peak level 100.0 %
Extraction speed 7.3 X
Range quality 100.0 %
Test CRC B2D3E64D
Copy CRC B2D3E64D
Copy OK

No errors occurred


AccurateRip summary

Track 1 cannot be verified as accurate (confidence 1) [0DE32593], AccurateRip returned [12F94605] (AR v2)
Track 2 cannot be verified as accurate (confidence 1) [8D06FD4F], AccurateRip returned [482853DF] (AR v2)
Track 3 cannot be verified as accurate (confidence 1) [1858619E], AccurateRip returned [0569CE78] (AR v2)
Track 4 cannot be verified as accurate (confidence 1) [668BC508], AccurateRip returned [E188A853] (AR v2)
Track 5 cannot be verified as accurate (confidence 1) [AA249F84], AccurateRip returned [E46900E0] (AR v2)
Track 6 cannot be verified as accurate (confidence 1) [1895682D], AccurateRip returned [11481350] (AR v2)
Track 7 cannot be verified as accurate (confidence 1) [876D527F], AccurateRip returned [C80E4AB8] (AR v2)
Track 8 cannot be verified as accurate (confidence 1) [126DE924], AccurateRip returned [313DD21B] (AR v2)
Track 9 cannot be verified as accurate (confidence 1) [3DB1F656], AccurateRip returned [4B614BD3] (AR v2)
Track 10 cannot be verified as accurate (confidence 1) [146CC749], AccurateRip returned [B2D70E7F] (AR v2)
Track 11 cannot be verified as accurate (confidence 1) [FD053F0A], AccurateRip returned [88E88585] (AR v2)
Track 12 cannot be verified as accurate (confidence 1) [566FE65B], AccurateRip returned [98BC8DBA] (AR v2)

No tracks could be verified as accurate
You may have a different pressing from the one(s) in the database

End of status report

==== Log checksum 9A7F1EBAF10839B1085F949FCF03F2009F96EF92CBF9F0EBBB52C63D1D8E1920 ====


[CUETools log; Date: 10.06.2017 0:19:31; Version: 2.1.5]
Pregap length 00:00:32.
[CTDB TOCID: HlpC9VzrFIQU.t.EU4d3fcYuoQc-] found.
Track | CTDB Status
1 | (2/2) Accurately ripped
2 | (2/2) Accurately ripped
3 | (2/2) Accurately ripped
4 | (2/2) Accurately ripped
5 | (2/2) Accurately ripped
6 | (2/2) Accurately ripped
7 | (2/2) Accurately ripped
8 | (2/2) Accurately ripped
9 | (2/2) Accurately ripped
10 | (2/2) Accurately ripped
11 | (2/2) Accurately ripped
12 | (2/2) Accurately ripped
[AccurateRip ID: 001140eb-00a08fbe-ac08e40c] found.
Track [ CRC | V2 ] Status
01 [ea0a6967|0de32593] (0+2/2) Accurately ripped
02 [d728a7b8|8d06fd4f] (0+2/2) Accurately ripped
03 [7b648318|1858619e] (0+2/2) Accurately ripped
04 [180e654b|668bc508] (0+2/2) Accurately ripped
05 [9aba84b5|aa249f84] (0+2/2) Accurately ripped
06 [58d46322|1895682d] (0+2/2) Accurately ripped
07 [3908b695|876d527f] (0+2/2) Accurately ripped
08 [6c2dfa33|126de924] (0+2/2) Accurately ripped
09 [e2f6d48a|3db1f656] (0+2/2) Accurately ripped
10 [d5fa9744|146cc749] (0+2/2) Accurately ripped
11 [845bfbc6|fd053f0a] (0+2/2) Accurately ripped
12 [31c3b4f5|566fe65b] (0+2/2) Accurately ripped

Track Peak [ CRC32 ] [W/O NULL] [ LOG ]
– 100,0 [B2D3E64D] [26DE11F7] CRC32
01 97,1 [E3C53727] [DF745F80]
02 91,6 [5E865253] [5C42DA6A]
03 92,3 [BF6E75A3] [20A44000]
04 100,0 [7DB5C136] [9910AF1F]
05 93,7 [0C817A9F] [E779F5E3]
06 90,0 [933B9462] [B3A30BCE]
07 78,0 [CFBCC135] [5B3C6B4A]
08 96,2 [606E66A5] [D6A6CD33]
09 99,8 [80850135] [5E4F76C4]
10 92,7 [43D2A1C9] [075EDC4D]
11 100,0 [7DFD6DD4] [76372BBD]
12 83,2 [595A1C06] [D58298DC]


The Rolling Stones - Flower (1967) [4 Releases]

Tracklist CD4 - Flowers (2002 EU Remaster, ABKCO 8822992):

1. Ruby Tuesday (3:16)
2. Have You Seen Your Mother Baby, Standing In The Shadow? (2:34)
3. Let's Spend The Night Together (3:36)
4. Lady Jane (3:08)
5. Out Of Time (3:41)
6. My Girl (2:38)
7. Backstreet Girl (3:27)
8. Please Go Home (3:17)
9. Mother's Little Helper (2:47)
10. Take It Or Leave It (2:46)
11. Ride On, Baby (2:53)
12. Sittin' On A Fence (3:03)

Exact Audio Copy V1.0 beta 3 from 29. August 2011

EAC extraction logfile from 14. July 2013, 13:40

The Rolling Stones / Flowers (SACD-hybrid)

Used drive : _NEC DVD+-RW ND-6650A Adapter: 1 ID: 0

Read mode : Secure
Utilize accurate stream : Yes
Defeat audio cache : Yes
Make use of C2 pointers : No

Read offset correction : 48
Overread into Lead-In and Lead-Out : No
Fill up missing offset samples with silence : Yes
Delete leading and trailing silent blocks : No
Null samples used in CRC calculations : Yes
Used interface : Native Win32 interface for Win NT & 2000

Used output format : User Defined Encoder
Selected bitrate : 768 kBit/s
Quality : High
Add ID3 tag : No
Command line compressor : C:\Program Files\Exact Audio Copy\FLAC\FLAC.EXE
Additional command line options : -V -8 -T "Genre=%genre%" -T "Artist=%artist%" -T "Title=%title%" -T "Album=%albumtitle%" -T "Date=%year%" -T "Tracknumber=%tracknr%" -T "Comment=%comment%" %source%


TOC of the extracted CD

Track | Start | Length | Start sector | End sector
––––––––––––––––––––––––––––-
1 | 0:00.00 | 3:17.40 | 0 | 14814
2 | 3:17.40 | 2:35.30 | 14815 | 26469
3 | 5:52.70 | 3:38.55 | 26470 | 42874
4 | 9:31.50 | 3:08.60 | 42875 | 57034
5 | 12:40.35 | 3:42.57 | 57035 | 73741
6 | 16:23.17 | 2:39.20 | 73742 | 85686
7 | 19:02.37 | 3:26.58 | 85687 | 101194
8 | 22:29.20 | 3:19.37 | 101195 | 116156
9 | 25:48.57 | 2:47.00 | 116157 | 128681
10 | 28:35.57 | 2:47.55 | 128682 | 141261
11 | 31:23.37 | 2:53.58 | 141262 | 154294
12 | 34:17.20 | 3:02.60 | 154295 | 168004


Range status and errors

Selected range

Filename C:\RUTRA\1967 - Flowers (SACD-hybrid)\The Rolling Stones - Flowers (SACD-hybrid).wav

Peak level 98.7 %
Extraction speed 3.4 X
Range quality 100.0 %
Test CRC 17BEBC92
Copy CRC 17BEBC92
Copy OK

No errors occurred


AccurateRip summary

Track 1 accurately ripped (confidence 2) [958B2D6C] (AR v2)
Track 2 accurately ripped (confidence 2) [3817F49F] (AR v2)
Track 3 accurately ripped (confidence 2) [E73B0A81] (AR v2)
Track 4 accurately ripped (confidence 2) [A34B7DFD] (AR v2)
Track 5 accurately ripped (confidence 2) [54227255] (AR v2)
Track 6 accurately ripped (confidence 2) [FCC95AE0] (AR v2)
Track 7 accurately ripped (confidence 2) [F80D8F0B] (AR v2)
Track 8 accurately ripped (confidence 2) [DA8DE1D1] (AR v2)
Track 9 accurately ripped (confidence 2) [C56C9EB4] (AR v2)
Track 10 accurately ripped (confidence 2) [75B9D7BA] (AR v2)
Track 11 accurately ripped (confidence 2) [46B8E51A] (AR v2)
Track 12 accurately ripped (confidence 2) [E23DDB4F] (AR v2)

All tracks accurately ripped

End of status report

==== Log checksum D9E0C9F5AEFF837FAB8764CAD3B3DD53F70C93D93082E82D526977A28C1EA173 ====


[CUETools log; Date: 10.06.2017 0:19:06; Version: 2.1.5]
[CTDB TOCID: XsBDe0EInDR0BvLBVHX5r8MFy7w-] found.
Track | CTDB Status
1 | (141/141) Accurately ripped
2 | (141/141) Accurately ripped
3 | (141/141) Accurately ripped
4 | (141/141) Accurately ripped
5 | (141/141) Accurately ripped
6 | (141/141) Accurately ripped
7 | (140/141) Accurately ripped
8 | (138/141) Accurately ripped
9 | (139/141) Accurately ripped
10 | (141/141) Accurately ripped
11 | (141/141) Accurately ripped
12 | (138/141) Accurately ripped
[AccurateRip ID: 0010f0cc-009dc3b9-aa08c00c] found.
Track [ CRC | V2 ] Status
01 [f354d340|958b2d6c] (023+032/222) Accurately ripped
02 [6aceaea8|3817f49f] (023+032/221) Accurately ripped
03 [3f557da0|e73b0a81] (023+032/219) Accurately ripped
04 [792ff0de|a34b7dfd] (023+032/219) Accurately ripped
05 [36e5ef67|54227255] (024+032/221) Accurately ripped
06 [48f67e09|fcc95ae0] (024+032/221) Accurately ripped
07 [0f93bacc|f80d8f0b] (024+032/221) Accurately ripped
08 [610194bc|da8de1d1] (022+032/218) Accurately ripped
09 [a1cb47ae|c56c9eb4] (023+032/217) Accurately ripped
10 [f0585b1b|75b9d7ba] (023+032/216) Accurately ripped
11 [1bea468d|46b8e51a] (024+032/216) Accurately ripped
12 [837a1a59|e23ddb4f] (022+032/211) Accurately ripped
Offsetted by -2123:
01 [6b3a9412] (005/222) Accurately ripped
02 [5b0d94a6] (005/221) Accurately ripped
03 [d17ea213] (005/219) Accurately ripped
04 [a8704639] (005/219) Accurately ripped
05 [d08abc23] (005/221) Accurately ripped
06 [ad9bfd6c] (005/221) Accurately ripped
07 [72a779fa] (005/221) Accurately ripped
08 [d3a5fa07] (005/218) Accurately ripped
09 [869e701f] (005/217) Accurately ripped
10 [fa897b81] (005/216) Accurately ripped
11 [d3e5e673] (005/216) Accurately ripped
12 [cd87bde0] (004/211) Accurately ripped
Offsetted by -664:
01 [050e2750] (012/222) Accurately ripped
02 [78732d18] (012/221) Accurately ripped
03 [15433f78] (012/219) Accurately ripped
04 [dc9da7f6] (012/219) Accurately ripped
05 [66598247] (012/221) Accurately ripped
06 [b299cb61] (013/221) Accurately ripped
07 [411666bc] (012/221) Accurately ripped
08 [1e523f54] (012/218) Accurately ripped
09 [d4dcf7f6] (012/217) Accurately ripped
10 [e6c03acb] (012/216) Accurately ripped
11 [10b9c23d] (012/216) Accurately ripped
12 [a1642481] (010/211) Accurately ripped
Offsetted by -658:
01 [2cfdd40c] (002/222) Accurately ripped
02 [07bf91bc] (002/221) Accurately ripped
03 [128efaa2] (002/219) Accurately ripped
04 [558c78d0] (002/219) Accurately ripped
05 [c1ae0e0f] (002/221) Accurately ripped
06 [9b48e5ab] (002/221) Accurately ripped
07 [2ee7ba00] (002/221) Accurately ripped
08 [ee58754e] (002/218) Accurately ripped
09 [04357bc4] (002/217) Accurately ripped
10 [19baaa1f] (002/216) Accurately ripped
11 [ed5b5a91] (002/216) Accurately ripped
12 [9718c657] (002/211) Accurately ripped
Offsetted by -122:
01 [71f61afc] (014/222) Accurately ripped
02 [0912b04c] (014/221) Accurately ripped
03 [cba6f54a] (014/219) Accurately ripped
04 [338d5a38] (014/219) Accurately ripped
05 [4b2ed52f] (014/221) Accurately ripped
06 [cdb8bcd3] (014/221) Accurately ripped
07 [2bf37310] (014/221) Accurately ripped
08 [30834b36] (014/218) Accurately ripped
09 [346e24fc] (014/217) Accurately ripped
10 [e3c9836f] (014/216) Accurately ripped
11 [4069d7e1] (014/216) Accurately ripped
12 [aa213faf] (013/211) Accurately ripped
Offsetted by 490:
01 [5b74ede4] (009/222) Accurately ripped
02 [2182c9a4] (009/221) Accurately ripped
03 [b7d38806] (009/219) Accurately ripped
04 [62b49114] (009/219) Accurately ripped
05 [aede86df] (009/221) Accurately ripped
06 [837d364f] (009/221) Accurately ripped
07 [ed5aa028] (009/221) Accurately ripped
08 [12fcccd2] (009/218) Accurately ripped
09 [11b2a910] (009/217) Accurately ripped
10 [3391dee7] (009/216) Accurately ripped
11 [28cc8959] (009/216) Accurately ripped
12 [9019baf3] (009/211) Accurately ripped
Offsetted by 520:
01 [23234d90] (033/222) Accurately ripped
02 [ee00c0d8] (033/221) Accurately ripped
03 [aa4e2fd8] (033/219) Accurately ripped
04 [bf5ea556] (033/219) Accurately ripped
05 [778541c7] (033/221) Accurately ripped
06 [0ee8b9c1] (033/221) Accurately ripped
07 [7fcf36d8] (034/221) Accurately ripped
08 [2249db78] (033/218) Accurately ripped
09 [fe6d3c16] (033/217) Accurately ripped
10 [32760b8b] (033/216) Accurately ripped
11 [77f482fd] (032/216) Accurately ripped
12 [5ca0e421] (033/211) Accurately ripped
Offsetted by -676:
01 [b52ecdd8] (000/222) No match (V2 was not tested)
02 [59da63d0] (000/221) No match (V2 was not tested)
03 [1aabc924] (000/219) No match (V2 was not tested)
04 [eac00642] (000/219) No match (V2 was not tested)
05 [afb06ab7] (000/221) No match (V2 was not tested)
06 [e13b96cd] (000/221) No match (V2 was not tested)
07 [6573c034] (000/221) No match (V2 was not tested)
08 [7e45d360] (000/218) No match (V2 was not tested)
09 [762bf05a] (000/217) No match (V2 was not tested)
10 [80cb5c23] (000/216) No match (V2 was not tested)
11 [57769195] (000/216) No match (V2 was not tested)
12 [b5fae0d5] (000/211) No match (V2 was not tested)
Offsetted by -541:
01 [37bf7c5e] (000/222) No match (V2 was not tested)
02 [f2113c3a] (000/221) No match (V2 was not tested)
03 [5dd3bc55] (000/219) No match (V2 was not tested)
04 [8bbd616b] (000/219) No match (V2 was not tested)
05 [369eb3cb] (000/221) No match (V2 was not tested)
06 [549f664e] (000/221) No match (V2 was not tested)
07 [4c5991ae] (000/221) No match (V2 was not tested)
08 [46d191d9] (000/218) No match (V2 was not tested)
09 [9f7385f5] (000/217) No match (V2 was not tested)
10 [7bce2505] (000/216) No match (V2 was not tested)
11 [bbaa74f7] (000/216) No match (V2 was not tested)
12 [ce5b1a24] (000/211) No match (V2 was not tested)
Offsetted by -156:
01 [e4fd4828] (000/222) No match
02 [dd0c7600] (000/221) No match
03 [85a47b5c] (000/219) No match
04 [30eebaba] (000/219) No match
05 [f04fbd17] (000/221) No match
06 [a72dd285] (000/221) No match
07 [e85145e4] (000/221) No match (V2 was not tested)
08 [40601958] (000/218) No match (V2 was not tested)
09 [d2cde4c2] (000/217) No match
10 [c2e90c93] (000/216) No match
11 [b380ce05] (000/216) No match
12 [8f21aa9d] (000/211) No match
Offsetted by 514:
01 [fb33a0d4] (000/222) No match (V2 was not tested)
02 [5eb45c34] (000/221) No match (V2 was not tested)
03 [ad0274ae] (000/219) No match (V2 was not tested)
04 [466fd47c] (000/219) No match (V2 was not tested)
05 [1c30b5ff] (000/221) No match (V2 was not tested)
06 [26399f77] (000/221) No match (V2 was not tested)
07 [fbde780f] (000/221) No match (V2 was not tested)
08 [5291a533] (000/218) No match (V2 was not tested)
09 [cf14b848] (000/217) No match (V2 was not tested)
10 [ff7b9c37] (000/216) No match (V2 was not tested)
11 [9b52eaa9] (000/216) No match (V2 was not tested)
12 [66ec424b] (000/211) No match (V2 was not tested)

Track Peak [ CRC32 ] [W/O NULL] [ LOG ]
– 98,7 [17BEBC92] [819B0D2C] CRC32
01 94,1 [545CCB93] [ACCEC194]
02 98,7 [3110B709] [885D1992]
03 98,7 [3F40ED8C] [0DF3705B]
04 82,7 [EFB59282] [FDA88ADB]
05 98,7 [4D80CB7C] [71EEB7BA]
06 98,7 [B8A5BE20] [3D0110D3]
07 98,7 [CECAB779] [54C444BD]
08 98,7 [1D2C18A7] [646774E9]
09 98,7 [0341BEF3] [673C4465]
10 98,7 [1061C6C4] [A21067CB]
11 98,7 [3797F4E0] [6EBC3462]
12 98,7 [88C189D8] [BF011193]


All thanks go to dafnaplus & Ironbelly

The Rolling Stones in my Blog

Download The Rolling Stones - Flower (1967):