Tags
Language
Tags
April 2024
Su Mo Tu We Th Fr Sa
31 1 2 3 4 5 6
7 8 9 10 11 12 13
14 15 16 17 18 19 20
21 22 23 24 25 26 27
28 29 30 1 2 3 4

The Samurai Of Prog Featuring Marco Grieco - A Quiet Town (2024)

Posted By: Rtax
The Samurai Of Prog Featuring Marco Grieco - A Quiet Town (2024)

The Samurai Of Prog Featuring Marco Grieco - A Quiet Town (2024)
EAC Rip | FLAC (tracks, cue, log) - 749 MB | MP3 CBR 320 kbps - 381 MB
1:08:42 | Full Scans Included | Prog Rock, Symphonic Rock | Label: Seacrest Oy

SOP regulars Bernard and Pörsti are joined by the ultra talented Marco Grieco for this cracking concept album, a detective led murder mystery plays out around a host of musical guests who bring that unique SOP feel to the music. Bernard and Pörsti have gone and done it again and We Thank You!

Tracklist
1. Smile Forever (7:45)
2. The Crime (5:41)
3. The Priest (6:56)
4. The Businessman (7:47)
5. The Mayor (6:08)
6. The Doctor (7:17)
7. Dance of Clues (3:04)
8. The Solution (Part I) (11:56)
9. The Solution (Part II) (7:12)
10. The Report (4:48)
Exact Audio Copy V1.6 from 23. October 2020

EAC extraction logfile from 27. February 2024, 18:08

The Samurai Of Prog feat. Marco Grieco / A Quiet Town

Used drive : ATAPI iHAS122 F Adapter: 1 ID: 0

Read mode : Secure
Utilize accurate stream : Yes
Defeat audio cache : Yes
Make use of C2 pointers : No

Read offset correction : 6
Overread into Lead-In and Lead-Out : No
Fill up missing offset samples with silence : Yes
Delete leading and trailing silent blocks : No
Null samples used in CRC calculations : Yes
Used interface : Native Win32 interface for Win NT & 2000
Gap handling : Appended to previous track

Used output format : User Defined Encoder
Selected bitrate : 1024 kBit/s
Quality : High
Add ID3 tag : No
Command line compressor : C:\Program Files (x86)\Exact Audio Copy\Flac\flac.exe
Additional command line options : -V -8 -T "Date=%year%" -T "Genre=%genre%" %source%


TOC of the extracted CD

Track | Start | Length | Start sector | End sector
––––––––––––––––––––––––––––-
1 | 0:00.00 | 7:46.74 | 0 | 35023
2 | 7:46.74 | 5:42.13 | 35024 | 60686
3 | 13:29.12 | 6:56.40 | 60687 | 91926
4 | 20:25.52 | 7:47.46 | 91927 | 126997
5 | 28:13.23 | 6:08.43 | 126998 | 154640
6 | 34:21.66 | 7:16.70 | 154641 | 187410
7 | 41:38.61 | 3:04.31 | 187411 | 201241
8 | 44:43.17 | 11:56.45 | 201242 | 254986
9 | 56:39.62 | 7:12.63 | 254987 | 287449
10 | 63:52.50 | 4:48.12 | 287450 | 309061


Track 1

Filename C:\Torrents\The Samurai Of Prog\2024 - A Quiet Town [feat. Marco Greco]\01. Smile Forever.wav

Pre-gap length 0:00:02.00

Peak level 98.3 %
Extraction speed 5.8 X
Track quality 100.0 %
Test CRC 6BE376AD
Copy CRC 6BE376AD
Track not present in AccurateRip database
Copy OK

Track 2

Filename C:\Torrents\The Samurai Of Prog\2024 - A Quiet Town [feat. Marco Greco]\02. The Crime.wav

Peak level 98.3 %
Extraction speed 6.5 X
Track quality 100.0 %
Test CRC 510ED982
Copy CRC 510ED982
Track not present in AccurateRip database
Copy OK

Track 3

Filename C:\Torrents\The Samurai Of Prog\2024 - A Quiet Town [feat. Marco Greco]\03. The Priest.wav

Peak level 98.3 %
Extraction speed 7.4 X
Track quality 100.0 %
Test CRC 0A599C8D
Copy CRC 0A599C8D
Track not present in AccurateRip database
Copy OK

Track 4

Filename C:\Torrents\The Samurai Of Prog\2024 - A Quiet Town [feat. Marco Greco]\04. The Businessman.wav

Peak level 98.3 %
Extraction speed 8.1 X
Track quality 100.0 %
Test CRC EC032248
Copy CRC EC032248
Track not present in AccurateRip database
Copy OK

Track 5

Filename C:\Torrents\The Samurai Of Prog\2024 - A Quiet Town [feat. Marco Greco]\05. The Mayor.wav

Peak level 98.3 %
Extraction speed 8.6 X
Track quality 100.0 %
Test CRC 0349FBDB
Copy CRC 0349FBDB
Track not present in AccurateRip database
Copy OK

Track 6

Filename C:\Torrents\The Samurai Of Prog\2024 - A Quiet Town [feat. Marco Greco]\06. The Doctor.wav

Peak level 98.3 %
Extraction speed 8.2 X
Track quality 99.9 %
Test CRC 1DF36770
Copy CRC 1DF36770
Track not present in AccurateRip database
Copy OK

Track 7

Filename C:\Torrents\The Samurai Of Prog\2024 - A Quiet Town [feat. Marco Greco]\07. Dance Of Clues.wav

Peak level 73.0 %
Extraction speed 8.8 X
Track quality 100.0 %
Test CRC 82FE9AF3
Copy CRC 82FE9AF3
Track not present in AccurateRip database
Copy OK

Track 8

Filename C:\Torrents\The Samurai Of Prog\2024 - A Quiet Town [feat. Marco Greco]\08. The Solution - Part 1.wav

Peak level 98.3 %
Extraction speed 10.6 X
Track quality 100.0 %
Test CRC 24CF70EA
Copy CRC 24CF70EA
Track not present in AccurateRip database
Copy OK

Track 9

Filename C:\Torrents\The Samurai Of Prog\2024 - A Quiet Town [feat. Marco Greco]\09. The Solution - Part 2.wav

Peak level 98.3 %
Extraction speed 11.0 X
Track quality 100.0 %
Test CRC 20BA0BD1
Copy CRC 20BA0BD1
Track not present in AccurateRip database
Copy OK

Track 10

Filename C:\Torrents\The Samurai Of Prog\2024 - A Quiet Town [feat. Marco Greco]\10. The Report.wav

Peak level 98.3 %
Extraction speed 8.9 X
Track quality 99.9 %
Test CRC 14E5D756
Copy CRC 14E5D756
Track not present in AccurateRip database
Copy OK


None of the tracks are present in the AccurateRip database

No errors occurred

End of status report

==== Log checksum 02513F9BBAF809251D860F495634064B5B4FB3940D28963F6E4946B96A9A0D61 ====