Tags
Language
Tags

The Small Faces - The Immediate Years (1995) [4CD Box Set]

Posted By: v3122
The Small Faces - The Immediate Years (1995) [4CD Box Set]

The Small Faces - The Immediate Years (1995)
EAC | Flac(Image) + Cue + Log & MP3 CBR 320Kbps
1995 | Charly Records, CD IMM BOX 1 | ~ 1272 or 589 Mb | Scans(jpg) -> 192 Mb
Mod, Pop Rock, Psychedelic Rock, Beat, Rhythm & Blues, Soul

During the British Invasion of the mid-60s, while the Beatles, Rolling Stones, and Who were conquering America, one quintessentially English band stayed at home. Today, in America, the Small Faces are known primarily for their single "Itchykoo Park", and the fact that their drummer, Kenney Jones, went on to replace Keith Moon in the Who. Comparisons to the Who, in fact, are considerable. Steve Marriott and Ronnie Lane are, perhaps, the most underrated songwriting team of all time; they churned out hit after hit in Britain, from crunchy three-chord rock to mellow, introspective ballads. Any fan of 60s rock is sure to love this collection – ANY collection, in fact – of the Small Faces' brief career. Had they stayed together, this band surely would have gone down in history linked inexorably with the likes of the Beatles, Rolling Stones, and Who.

~ amazon
The Small Faces - The Immediate Years (1995):

The Small Faces - The Immediate Years (1995) [4CD Box Set]

Tracklist CD1:

01.You Really Got Me
02.Money,Money
03.Watcha Gonna Do About It
04.Sha La La La Lee
05.Hey Girl
06.My Mind's Eye (Original Single Mix)
07.My Mind's Eye (Album Mix)
08.All Or Nothing
09.Yesterday,Today And Tomorrow
10.I Can't Make It (Mono Version)
11.Just Passing (Mono Version)
12.Here Comes The Nice (Mono Version)
13.Talk To You (Mono Version)
14.Itchycoo Park (Mono Version)
15.I'm Only Dreaming (Mono Version)
16.Tin Soldier (Mono Version)
17.I Feel Much Better (Mono Version)
18.Lazy Sunday (Mono Version)
19.Rollin' Over (Mono Version)
20.The Universal (Mono Version)
21.Donkey Rides,A Penny,A Glass (Mono…
22.Afterglow (Of Your Love) (Mono Version)
23.Wham,Bam,Thank You Mam (Mono…

Converted to Image (CUETools 2.1.4)

Exact Audio Copy V1.0 beta 1 from 15. November 2010

EAC extraction logfile from 29. November 2011, 11:57

Small Faces / The Immediate Years (CD 1)

Used drive : TSSTcorpCDDVDW TS-L633C Adapter: 1 ID: 0

Read mode : Secure
Utilize accurate stream : Yes
Defeat audio cache : Yes
Make use of C2 pointers : No

Read offset correction : 6
Overread into Lead-In and Lead-Out : No
Fill up missing offset samples with silence : Yes
Delete leading and trailing silent blocks : No
Null samples used in CRC calculations : Yes
Used interface : Native Win32 interface for Win NT & 2000
Gap handling : Appended to previous track

Used output format : User Defined Encoder
Selected bitrate : 768 kBit/s
Quality : High
Add ID3 tag : No
Command line compressor : C:\Program Files\Exact Audio Copy\FLAC\FLAC.EXE
Additional command line options : -6 -V -T "ARTIST=%a" -T "TITLE=%t" -T "ALBUM=%g" -T "DATE=%y" -T "TRACKNUMBER=%n" -T "GENRE=%m" -T "COMMENT=%e" %j–picture="%i"%j %s -o %d


TOC of the extracted CD

Track | Start | Length | Start sector | End sector
––––––––––––––––––––––––––––-
1 | 0:00.00 | 2:24.72 | 0 | 10871
2 | 2:24.72 | 2:18.18 | 10872 | 21239
3 | 4:43.15 | 1:58.67 | 21240 | 30156
4 | 6:42.07 | 2:56.05 | 30157 | 43361
5 | 9:38.12 | 2:18.13 | 43362 | 53724
6 | 11:56.25 | 1:57.37 | 53725 | 62536
7 | 13:53.62 | 2:04.08 | 62537 | 71844
8 | 15:57.70 | 3:05.65 | 71845 | 85784
9 | 19:03.60 | 1:55.72 | 85785 | 94481
10 | 20:59.57 | 2:12.73 | 94482 | 104454
11 | 23:12.55 | 1:14.10 | 104455 | 110014
12 | 24:26.65 | 2:58.47 | 110015 | 123411
13 | 27:25.37 | 2:08.58 | 123412 | 133069
14 | 29:34.20 | 2:49.20 | 133070 | 145764
15 | 32:23.40 | 2:25.10 | 145765 | 156649
16 | 34:48.50 | 3:22.42 | 156650 | 171841
17 | 38:11.17 | 3:58.68 | 171842 | 189759
18 | 42:10.10 | 3:06.55 | 189760 | 203764
19 | 45:16.65 | 2:13.00 | 203765 | 213739
20 | 47:29.65 | 2:46.50 | 213740 | 226239
21 | 50:16.40 | 2:51.25 | 226240 | 239089
22 | 53:07.65 | 3:26.37 | 239090 | 254576
23 | 56:34.27 | 3:18.45 | 254577 | 269471


Track 1

Filename H:\music\yalinc\Small Faces - The Immediate Years\Small Faces CD1\01 - Small Faces - You Really Got Me (The Moments featuring Steve Marriott).wav

Pre-gap length 0:00:02.00

Peak level 88.1 %
Extraction speed 1.4 X
Track quality 100.0 %
Test CRC D4C3FC34
Copy CRC D4C3FC34
Accurately ripped (confidence 8) [7842E8CA]
Copy OK

Track 2

Filename H:\music\yalinc\Small Faces - The Immediate Years\Small Faces CD1\02 - Small Faces - Money, Money (The Moments featuring Steve Marriott).wav

Pre-gap length 0:00:02.50

Peak level 88.7 %
Extraction speed 1.5 X
Track quality 100.0 %
Test CRC 2AE7DB64
Copy CRC 2AE7DB64
Accurately ripped (confidence 8) [00F49770]
Copy OK

Track 3

Filename H:\music\yalinc\Small Faces - The Immediate Years\Small Faces CD1\03 - Small Faces - Watcha Gonna Do About It.wav

Pre-gap length 0:00:02.50

Peak level 88.5 %
Extraction speed 1.2 X
Track quality 99.9 %
Test CRC 506FA886
Copy CRC 506FA886
Accurately ripped (confidence 8) [AE905960]
Copy OK

Track 4

Filename H:\music\yalinc\Small Faces - The Immediate Years\Small Faces CD1\04 - Small Faces - Sha La La La Lee.wav

Pre-gap length 0:00:02.50

Peak level 89.8 %
Extraction speed 1.7 X
Track quality 100.0 %
Test CRC 9AB1CFB7
Copy CRC 9AB1CFB7
Accurately ripped (confidence 8) [3D2F8B92]
Copy OK

Track 5

Filename H:\music\yalinc\Small Faces - The Immediate Years\Small Faces CD1\05 - Small Faces - Hey Girl.wav

Pre-gap length 0:00:02.50

Peak level 88.6 %
Extraction speed 1.7 X
Track quality 100.0 %
Test CRC 54600187
Copy CRC 54600187
Accurately ripped (confidence 8) [925436B4]
Copy OK

Track 6

Filename H:\music\yalinc\Small Faces - The Immediate Years\Small Faces CD1\06 - Small Faces - My Mind's Eye (original single mix).wav

Pre-gap length 0:00:02.53

Peak level 88.4 %
Extraction speed 1.7 X
Track quality 100.0 %
Test CRC 9360BBAD
Copy CRC 9360BBAD
Accurately ripped (confidence 8) [4540AA95]
Copy OK

Track 7

Filename H:\music\yalinc\Small Faces - The Immediate Years\Small Faces CD1\07 - Small Faces - My Mind's Eye (album mix).wav

Pre-gap length 0:00:02.50

Peak level 88.1 %
Extraction speed 1.8 X
Track quality 100.0 %
Test CRC 2098CEC1
Copy CRC 2098CEC1
Accurately ripped (confidence 8) [C21860AC]
Copy OK

Track 8

Filename H:\music\yalinc\Small Faces - The Immediate Years\Small Faces CD1\08 - Small Faces - All Or Nothing.wav

Pre-gap length 0:00:02.50

Peak level 88.4 %
Extraction speed 2.0 X
Track quality 100.0 %
Test CRC 81BAE8C7
Copy CRC 81BAE8C7
Accurately ripped (confidence 8) [EFD8BD17]
Copy OK

Track 9

Filename H:\music\yalinc\Small Faces - The Immediate Years\Small Faces CD1\09 - Small Faces - Yesterday, Today And Tomorrow.wav

Pre-gap length 0:00:02.50

Peak level 89.6 %
Extraction speed 1.9 X
Track quality 100.0 %
Test CRC 1B004FF3
Copy CRC 1B004FF3
Accurately ripped (confidence 8) [7C085E00]
Copy OK

Track 10

Filename H:\music\yalinc\Small Faces - The Immediate Years\Small Faces CD1\10 - Small Faces - I Can't Make It (mono).wav

Pre-gap length 0:00:02.50

Peak level 88.5 %
Extraction speed 2.0 X
Track quality 100.0 %
Test CRC F99798F0
Copy CRC F99798F0
Accurately ripped (confidence 8) [38770FB6]
Copy OK

Track 11

Filename H:\music\yalinc\Small Faces - The Immediate Years\Small Faces CD1\11 - Small Faces - Just Passing (mono).wav

Pre-gap length 0:00:02.50

Peak level 89.0 %
Extraction speed 1.7 X
Track quality 100.0 %
Test CRC 11FEC89A
Copy CRC 11FEC89A
Accurately ripped (confidence 8) [2BD327C4]
Copy OK

Track 12

Filename H:\music\yalinc\Small Faces - The Immediate Years\Small Faces CD1\12 - Small Faces - Here Comes The Nice (mono).wav

Pre-gap length 0:00:02.50

Peak level 89.6 %
Extraction speed 1.9 X
Track quality 99.9 %
Test CRC A25F4657
Copy CRC A25F4657
Accurately ripped (confidence 8) [66BE16BD]
Copy OK

Track 13

Filename H:\music\yalinc\Small Faces - The Immediate Years\Small Faces CD1\13 - Small Faces - Talk To You (mono).wav

Pre-gap length 0:00:02.50

Peak level 88.2 %
Extraction speed 2.1 X
Track quality 100.0 %
Test CRC FBC0D468
Copy CRC FBC0D468
Accurately ripped (confidence 8) [9566662E]
Copy OK

Track 14

Filename H:\music\yalinc\Small Faces - The Immediate Years\Small Faces CD1\14 - Small Faces - Itchycoo Park (mono).wav

Pre-gap length 0:00:02.50

Peak level 84.8 %
Extraction speed 2.3 X
Track quality 100.0 %
Test CRC AACB1E37
Copy CRC AACB1E37
Accurately ripped (confidence 8) [C0881C47]
Copy OK

Track 15

Filename H:\music\yalinc\Small Faces - The Immediate Years\Small Faces CD1\15 - Small Faces - I'm Only Dreaming (mono).wav

Pre-gap length 0:00:02.50

Peak level 88.9 %
Extraction speed 1.9 X
Track quality 99.9 %
Test CRC E22B9EB2
Copy CRC E22B9EB2
Accurately ripped (confidence 8) [991C821B]
Copy OK

Track 16

Filename H:\music\yalinc\Small Faces - The Immediate Years\Small Faces CD1\16 - Small Faces - Tin Soldier (mono).wav

Pre-gap length 0:00:02.50

Peak level 89.0 %
Extraction speed 2.1 X
Track quality 99.9 %
Test CRC 1E9065D9
Copy CRC 1E9065D9
Accurately ripped (confidence 8) [E98DE47E]
Copy OK

Track 17

Filename H:\music\yalinc\Small Faces - The Immediate Years\Small Faces CD1\17 - Small Faces - I Feel Much Better (mono).wav

Pre-gap length 0:00:02.50

Peak level 89.2 %
Extraction speed 2.6 X
Track quality 100.0 %
Test CRC AEBD954C
Copy CRC AEBD954C
Accurately ripped (confidence 8) [8D7AC980]
Copy OK

Track 18

Filename H:\music\yalinc\Small Faces - The Immediate Years\Small Faces CD1\18 - Small Faces - Lazy Sunday (mono).wav

Pre-gap length 0:00:02.50

Peak level 88.9 %
Extraction speed 2.6 X
Track quality 100.0 %
Test CRC 27B26A9E
Copy CRC 27B26A9E
Accurately ripped (confidence 8) [F57E09A1]
Copy OK

Track 19

Filename H:\music\yalinc\Small Faces - The Immediate Years\Small Faces CD1\19 - Small Faces - Rollin' Over (mono).wav

Pre-gap length 0:00:02.50

Peak level 88.9 %
Extraction speed 2.5 X
Track quality 100.0 %
Test CRC 4DE4031A
Copy CRC 4DE4031A
Accurately ripped (confidence 8) [8999106C]
Copy OK

Track 20

Filename H:\music\yalinc\Small Faces - The Immediate Years\Small Faces CD1\20 - Small Faces - The Universal (mono).wav

Pre-gap length 0:00:02.50

Peak level 88.5 %
Extraction speed 2.6 X
Track quality 100.0 %
Test CRC 8A11D1F1
Copy CRC 8A11D1F1
Accurately ripped (confidence 8) [40A7D197]
Copy OK

Track 21

Filename H:\music\yalinc\Small Faces - The Immediate Years\Small Faces CD1\21 - Small Faces - Donkey Rides, A Penny, A Glass (mono).wav

Pre-gap length 0:00:02.50

Peak level 91.2 %
Extraction speed 2.3 X
Track quality 99.9 %
Test CRC 0709608D
Copy CRC 0709608D
Accurately ripped (confidence 8) [56C8F5E2]
Copy OK

Track 22

Filename H:\music\yalinc\Small Faces - The Immediate Years\Small Faces CD1\22 - Small Faces - AfterGlow (Of Your Love) (mono single edit).wav

Pre-gap length 0:00:02.50

Peak level 90.5 %
Extraction speed 2.8 X
Track quality 100.0 %
Test CRC D1FB36C3
Copy CRC D1FB36C3
Accurately ripped (confidence 8) [1409B2DC]
Copy OK

Track 23

Filename H:\music\yalinc\Small Faces - The Immediate Years\Small Faces CD1\23 - Small Faces - Wham, Bam, Thank You Mam (mono).wav

Pre-gap length 0:00:02.50

Peak level 89.9 %
Extraction speed 2.5 X
Track quality 99.9 %
Test CRC 921E4F1F
Copy CRC 921E4F1F
Accurately ripped (confidence 8) [C07F7E61]
Copy OK


All tracks accurately ripped

No errors occurred

End of status report

==== Log checksum 5FDA86F64568F4147CFDDC8980FB6012496C4EFDC8792B1DE3B3523A660C2592 ====


[CUETools log; Date: 27.01.2018 13:53:48; Version: 2.1.5]
[AccurateRip ID: 002e04b2-0308fe29-5b0e0817] found.
Track [ CRC | V2 ] Status
01 [7842e8ca|bf2e3c63] (08+17/25) Accurately ripped
02 [00f49770|a8ee2065] (08+17/25) Accurately ripped
03 [ae905960|6d4f89c5] (08+17/25) Accurately ripped
04 [3d2f8b92|60c0e84d] (08+17/25) Accurately ripped
05 [925436b4|9fa7345a] (08+17/25) Accurately ripped
06 [4540aa95|bb694b9c] (08+17/25) Accurately ripped
07 [c21860ac|381c87ed] (08+17/25) Accurately ripped
08 [efd8bd17|4859d0ea] (08+17/25) Accurately ripped
09 [7c085e00|0bbb0e7b] (08+17/25) Accurately ripped
10 [38770fb6|3b7d909f] (08+17/25) Accurately ripped
11 [2bd327c4|07372a37] (08+17/25) Accurately ripped
12 [66be16bd|4d8448bc] (08+17/25) Accurately ripped
13 [9566662e|c43885da] (08+17/25) Accurately ripped
14 [c0881c47|6f197d6d] (08+17/25) Accurately ripped
15 [991c821b|f9093491] (08+17/25) Accurately ripped
16 [e98de47e|7dc15599] (08+17/25) Accurately ripped
17 [8d7ac980|65dc0657] (08+17/25) Accurately ripped
18 [f57e09a1|4b1d7184] (08+17/25) Accurately ripped
19 [8999106c|a97ff5dd] (08+17/25) Accurately ripped
20 [40a7d197|d84fcc82] (08+17/25) Accurately ripped
21 [56c8f5e2|4ecaa342] (08+17/25) Accurately ripped
22 [1409b2dc|062c874d] (08+17/25) Accurately ripped
23 [c07f7e61|334acdc2] (08+17/25) Accurately ripped

Track Peak [ CRC32 ] [W/O NULL] [ LOG ]
– 91,2 [0CD6A225] [1ECCE5E0]
01 88,1 [D4C3FC34] [628E9CBF] CRC32
02 88,7 [2AE7DB64] [5AF2A907] CRC32
03 88,5 [506FA886] [0A773015] CRC32
04 89,8 [9AB1CFB7] [14C9F3DB] CRC32
05 88,6 [54600187] [D1C171A4] CRC32
06 88,4 [9360BBAD] [09665C68] CRC32
07 88,1 [2098CEC1] [A9577FEA] CRC32
08 88,4 [81BAE8C7] [0E840E17] CRC32
09 89,6 [1B004FF3] [9317659D] CRC32
10 88,5 [F99798F0] [6F85B9D2] CRC32
11 89,0 [11FEC89A] [FB8B498E] CRC32
12 89,6 [A25F4657] [258672CB] CRC32
13 88,2 [FBC0D468] [4B13D99A] CRC32
14 84,8 [AACB1E37] [E7B9A81D] CRC32
15 88,9 [E22B9EB2] [22F9B74A] CRC32
16 89,0 [1E9065D9] [F42BB755] CRC32
17 89,2 [AEBD954C] [7B0E467C] CRC32
18 88,8 [27B26A9E] [2506B126] CRC32
19 88,9 [4DE4031A] [368DC6CF] CRC32
20 88,5 [8A11D1F1] [21DE4168] CRC32
21 91,2 [0709608D] [8EE9A29C] CRC32
22 90,5 [D1FB36C3] [62004777] CRC32
23 89,9 [921E4F1F] [E214ACEE] CRC32


The Small Faces - The Immediate Years (1995) [4CD Box Set]

Tracklist CD2:

01.I Can't Make It (Stereo Version)
02.Just Passing (Stereo Version)
03.Here Comes The Nice (Stereo Version)
04.Itchycoo Park (Stereo Version)
05.I'm Only Dreaming (Stereo Version)
06.Tin Soldier (Stereo Version)
07.I Feel Much Better (Stereo Version)
08.The Universal (Stereo Version)
09.Donkey Rides,A Penny,A Glass (Stereo…
10.Wham Bam,Thank You Mam (Stereo…
11.(Tell Me) Have You Ever Seen Me (Stereo
12.Something I Want To Tell You
13.Feeling Lonely
14.Happy Boys Happy
15.Things Are Going To Get Better
16.My Way Of Giving (Version 2)
17.Green Circles (Version 1)
18.Become Like You
19.Get Yourself Together
20.All Our Yesterdays
21.Talk To You
22.Show Me The Way
23.Up The Wooden Hills To Bedfordshire
24.Eddie's Dreaming

Converted to Image (CUETools 2.1.4)

Exact Audio Copy V1.0 beta 1 from 15. November 2010

EAC extraction logfile from 29. November 2011, 12:57

Small Faces / The Immediate Years (CD 2)

Used drive : TSSTcorpCDDVDW TS-L633C Adapter: 1 ID: 0

Read mode : Secure
Utilize accurate stream : Yes
Defeat audio cache : Yes
Make use of C2 pointers : No

Read offset correction : 6
Overread into Lead-In and Lead-Out : No
Fill up missing offset samples with silence : Yes
Delete leading and trailing silent blocks : No
Null samples used in CRC calculations : Yes
Used interface : Native Win32 interface for Win NT & 2000
Gap handling : Appended to previous track

Used output format : User Defined Encoder
Selected bitrate : 768 kBit/s
Quality : High
Add ID3 tag : No
Command line compressor : C:\Program Files\Exact Audio Copy\FLAC\FLAC.EXE
Additional command line options : -6 -V -T "ARTIST=%a" -T "TITLE=%t" -T "ALBUM=%g" -T "DATE=%y" -T "TRACKNUMBER=%n" -T "GENRE=%m" -T "COMMENT=%e" %j–picture="%i"%j %s -o %d


TOC of the extracted CD

Track | Start | Length | Start sector | End sector
––––––––––––––––––––––––––––-
1 | 0:00.00 | 2:12.45 | 0 | 9944
2 | 2:12.45 | 1:16.22 | 9945 | 15666
3 | 3:28.67 | 3:04.25 | 15667 | 29491
4 | 6:33.17 | 2:51.05 | 29492 | 42321
5 | 9:24.22 | 2:26.53 | 42322 | 53324
6 | 11:51.00 | 3:24.57 | 53325 | 68681
7 | 15:15.57 | 3:58.63 | 68682 | 86594
8 | 19:14.45 | 2:42.15 | 86595 | 98759
9 | 21:56.60 | 2:54.17 | 98760 | 111826
10 | 24:51.02 | 3:19.70 | 111827 | 126821
11 | 28:10.72 | 2:15.53 | 126822 | 136999
12 | 30:26.50 | 2:10.35 | 137000 | 146784
13 | 32:37.10 | 1:35.70 | 146785 | 153979
14 | 34:13.05 | 1:37.32 | 153980 | 161286
15 | 35:50.37 | 2:40.25 | 161287 | 173311
16 | 38:30.62 | 2:00.00 | 173312 | 182311
17 | 40:30.62 | 2:48.20 | 182312 | 194931
18 | 43:19.07 | 1:58.35 | 194932 | 203816
19 | 45:17.42 | 2:16.28 | 203817 | 214044
20 | 47:33.70 | 1:53.60 | 214045 | 222579
21 | 49:27.55 | 2:09.42 | 222580 | 232296
22 | 51:37.22 | 2:09.20 | 232297 | 241991
23 | 53:46.42 | 2:06.03 | 241992 | 251444
24 | 55:52.45 | 2:53.02 | 251445 | 264421


Track 1

Filename H:\music\yalinc\Small Faces - The Immediate Years\Small Faces CD2\01 - Small Faces - I Can't Make It (stereo).wav

Pre-gap length 0:00:02.00

Peak level 88.7 %
Extraction speed 1.4 X
Track quality 100.0 %
Test CRC ED2F3CC7
Copy CRC ED2F3CC7
Accurately ripped (confidence 8) [B7519B4C]
Copy OK

Track 2

Filename H:\music\yalinc\Small Faces - The Immediate Years\Small Faces CD2\02 - Small Faces - Just Passing (stereo).wav

Pre-gap length 0:00:02.50

Peak level 88.7 %
Extraction speed 1.2 X
Track quality 100.0 %
Test CRC 7356F16B
Copy CRC 7356F16B
Accurately ripped (confidence 8) [6827F306]
Copy OK

Track 3

Filename H:\music\yalinc\Small Faces - The Immediate Years\Small Faces CD2\03 - Small Faces - Here Comes The Nice (stereo).wav

Pre-gap length 0:00:02.50

Peak level 88.8 %
Extraction speed 1.6 X
Track quality 100.0 %
Test CRC 4B358C08
Copy CRC 4B358C08
Accurately ripped (confidence 8) [084CBA1C]
Copy OK

Track 4

Filename H:\music\yalinc\Small Faces - The Immediate Years\Small Faces CD2\04 - Small Faces - Itchycoo Park (stereo).wav

Pre-gap length 0:00:02.50

Peak level 88.2 %
Extraction speed 1.7 X
Track quality 100.0 %
Test CRC FD894A63
Copy CRC FD894A63
Accurately ripped (confidence 8) [F999247E]
Copy OK

Track 5

Filename H:\music\yalinc\Small Faces - The Immediate Years\Small Faces CD2\05 - Small Faces - I'm Only Dreaming (stereo).wav

Pre-gap length 0:00:02.50

Peak level 89.1 %
Extraction speed 1.7 X
Track quality 100.0 %
Test CRC 4255B1AE
Copy CRC 4255B1AE
Accurately ripped (confidence 8) [6A5BDF74]
Copy OK

Track 6

Filename H:\music\yalinc\Small Faces - The Immediate Years\Small Faces CD2\06 - Small Faces - Tin Soldier (stereo).wav

Pre-gap length 0:00:02.50

Peak level 88.3 %
Extraction speed 1.9 X
Track quality 100.0 %
Test CRC 1D4765AC
Copy CRC 1D4765AC
Accurately ripped (confidence 8) [F98FACDE]
Copy OK

Track 7

Filename H:\music\yalinc\Small Faces - The Immediate Years\Small Faces CD2\07 - Small Faces - I Feel Much Better (stereo).wav

Pre-gap length 0:00:02.50

Peak level 88.6 %
Extraction speed 2.1 X
Track quality 100.0 %
Test CRC 64E27A5F
Copy CRC 64E27A5F
Accurately ripped (confidence 8) [48ECCFF3]
Copy OK

Track 8

Filename H:\music\yalinc\Small Faces - The Immediate Years\Small Faces CD2\08 - Small Faces - The Universal (stereo).wav

Pre-gap length 0:00:02.50

Peak level 88.3 %
Extraction speed 2.0 X
Track quality 100.0 %
Test CRC F87D2746
Copy CRC F87D2746
Accurately ripped (confidence 8) [FF70BD8C]
Copy OK

Track 9

Filename H:\music\yalinc\Small Faces - The Immediate Years\Small Faces CD2\09 - Small Faces - Donkey Rides, A Penny, A Glass (stereo).wav

Pre-gap length 0:00:02.50

Peak level 88.1 %
Extraction speed 2.1 X
Track quality 100.0 %
Test CRC DE07ED1F
Copy CRC DE07ED1F
Accurately ripped (confidence 8) [2730CD4E]
Copy OK

Track 10

Filename H:\music\yalinc\Small Faces - The Immediate Years\Small Faces CD2\10 - Small Faces - Wham Bam, Thank You Mam (stereo).wav

Pre-gap length 0:00:02.50

Peak level 88.9 %
Extraction speed 2.2 X
Track quality 100.0 %
Test CRC 741F2373
Copy CRC 741F2373
Accurately ripped (confidence 8) [2CB036B3]
Copy OK

Track 11

Filename H:\music\yalinc\Small Faces - The Immediate Years\Small Faces CD2\11 - Small Faces - (Tell Me) Have You Ever Seen Me (version 2).wav

Pre-gap length 0:00:02.50

Peak level 88.3 %
Extraction speed 2.1 X
Track quality 100.0 %
Test CRC 0C7CDDD5
Copy CRC 0C7CDDD5
Accurately ripped (confidence 8) [F561A159]
Copy OK

Track 12

Filename H:\music\yalinc\Small Faces - The Immediate Years\Small Faces CD2\12 - Small Faces - Something I Want To Tell You.wav

Pre-gap length 0:00:02.50

Peak level 88.3 %
Extraction speed 2.2 X
Track quality 100.0 %
Test CRC C666F016
Copy CRC C666F016
Accurately ripped (confidence 8) [87617AF1]
Copy OK

Track 13

Filename H:\music\yalinc\Small Faces - The Immediate Years\Small Faces CD2\13 - Small Faces - Feeling Lonely.wav

Pre-gap length 0:00:02.50

Peak level 88.2 %
Extraction speed 2.0 X
Track quality 100.0 %
Test CRC 19647663
Copy CRC 19647663
Accurately ripped (confidence 8) [11DD7450]
Copy OK

Track 14

Filename H:\music\yalinc\Small Faces - The Immediate Years\Small Faces CD2\14 - Small Faces - Happy Boys Happy.wav

Pre-gap length 0:00:02.50

Peak level 84.4 %
Extraction speed 2.1 X
Track quality 100.0 %
Test CRC 67E44C95
Copy CRC 67E44C95
Accurately ripped (confidence 8) [4442FB88]
Copy OK

Track 15

Filename H:\music\yalinc\Small Faces - The Immediate Years\Small Faces CD2\15 - Small Faces - Things Are Going To Get Better.wav

Pre-gap length 0:00:02.50

Peak level 88.6 %
Extraction speed 2.4 X
Track quality 100.0 %
Test CRC 459BBCEC
Copy CRC 459BBCEC
Accurately ripped (confidence 8) [32029437]
Copy OK

Track 16

Filename H:\music\yalinc\Small Faces - The Immediate Years\Small Faces CD2\16 - Small Faces - My Way Of Giving (version 2).wav

Pre-gap length 0:00:02.50

Peak level 89.0 %
Extraction speed 2.3 X
Track quality 100.0 %
Test CRC 787544A7
Copy CRC 787544A7
Accurately ripped (confidence 8) [B1BE24E8]
Copy OK

Track 17

Filename H:\music\yalinc\Small Faces - The Immediate Years\Small Faces CD2\17 - Small Faces - Green Circles (version 1).wav

Pre-gap length 0:00:02.50

Peak level 88.8 %
Extraction speed 2.4 X
Track quality 100.0 %
Test CRC 13040750
Copy CRC 13040750
Accurately ripped (confidence 8) [B46E2435]
Copy OK

Track 18

Filename H:\music\yalinc\Small Faces - The Immediate Years\Small Faces CD2\18 - Small Faces - Become Like You.wav

Pre-gap length 0:00:02.50

Peak level 88.2 %
Extraction speed 2.3 X
Track quality 100.0 %
Test CRC D8C717FF
Copy CRC D8C717FF
Accurately ripped (confidence 8) [8106E115]
Copy OK

Track 19

Filename H:\music\yalinc\Small Faces - The Immediate Years\Small Faces CD2\19 - Small Faces - Get Yourself Together.wav

Pre-gap length 0:00:02.50

Peak level 88.9 %
Extraction speed 2.5 X
Track quality 100.0 %
Test CRC A5DE69F6
Copy CRC A5DE69F6
Accurately ripped (confidence 8) [7FE61540]
Copy OK

Track 20

Filename H:\music\yalinc\Small Faces - The Immediate Years\Small Faces CD2\20 - Small Faces - All Our Yesterdays.wav

Pre-gap length 0:00:02.50

Peak level 88.8 %
Extraction speed 2.4 X
Track quality 100.0 %
Test CRC A94DDC20
Copy CRC A94DDC20
Accurately ripped (confidence 8) [7E6A6F74]
Copy OK

Track 21

Filename H:\music\yalinc\Small Faces - The Immediate Years\Small Faces CD2\21 - Small Faces - Talk To You.wav

Pre-gap length 0:00:02.50

Peak level 88.4 %
Extraction speed 2.5 X
Track quality 100.0 %
Test CRC 34C6719E
Copy CRC 34C6719E
Accurately ripped (confidence 8) [B7C16C08]
Copy OK

Track 22

Filename H:\music\yalinc\Small Faces - The Immediate Years\Small Faces CD2\22 - Small Faces - Show Me The Way.wav

Pre-gap length 0:00:02.50

Peak level 89.1 %
Extraction speed 2.5 X
Track quality 100.0 %
Test CRC 41F755C0
Copy CRC 41F755C0
Accurately ripped (confidence 8) [E170F01A]
Copy OK

Track 23

Filename H:\music\yalinc\Small Faces - The Immediate Years\Small Faces CD2\23 - Small Faces - Up The Wooden Hills To Bedfordshire.wav

Pre-gap length 0:00:02.52

Peak level 88.1 %
Extraction speed 2.5 X
Track quality 100.0 %
Test CRC BE8505E9
Copy CRC BE8505E9
Accurately ripped (confidence 8) [55193186]
Copy OK

Track 24

Filename H:\music\yalinc\Small Faces - The Immediate Years\Small Faces CD2\24 - Small Faces - Eddie's Dreaming.wav

Pre-gap length 0:00:02.50

Peak level 88.4 %
Extraction speed 2.4 X
Track quality 99.9 %
Test CRC F2442F19
Copy CRC F2442F19
Accurately ripped (confidence 8) [8BDBF1A2]
Copy OK


All tracks accurately ripped

No errors occurred

End of status report

==== Log checksum 4115DB99B83BFEB2530E8FB13DEF5965281B3870B8F59DC65F1B72C45842C62D ====


[CUETools log; Date: 27.01.2018 13:56:43; Version: 2.1.5]
[AccurateRip ID: 00343d9b-03837fd7-5a0dc518] found.
Track [ CRC | V2 ] Status
01 [b7519b4c|f13ba1c5] (08+18/26) Accurately ripped
02 [6827f306|7398dab8] (08+18/26) Accurately ripped
03 [084cba1c|a4da88bd] (08+18/26) Accurately ripped
04 [f999247e|b1d4409a] (08+18/26) Accurately ripped
05 [6a5bdf74|6300a600] (08+18/26) Accurately ripped
06 [f98facde|35eb2dce] (08+18/26) Accurately ripped
07 [48eccff3|dcb838e2] (08+18/26) Accurately ripped
08 [ff70bd8c|6d38a1af] (08+18/26) Accurately ripped
09 [2730cd4e|2b5d20ea] (08+18/26) Accurately ripped
10 [2cb036b3|e4ff0c47] (08+18/26) Accurately ripped
11 [f561a159|a94803d2] (08+18/26) Accurately ripped
12 [87617af1|69977ef1] (08+18/26) Accurately ripped
13 [11dd7450|1e899e86] (08+18/26) Accurately ripped
14 [4442fb88|f5a507bf] (08+18/26) Accurately ripped
15 [32029437|461257a3] (08+18/26) Accurately ripped
16 [b1be24e8|75d7702f] (08+18/26) Accurately ripped
17 [b46e2435|b17bc890] (08+18/26) Accurately ripped
18 [8106e115|3a1bc6d0] (08+18/26) Accurately ripped
19 [7fe61540|3ecf7bb2] (08+18/26) Accurately ripped
20 [7e6a6f74|5e6ea1d4] (08+18/26) Accurately ripped
21 [b7c16c08|94684817] (08+18/26) Accurately ripped
22 [e170f01a|d3d90852] (08+18/26) Accurately ripped
23 [55193186|89fabd37] (08+18/26) Accurately ripped
24 [8bdbf1a2|92ae5224] (08+18/26) Accurately ripped

Track Peak [ CRC32 ] [W/O NULL] [ LOG ]
– 89,1 [685AC830] [A216584F]
01 88,7 [ED2F3CC7] [20D647ED] CRC32
02 88,7 [7356F16B] [C4DF6230] CRC32
03 88,8 [4B358C08] [135BD67F] CRC32
04 88,2 [FD894A63] [2D68C452] CRC32
05 89,1 [4255B1AE] [885DCBD5] CRC32
06 88,3 [1D4765AC] [9D78DDCF] CRC32
07 88,6 [64E27A5F] [6A770FF5] CRC32
08 88,3 [F87D2746] [B0036E9F] CRC32
09 88,1 [DE07ED1F] [EE16800B] CRC32
10 88,9 [741F2373] [11721FA8] CRC32
11 88,3 [0C7CDDD5] [85A3478F] CRC32
12 88,3 [C666F016] [7FD96411] CRC32
13 88,2 [19647663] [60FF71EE] CRC32
14 84,4 [67E44C95] [604312AE] CRC32
15 88,6 [459BBCEC] [B6E89F47] CRC32
16 89,0 [787544A7] [65B3AC3C] CRC32
17 88,8 [13040750] [0C0A66B2] CRC32
18 88,2 [D8C717FF] [0C1C1FCB] CRC32
19 88,9 [A5DE69F6] [D7177C34] CRC32
20 88,8 [A94DDC20] [ABE658C3] CRC32
21 88,4 [34C6719E] [CDD29141] CRC32
22 89,1 [41F755C0] [B1D1E9EB] CRC32
23 88,1 [BE8505E9] [11D19247] CRC32
24 88,4 [F2442F19] [A2C0DF1D] CRC32


The Small Faces - The Immediate Years (1995) [4CD Box Set]

Tracklist CD3:

01.Ogden's Nut Gone Flake
02.Afterglow (Of Your Love)
03.Long Agos And Worlds Apart
04.Rene
05.Song Of A Baker
06.Lazy Sunday
07.Happiness Stan
08.Rollin' Over
09.The Hungry Intruder
10.The Journey
11.Mad John
12.Happydaystoytown
13.Rollin' Over (Live Version)
14.If I Were A Carpenter (Live Version)
15.Every Little Bit Hurts (Live Version)
16.All Or Nothing (Live Version)
17.Tin Soldier (Live Version)

Converted to Image (CUETools 2.1.4)

Exact Audio Copy V1.0 beta 1 from 15. November 2010

EAC extraction logfile from 29. November 2011, 13:55

Small Faces / The Immediate Years (CD 3)

Used drive : TSSTcorpCDDVDW TS-L633C Adapter: 1 ID: 0

Read mode : Secure
Utilize accurate stream : Yes
Defeat audio cache : Yes
Make use of C2 pointers : No

Read offset correction : 6
Overread into Lead-In and Lead-Out : No
Fill up missing offset samples with silence : Yes
Delete leading and trailing silent blocks : No
Null samples used in CRC calculations : Yes
Used interface : Native Win32 interface for Win NT & 2000
Gap handling : Appended to previous track

Used output format : User Defined Encoder
Selected bitrate : 768 kBit/s
Quality : High
Add ID3 tag : No
Command line compressor : C:\Program Files\Exact Audio Copy\FLAC\FLAC.EXE
Additional command line options : -6 -V -T "ARTIST=%a" -T "TITLE=%t" -T "ALBUM=%g" -T "DATE=%y" -T "TRACKNUMBER=%n" -T "GENRE=%m" -T "COMMENT=%e" %j–picture="%i"%j %s -o %d


TOC of the extracted CD

Track | Start | Length | Start sector | End sector
––––––––––––––––––––––––––––-
1 | 0:00.00 | 2:29.42 | 0 | 11216
2 | 2:29.42 | 3:32.73 | 11217 | 27189
3 | 6:02.40 | 2:34.15 | 27190 | 38754
4 | 8:36.55 | 4:31.52 | 38755 | 59131
5 | 13:08.32 | 3:16.38 | 59132 | 73869
6 | 16:24.70 | 3:07.07 | 73870 | 87901
7 | 19:32.02 | 2:36.58 | 87902 | 99659
8 | 22:08.60 | 2:49.62 | 99660 | 112396
9 | 24:58.47 | 2:14.70 | 112397 | 122516
10 | 27:13.42 | 4:09.35 | 122517 | 141226
11 | 31:23.02 | 2:50.25 | 141227 | 154001
12 | 34:13.27 | 4:21.15 | 154002 | 173591
13 | 38:34.42 | 2:31.30 | 173592 | 184946
14 | 41:05.72 | 2:33.13 | 184947 | 196434
15 | 43:39.10 | 6:22.17 | 196435 | 225101
16 | 50:01.27 | 3:43.08 | 225102 | 241834
17 | 53:44.35 | 3:22.67 | 241835 | 257051


Track 1

Filename H:\music\yalinc\Small Faces - The Immediate Years\Small Faces CD3\01 - Small Faces - Ogden's Nut Gone Flake.wav

Pre-gap length 0:00:02.00

Peak level 88.7 %
Extraction speed 1.4 X
Track quality 100.0 %
Test CRC 9D2F1C55
Copy CRC 9D2F1C55
Accurately ripped (confidence 9) [8FF7A606]
Copy OK

Track 2

Filename H:\music\yalinc\Small Faces - The Immediate Years\Small Faces CD3\02 - Small Faces - Afterglow (Of Your Love).wav

Pre-gap length 0:00:02.50

Peak level 88.4 %
Extraction speed 1.6 X
Track quality 100.0 %
Test CRC 753EAD0C
Copy CRC 753EAD0C
Accurately ripped (confidence 9) [944D0214]
Copy OK

Track 3

Filename H:\music\yalinc\Small Faces - The Immediate Years\Small Faces CD3\03 - Small Faces - Long Agos And Worlds Apart.wav

Pre-gap length 0:00:02.50

Peak level 65.0 %
Extraction speed 1.6 X
Track quality 100.0 %
Test CRC A7477A76
Copy CRC A7477A76
Accurately ripped (confidence 9) [A0DF5E7B]
Copy OK

Track 4

Filename H:\music\yalinc\Small Faces - The Immediate Years\Small Faces CD3\04 - Small Faces - Rene.wav

Peak level 88.2 %
Extraction speed 1.9 X
Track quality 100.0 %
Test CRC 63CC3E6F
Copy CRC 63CC3E6F
Accurately ripped (confidence 9) [E664E47D]
Copy OK

Track 5

Filename H:\music\yalinc\Small Faces - The Immediate Years\Small Faces CD3\05 - Small Faces - Song Of A Baker.wav

Pre-gap length 0:00:02.50

Peak level 89.0 %
Extraction speed 1.9 X
Track quality 100.0 %
Test CRC 04B537BD
Copy CRC 04B537BD
Accurately ripped (confidence 9) [D304AC8D]
Copy OK

Track 6

Filename H:\music\yalinc\Small Faces - The Immediate Years\Small Faces CD3\06 - Small Faces - Lazy Sunday.wav

Pre-gap length 0:00:02.50

Peak level 88.6 %
Extraction speed 2.0 X
Track quality 100.0 %
Test CRC CA62CA67
Copy CRC CA62CA67
Accurately ripped (confidence 9) [0160DC4A]
Copy OK

Track 7

Filename H:\music\yalinc\Small Faces - The Immediate Years\Small Faces CD3\07 - Small Faces - Happiness Stan.wav

Pre-gap length 0:00:02.50

Peak level 71.7 %
Extraction speed 2.0 X
Track quality 100.0 %
Test CRC 01FE52FE
Copy CRC 01FE52FE
Accurately ripped (confidence 9) [A9AE4B99]
Copy OK

Track 8

Filename H:\music\yalinc\Small Faces - The Immediate Years\Small Faces CD3\08 - Small Faces - Rollin' Over.wav

Peak level 89.1 %
Extraction speed 2.1 X
Track quality 100.0 %
Test CRC 77BEF3C8
Copy CRC 77BEF3C8
Accurately ripped (confidence 9) [EB19A67A]
Copy OK

Track 9

Filename H:\music\yalinc\Small Faces - The Immediate Years\Small Faces CD3\09 - Small Faces - The Hungry Intruder.wav

Peak level 62.6 %
Extraction speed 2.1 X
Track quality 100.0 %
Test CRC E7593BE2
Copy CRC E7593BE2
Accurately ripped (confidence 9) [D7D4D3F5]
Copy OK

Track 10

Filename H:\music\yalinc\Small Faces - The Immediate Years\Small Faces CD3\10 - Small Faces - The Journey.wav

Peak level 74.4 %
Extraction speed 2.4 X
Track quality 100.0 %
Test CRC 9C78BC4A
Copy CRC 9C78BC4A
Accurately ripped (confidence 9) [E4BB1AD7]
Copy OK

Track 11

Filename H:\music\yalinc\Small Faces - The Immediate Years\Small Faces CD3\11 - Small Faces - Mad John.wav

Peak level 62.1 %
Extraction speed 2.0 X
Track quality 99.9 %
Test CRC 7F2CAB37
Copy CRC 7F2CAB37
Accurately ripped (confidence 9) [C322ED94]
Copy OK

Track 12

Filename H:\music\yalinc\Small Faces - The Immediate Years\Small Faces CD3\12 - Small Faces - Happydaystoytown.wav

Peak level 67.6 %
Extraction speed 2.5 X
Track quality 100.0 %
Test CRC 8BEABB80
Copy CRC 8BEABB80
Accurately ripped (confidence 9) [BFB2D363]
Copy OK

Track 13

Filename H:\music\yalinc\Small Faces - The Immediate Years\Small Faces CD3\13 - Small Faces - Rollin' Over (live).wav

Pre-gap length 0:00:02.50

Peak level 84.5 %
Extraction speed 2.0 X
Track quality 99.9 %
Test CRC 8803058F
Copy CRC 8803058F
Accurately ripped (confidence 9) [F4BF3292]
Copy OK

Track 14

Filename H:\music\yalinc\Small Faces - The Immediate Years\Small Faces CD3\14 - Small Faces - If I Were A Carpenter (live).wav

Peak level 83.0 %
Extraction speed 2.5 X
Track quality 100.0 %
Test CRC EB591AC8
Copy CRC EB591AC8
Accurately ripped (confidence 9) [CF0B55B7]
Copy OK

Track 15

Filename H:\music\yalinc\Small Faces - The Immediate Years\Small Faces CD3\15 - Small Faces - Every Little Bit Hurts (live).wav

Peak level 88.9 %
Extraction speed 2.6 X
Track quality 99.9 %
Test CRC 45A4AFF1
Copy CRC 45A4AFF1
Accurately ripped (confidence 9) [CA23F125]
Copy OK

Track 16

Filename H:\music\yalinc\Small Faces - The Immediate Years\Small Faces CD3\16 - Small Faces - All Or Nothing (live).wav

Peak level 80.4 %
Extraction speed 2.8 X
Track quality 100.0 %
Test CRC BFB3C7DF
Copy CRC BFB3C7DF
Accurately ripped (confidence 9) [77396DAA]
Copy OK

Track 17

Filename H:\music\yalinc\Small Faces - The Immediate Years\Small Faces CD3\17 - Small Faces - Tin Soldier (live).wav

Peak level 66.0 %
Extraction speed 2.4 X
Track quality 99.9 %
Test CRC 81C7F484
Copy CRC 81C7F484
Accurately ripped (confidence 9) [19257534]
Copy OK


All tracks accurately ripped

No errors occurred

End of status report

==== Log checksum 64AB0C621FA9FEF7E35C42FC46083E732C8393FD0B95430E1D7C9D128B4D70A4 ====


[CUETools log; Date: 27.01.2018 14:01:03; Version: 2.1.5]
[AccurateRip ID: 0021ac70-01ae020d-d30d6311] found.
Track [ CRC | V2 ] Status
01 [8ff7a606|967ed211] (09+17/26) Accurately ripped
02 [944d0214|c72c25ca] (09+17/26) Accurately ripped
03 [a0df5e7b|48d66013] (09+17/26) Accurately ripped
04 [e664e47d|d40e3e34] (09+17/26) Accurately ripped
05 [d304ac8d|108e7eb2] (09+17/26) Accurately ripped
06 [0160dc4a|71bafb01] (10+17/27) Accurately ripped
07 [a9ae4b99|a1c0ea4a] (09+17/26) Accurately ripped
08 [eb19a67a|24906b0a] (09+17/26) Accurately ripped
09 [d7d4d3f5|e17942fe] (09+17/26) Accurately ripped
10 [e4bb1ad7|20d02b77] (09+17/26) Accurately ripped
11 [c322ed94|95db6be8] (09+17/26) Accurately ripped
12 [bfb2d363|d6e20101] (09+17/26) Accurately ripped
13 [f4bf3292|5042fbed] (09+17/26) Accurately ripped
14 [cf0b55b7|730ba831] (09+17/26) Accurately ripped
15 [ca23f125|60ec8f0b] (09+17/26) Accurately ripped
16 [77396daa|a19e50cd] (09+17/26) Accurately ripped
17 [19257534|e64e2399] (09+18/27) Accurately ripped

Track Peak [ CRC32 ] [W/O NULL] [ LOG ]
– 89,1 [C7E6D62F] [37A1EBB3]
01 88,7 [9D2F1C55] [26D5DF97] CRC32
02 88,4 [753EAD0C] [7E50B028] CRC32
03 65,0 [A7477A76] [1B63FD00] CRC32
04 88,2 [63CC3E6F] [85859FC1] CRC32
05 89,0 [04B537BD] [ADD6A45F] CRC32
06 88,6 [CA62CA67] [A34B0C29] CRC32
07 71,7 [01FE52FE] [C879F670] CRC32
08 89,1 [77BEF3C8] [D911ADE7] CRC32
09 62,6 [E7593BE2] [42ED3882] CRC32
10 74,4 [9C78BC4A] [97488B58] CRC32
11 62,1 [7F2CAB37] [7AD7465A] CRC32
12 67,6 [8BEABB80] [499F75B4] CRC32
13 84,5 [8803058F] [31645156] CRC32
14 83,0 [EB591AC8] [9C280895] CRC32
15 88,9 [45A4AFF1] [7ECBFDEA] CRC32
16 80,4 [BFB3C7DF] [362E2EE5] CRC32
17 66,0 [81C7F484] [AF7026AB] CRC32


The Small Faces - The Immediate Years (1995) [4CD Box Set]

Tracklist CD4:

01.Call It Something Nice
02.The Autumn Stone
03.Every Little Bit Hurts (Studio Version)
04.Collibosher
05.Red Balloon
06.Don't Burst My Bubble
07.(Tell Me) Have You Ever Seen Me (Vers.3)
08.Green Circles (Version 2)
09.Picaninny
10.The Pig Trotters
11.The War Of The Worlds
12.Wide-Eyed Girl On The Wall
13.Tin Soldier (Instrumental Version)
14.Green Circles (Usa Mix)
15.Wham Bam,Thank You Mam (Guide Vocal)
16.Collibosher (Alternate Mix)
17.Donkey Rides,A Penny,A Glass (Alt. Mix..
18.The Hungry Intruder (Instrumental…
19.Red Balloon (Alternate Mix)
20.Tin Soldier (Half Instrumental,Half…
21.The Autumn Stone (Alternate Mix)
22.Wide-Eyed Girl On The Wall (Alt. Mix)

Converted to Image (CUETools 2.1.4)

Exact Audio Copy V1.0 beta 1 from 15. November 2010

EAC extraction logfile from 29. November 2011, 15:10

Small Faces / The Immediate Years (CD 4)

Used drive : TSSTcorpCDDVDW TS-L633C Adapter: 1 ID: 0

Read mode : Secure
Utilize accurate stream : Yes
Defeat audio cache : Yes
Make use of C2 pointers : No

Read offset correction : 6
Overread into Lead-In and Lead-Out : No
Fill up missing offset samples with silence : Yes
Delete leading and trailing silent blocks : No
Null samples used in CRC calculations : Yes
Used interface : Native Win32 interface for Win NT & 2000
Gap handling : Appended to previous track

Used output format : User Defined Encoder
Selected bitrate : 768 kBit/s
Quality : High
Add ID3 tag : No
Command line compressor : C:\Program Files\Exact Audio Copy\FLAC\FLAC.EXE
Additional command line options : -6 -V -T "ARTIST=%a" -T "TITLE=%t" -T "ALBUM=%g" -T "DATE=%y" -T "TRACKNUMBER=%n" -T "GENRE=%m" -T "COMMENT=%e" %j–picture="%i"%j %s -o %d


TOC of the extracted CD

Track | Start | Length | Start sector | End sector
––––––––––––––––––––––––––––-
1 | 0:00.00 | 2:06.47 | 0 | 9496
2 | 2:06.47 | 4:00.58 | 9497 | 27554
3 | 6:07.30 | 3:56.60 | 27555 | 45314
4 | 10:04.15 | 3:13.02 | 45315 | 59791
5 | 13:17.17 | 4:13.28 | 59792 | 78794
6 | 17:30.45 | 2:24.27 | 78795 | 89621
7 | 19:54.72 | 2:06.25 | 89622 | 99096
8 | 22:01.22 | 2:35.55 | 99097 | 110776
9 | 24:37.02 | 3:04.58 | 110777 | 124634
10 | 27:41.60 | 2:47.17 | 124635 | 137176
11 | 30:29.02 | 3:15.03 | 137177 | 151804
12 | 33:44.05 | 2:48.30 | 151805 | 164434
13 | 36:32.35 | 3:03.50 | 164435 | 178209
14 | 39:36.10 | 2:52.62 | 178210 | 191171
15 | 42:28.72 | 3:22.68 | 191172 | 206389
16 | 45:51.65 | 3:35.02 | 206390 | 222516
17 | 49:26.67 | 3:08.60 | 222517 | 236676
18 | 52:35.52 | 2:04.48 | 236677 | 246024
19 | 54:40.25 | 4:21.67 | 246025 | 265666
20 | 59:02.17 | 3:24.50 | 265667 | 281016
21 | 62:26.67 | 4:00.23 | 281017 | 299039
22 | 66:27.15 | 2:58.17 | 299040 | 312406


Track 1

Filename H:\music\yalinc\Small Faces - The Immediate Years\Small Faces CD4\01 - Small Faces - Call It Something Nice.wav

Pre-gap length 0:00:02.00

Peak level 88.6 %
Extraction speed 1.5 X
Track quality 100.0 %
Test CRC 5B8C0CD3
Copy CRC 5B8C0CD3
Accurately ripped (confidence 8) [930729C5]
Copy OK

Track 2

Filename H:\music\yalinc\Small Faces - The Immediate Years\Small Faces CD4\02 - Small Faces - The Autumn Stone.wav

Pre-gap length 0:00:02.50

Peak level 91.6 %
Extraction speed 1.8 X
Track quality 100.0 %
Test CRC 79F45107
Copy CRC 79F45107
Accurately ripped (confidence 8) [D79C1B3F]
Copy OK

Track 3

Filename H:\music\yalinc\Small Faces - The Immediate Years\Small Faces CD4\03 - Small Faces - Every Little Bit Hurts (studio version).wav

Pre-gap length 0:00:02.50

Peak level 88.5 %
Extraction speed 1.9 X
Track quality 100.0 %
Test CRC 6FDA83A2
Copy CRC 6FDA83A2
Accurately ripped (confidence 8) [F7D767B1]
Copy OK

Track 4

Filename H:\music\yalinc\Small Faces - The Immediate Years\Small Faces CD4\04 - Small Faces - Collibosher.wav

Pre-gap length 0:00:02.50

Peak level 88.1 %
Extraction speed 2.0 X
Track quality 100.0 %
Test CRC 9D05DD44
Copy CRC 9D05DD44
Accurately ripped (confidence 8) [56C4F328]
Copy OK

Track 5

Filename H:\music\yalinc\Small Faces - The Immediate Years\Small Faces CD4\05 - Small Faces - Red Balloon.wav

Pre-gap length 0:00:02.50

Peak level 90.8 %
Extraction speed 2.0 X
Track quality 99.9 %
Test CRC ED62D4D7
Copy CRC ED62D4D7
Accurately ripped (confidence 8) [F21E46E3]
Copy OK

Track 6

Filename H:\music\yalinc\Small Faces - The Immediate Years\Small Faces CD4\06 - Small Faces - Don't Burst My Bubble.wav

Pre-gap length 0:00:02.50

Peak level 89.6 %
Extraction speed 2.1 X
Track quality 100.0 %
Test CRC FB50AC63
Copy CRC FB50AC63
Accurately ripped (confidence 8) [7ED22959]
Copy OK

Track 7

Filename H:\music\yalinc\Small Faces - The Immediate Years\Small Faces CD4\07 - Small Faces - (Tell Me) Have You Ever Seen Me (version 3).wav

Pre-gap length 0:00:02.50

Peak level 88.1 %
Extraction speed 2.1 X
Track quality 100.0 %
Test CRC 7C993AB5
Copy CRC 7C993AB5
Accurately ripped (confidence 8) [E5A50A02]
Copy OK

Track 8

Filename H:\music\yalinc\Small Faces - The Immediate Years\Small Faces CD4\08 - Small Faces - Green Circles (version 2).wav

Pre-gap length 0:00:02.50

Peak level 88.4 %
Extraction speed 1.9 X
Track quality 99.9 %
Test CRC E1F04AAC
Copy CRC E1F04AAC
Accurately ripped (confidence 8) [7321D397]
Copy OK

Track 9

Filename H:\music\yalinc\Small Faces - The Immediate Years\Small Faces CD4\09 - Small Faces - Picaninny.wav

Pre-gap length 0:00:02.50

Peak level 90.2 %
Extraction speed 2.4 X
Track quality 100.0 %
Test CRC 7E3CBBCF
Copy CRC 7E3CBBCF
Accurately ripped (confidence 8) [F916DE67]
Copy OK

Track 10

Filename H:\music\yalinc\Small Faces - The Immediate Years\Small Faces CD4\10 - Small Faces - The Pig Trotters.wav

Pre-gap length 0:00:02.50

Peak level 88.8 %
Extraction speed 2.4 X
Track quality 100.0 %
Test CRC 3E3E39FD
Copy CRC 3E3E39FD
Accurately ripped (confidence 8) [1FCAFA26]
Copy OK

Track 11

Filename H:\music\yalinc\Small Faces - The Immediate Years\Small Faces CD4\11 - Small Faces - The War Of The Worlds.wav

Pre-gap length 0:00:02.50

Peak level 89.0 %
Extraction speed 2.6 X
Track quality 100.0 %
Test CRC 396E1AF8
Copy CRC 396E1AF8
Accurately ripped (confidence 8) [8B590324]
Copy OK

Track 12

Filename H:\music\yalinc\Small Faces - The Immediate Years\Small Faces CD4\12 - Small Faces - Wide-Eyed Girl On The Wall.wav

Pre-gap length 0:00:02.50

Peak level 90.5 %
Extraction speed 2.6 X
Track quality 100.0 %
Test CRC 4033F746
Copy CRC 4033F746
Accurately ripped (confidence 8) [20B80213]
Copy OK

Track 13

Filename H:\music\yalinc\Small Faces - The Immediate Years\Small Faces CD4\13 - Small Faces - Tin Soldier (instrumental version).wav

Pre-gap length 0:00:02.50

Peak level 88.9 %
Extraction speed 2.7 X
Track quality 100.0 %
Test CRC ADCC1422
Copy CRC ADCC1422
Accurately ripped (confidence 8) [BA8E9385]
Copy OK

Track 14

Filename H:\music\yalinc\Small Faces - The Immediate Years\Small Faces CD4\14 - Small Faces - Green Circles (USA mix).wav

Pre-gap length 0:00:02.50

Peak level 88.8 %
Extraction speed 2.7 X
Track quality 100.0 %
Test CRC 834B67BD
Copy CRC 834B67BD
Accurately ripped (confidence 8) [54D98211]
Copy OK

Track 15

Filename H:\music\yalinc\Small Faces - The Immediate Years\Small Faces CD4\15 - Small Faces - Wham Bam, Thank You Mam (guide vocal).wav

Pre-gap length 0:00:02.50

Peak level 89.1 %
Extraction speed 2.8 X
Track quality 100.0 %
Test CRC 4CE6FCC4
Copy CRC 4CE6FCC4
Accurately ripped (confidence 8) [06CFB5D5]
Copy OK

Track 16

Filename H:\music\yalinc\Small Faces - The Immediate Years\Small Faces CD4\16 - Small Faces - Collibosher (alternate mix).wav

Pre-gap length 0:00:02.50

Peak level 88.9 %
Extraction speed 2.9 X
Track quality 100.0 %
Test CRC C048C12D
Copy CRC C048C12D
Accurately ripped (confidence 8) [0BAAAC37]
Copy OK

Track 17

Filename H:\music\yalinc\Small Faces - The Immediate Years\Small Faces CD4\17 - Small Faces - Donkey Rides, A Penny, A Glass (alternate mix with Experimental Brass Overdubs).wav

Pre-gap length 0:00:02.50

Peak level 88.9 %
Extraction speed 2.9 X
Track quality 100.0 %
Test CRC 4D82E651
Copy CRC 4D82E651
Accurately ripped (confidence 8) [0D7C42FC]
Copy OK

Track 18

Filename H:\music\yalinc\Small Faces - The Immediate Years\Small Faces CD4\18 - Small Faces - The Hungry Intruder (instrumental version).wav

Pre-gap length 0:00:02.50

Peak level 88.6 %
Extraction speed 2.7 X
Track quality 100.0 %
Test CRC CA7EEE48
Copy CRC CA7EEE48
Accurately ripped (confidence 8) [1C16280F]
Copy OK

Track 19

Filename H:\music\yalinc\Small Faces - The Immediate Years\Small Faces CD4\19 - Small Faces - Red Balloon (alternate mix).wav

Pre-gap length 0:00:02.50

Peak level 94.5 %
Extraction speed 3.1 X
Track quality 100.0 %
Test CRC 0EDC3FCC
Copy CRC 0EDC3FCC
Accurately ripped (confidence 8) [0AADBB06]
Copy OK

Track 20

Filename H:\music\yalinc\Small Faces - The Immediate Years\Small Faces CD4\20 - Small Faces - Tin Soldier (half instrumental, half vocal mix).wav

Pre-gap length 0:00:02.50

Peak level 89.9 %
Extraction speed 3.0 X
Track quality 100.0 %
Test CRC CFB05EBC
Copy CRC CFB05EBC
Accurately ripped (confidence 8) [50213057]
Copy OK

Track 21

Filename H:\music\yalinc\Small Faces - The Immediate Years\Small Faces CD4\21 - Small Faces - The Autumn Stone (alternate mix).wav

Pre-gap length 0:00:02.50

Peak level 88.8 %
Extraction speed 3.1 X
Track quality 100.0 %
Test CRC F6A35003
Copy CRC F6A35003
Accurately ripped (confidence 8) [94F8237C]
Copy OK

Track 22

Filename H:\music\yalinc\Small Faces - The Immediate Years\Small Faces CD4\22 - Small Faces - Wide-Eyed Girl On The Wall (alternate mix).wav

Pre-gap length 0:00:02.50

Peak level 88.9 %
Extraction speed 3.0 X
Track quality 100.0 %
Test CRC D54B21A5
Copy CRC D54B21A5
Accurately ripped (confidence 8) [F76A6915]
Copy OK


All tracks accurately ripped

No errors occurred

End of status report

==== Log checksum 52BC49767EC311F8E6C02F93C602B082646F63F0D9E2792CA4D8726C925E201D ====


[CUETools log; Date: 27.01.2018 14:06:35; Version: 2.1.5]
[AccurateRip ID: 0035fad8-035ed8cd-5f104516] found.
Track [ CRC | V2 ] Status
01 [930729c5|25def83d] (08+17/25) Accurately ripped
02 [d79c1b3f|edac76c0] (08+17/25) Accurately ripped
03 [f7d767b1|288a71bb] (08+17/25) Accurately ripped
04 [56c4f328|e7299a8c] (08+17/25) Accurately ripped
05 [f21e46e3|001629c3] (08+18/26) Accurately ripped
06 [7ed22959|3489b37d] (08+18/26) Accurately ripped
07 [e5a50a02|10446e41] (08+18/26) Accurately ripped
08 [7321d397|4d41e8e6] (08+18/26) Accurately ripped
09 [f916de67|de9ab88c] (08+18/26) Accurately ripped
10 [1fcafa26|183a43ec] (08+18/26) Accurately ripped
11 [8b590324|a02687b5] (08+18/26) Accurately ripped
12 [20b80213|eb3c8eb9] (08+18/26) Accurately ripped
13 [ba8e9385|1888bea2] (08+18/26) Accurately ripped
14 [54d98211|1ebf8678] (08+18/26) Accurately ripped
15 [06cfb5d5|187982aa] (08+18/26) Accurately ripped
16 [0baaac37|55575718] (08+18/26) Accurately ripped
17 [0d7c42fc|b418b649] (08+18/26) Accurately ripped
18 [1c16280f|94bd72f6] (08+18/26) Accurately ripped
19 [0aadbb06|fc7769de] (08+18/26) Accurately ripped
20 [50213057|106238e5] (08+18/26) Accurately ripped
21 [94f8237c|fd94a18c] (08+18/26) Accurately ripped
22 [f76a6915|dddb606f] (08+18/26) Accurately ripped

Track Peak [ CRC32 ] [W/O NULL] [ LOG ]
– 94,5 [0038A58A] [4E947C1A]
01 88,6 [5B8C0CD3] [9ADA2BF9] CRC32
02 91,6 [79F45107] [24E75920] CRC32
03 88,5 [6FDA83A2] [5257EDFB] CRC32
04 88,1 [9D05DD44] [904617DC] CRC32
05 90,8 [ED62D4D7] [7F5F5202] CRC32
06 89,6 [FB50AC63] [C94F7137] CRC32
07 88,1 [7C993AB5] [ED038BB7] CRC32
08 88,4 [E1F04AAC] [69A1D4A3] CRC32
09 90,2 [7E3CBBCF] [89470CF6] CRC32
10 88,8 [3E3E39FD] [3108D0C8] CRC32
11 89,0 [396E1AF8] [6CD3F5D6] CRC32
12 90,5 [4033F746] [9E4DC50D] CRC32
13 88,9 [ADCC1422] [1E2B910F] CRC32
14 88,8 [834B67BD] [713B7A91] CRC32
15 89,1 [4CE6FCC4] [87BC252C] CRC32
16 88,9 [C048C12D] [52192EC0] CRC32
17 88,9 [4D82E651] [F550FDEF] CRC32
18 88,6 [CA7EEE48] [55DD1CE8] CRC32
19 94,5 [0EDC3FCC] [610DBDF0] CRC32
20 89,9 [CFB05EBC] [4A07AF4E] CRC32
21 88,8 [F6A35003] [26E95021] CRC32
22 88,9 [D54B21A5] [FE66813B] CRC32


The Small Faces - The Immediate Years (1995) [4CD Box Set]

All thanks go to yalinc

The Small Faces in my Blog

Download The Small Faces - The Immediate Years (1995):