Tags
Language
Tags

The Smokin' Joe Kubek Band & Bnois King - Steppin' Out Texas Style (1991)

Posted By:
The Smokin' Joe Kubek Band & Bnois King - Steppin' Out Texas Style (1991)

The Smokin' Joe Kubek Band & Bnois King - Steppin' Out Texas Style (1991)
EAC | FLAC | Tracks (Cue&Log) ~ 253 Mb | Mp3 (CBR320) ~ 100 Mb | Covers included | 00:41:03
Modern Electric Texas Blues | Label: Bullseye Blues/Rounder | # CD BB 9510

Smokin' Joe Kubek's debut album is a delight. Kubek leads his band through a set of smoking hot Texas and Memphis blues, delivered with passion – they can play this music with precision, but they choose to be looser and more fun than most traditionalists. Kubek's a skillful guitarist and B'Nois King, his vocalist and rhythm guitarist, can play nearly as well and their duels are the high watermark of an already wonderful album.

Review by Thom Owens, Allmusic.com

Dallas guitar stylist Kubek and his band marshal their forces to show that the confidently expansive mood of Stevie Ray Vaughan endures. Kubek and vocalist/guitarist B'nois King discipline their interplay, with the latter's singing warmer than a sip of middle-shelf scotch, and bassist Greg Wright and drummer Phil Campbell know how to push the beat in that special sagebrush fashion. Only together a year at the time of this session, in mid 1991, they display a pentatonic stylishness that bodes well for the future.

Review by © Frank John Hadley 1993 – From Grove Press Guide to Blues on CD

The Smokin' Joe Kubek Band & Bnois King - Steppin' Out Texas Style (1991)



Tracklist:

01. Comin' Home Today (2:50)
02. I Wonder Why (5:24)
03. Natural Born Lover (3:36)
04. Everybody's Talkin' (3:05)
05. Square Bizness (5:31)
06. Hands On It (3:02)
07. Smokin' Joe's Cafe (5:42)
08. That's All I Want (4:17)
09. Steppin' Out (3:12)
10. Lonely Days (4:26)


Exact Audio Copy V1.0 beta 3 from 29. August 2011

EAC extraction logfile from 20. November 2014, 13:21

The Smokin' Joe Kubek Band featuring B'nois King / Steppin' Out Texas Style

Used drive : HL-DT-STBD-RE WH14NS40 Adapter: 9 ID: 0

Read mode : Secure
Utilize accurate stream : Yes
Defeat audio cache : Yes
Make use of C2 pointers : No

Read offset correction : 6
Overread into Lead-In and Lead-Out : No
Fill up missing offset samples with silence : Yes
Delete leading and trailing silent blocks : No
Null samples used in CRC calculations : Yes
Used interface : Native Win32 interface for Win NT & 2000
Gap handling : Appended to previous track

Used output format : Internal WAV Routines
Sample format : 44.100 Hz; 16 Bit; Stereo


TOC of the extracted CD

Track | Start | Length | Start sector | End sector
––––––––––––––––––––––––––––-
1 | 0:00.00 | 2:49.65 | 0 | 12739
2 | 2:49.65 | 5:23.55 | 12740 | 37019
3 | 8:13.45 | 3:36.17 | 37020 | 53236
4 | 11:49.62 | 3:04.55 | 53237 | 67091
5 | 14:54.42 | 5:30.53 | 67092 | 91894
6 | 20:25.20 | 3:01.45 | 91895 | 105514
7 | 23:26.65 | 5:41.42 | 105515 | 131131
8 | 29:08.32 | 4:16.43 | 131132 | 150374
9 | 33:25.00 | 3:12.07 | 150375 | 164781
10 | 36:37.07 | 4:25.73 | 164782 | 184729


Track 1

Filename E:\Ripped Albums\The_Smokin'_Joe_Kubek_Band_featuring_B'nois_King-Steppin'_Out_Texas_Style-1991\01-Comin'_Home_Today.wav

Pre-gap length 0:00:02.00

Peak level 96.1 %
Extraction speed 2.8 X
Track quality 100.0 %
Test CRC 771DEAC8
Copy CRC 771DEAC8
Accurately ripped (confidence 3) [F753A74C] (AR v1)
Copy OK

Track 2

Filename E:\Ripped Albums\The_Smokin'_Joe_Kubek_Band_featuring_B'nois_King-Steppin'_Out_Texas_Style-1991\02-I_Wonder_Why.wav

Pre-gap length 0:00:01.46

Peak level 90.8 %
Extraction speed 1.3 X
Track quality 100.0 %
Test CRC 2C6A52ED
Copy CRC 2C6A52ED
Accurately ripped (confidence 3) [7C617B44] (AR v1)
Copy OK

Track 3

Filename E:\Ripped Albums\The_Smokin'_Joe_Kubek_Band_featuring_B'nois_King-Steppin'_Out_Texas_Style-1991\03-Natural_Born_Lover.wav

Pre-gap length 0:00:01.53

Peak level 95.5 %
Extraction speed 1.4 X
Track quality 100.0 %
Test CRC F77629B3
Copy CRC F77629B3
Accurately ripped (confidence 3) [B394C045] (AR v1)
Copy OK

Track 4

Filename E:\Ripped Albums\The_Smokin'_Joe_Kubek_Band_featuring_B'nois_King-Steppin'_Out_Texas_Style-1991\04-Everbody's_Talkin'.wav

Pre-gap length 0:00:01.80

Peak level 84.1 %
Extraction speed 1.4 X
Track quality 100.0 %
Test CRC EA63C27C
Copy CRC EA63C27C
Accurately ripped (confidence 3) [F5D9F829] (AR v1)
Copy OK

Track 5

Filename E:\Ripped Albums\The_Smokin'_Joe_Kubek_Band_featuring_B'nois_King-Steppin'_Out_Texas_Style-1991\05-Square_Bizness.wav

Pre-gap length 0:00:02.00

Peak level 100.0 %
Extraction speed 1.6 X
Track quality 100.0 %
Test CRC 7649ED73
Copy CRC 7649ED73
Accurately ripped (confidence 3) [D8850CD6] (AR v1)
Copy OK

Track 6

Filename E:\Ripped Albums\The_Smokin'_Joe_Kubek_Band_featuring_B'nois_King-Steppin'_Out_Texas_Style-1991\06-Hands_On_It.wav

Pre-gap length 0:00:02.10

Peak level 100.0 %
Extraction speed 1.3 X
Track quality 99.9 %
Test CRC AC7711EB
Copy CRC AC7711EB
Accurately ripped (confidence 3) [9E34D31B] (AR v1)
Copy OK

Track 7

Filename E:\Ripped Albums\The_Smokin'_Joe_Kubek_Band_featuring_B'nois_King-Steppin'_Out_Texas_Style-1991\07-Smokin'_Joe's_Cafe.wav

Pre-gap length 0:00:00.80

Peak level 98.5 %
Extraction speed 1.8 X
Track quality 100.0 %
Test CRC B9A56497
Copy CRC B9A56497
Accurately ripped (confidence 3) [5960A004] (AR v1)
Copy OK

Track 8

Filename E:\Ripped Albums\The_Smokin'_Joe_Kubek_Band_featuring_B'nois_King-Steppin'_Out_Texas_Style-1991\08-That's_All_I_Want.wav

Pre-gap length 0:00:02.02

Peak level 99.9 %
Extraction speed 1.9 X
Track quality 100.0 %
Test CRC 63B83E4F
Copy CRC 63B83E4F
Accurately ripped (confidence 3) [8CE58349] (AR v1)
Copy OK

Track 9

Filename E:\Ripped Albums\The_Smokin'_Joe_Kubek_Band_featuring_B'nois_King-Steppin'_Out_Texas_Style-1991\09-Steppin'_Out.wav

Pre-gap length 0:00:02.17

Peak level 100.0 %
Extraction speed 1.8 X
Track quality 100.0 %
Test CRC D8B5DF09
Copy CRC D8B5DF09
Accurately ripped (confidence 3) [377E74B4] (AR v1)
Copy OK

Track 10

Filename E:\Ripped Albums\The_Smokin'_Joe_Kubek_Band_featuring_B'nois_King-Steppin'_Out_Texas_Style-1991\10-Lonely_Days.wav

Pre-gap length 0:00:02.53

Peak level 81.8 %
Extraction speed 1.7 X
Track quality 99.9 %
Test CRC 52F519C3
Copy CRC 52F519C3
Accurately ripped (confidence 3) [D40E2DD7] (AR v1)
Copy OK


All tracks accurately ripped

No errors occurred

End of status report

–– CUETools DB Plugin V2.1.3

[CTDB TOCID: QWZ86IiJYzKbqw1L5GZ8tRX9zpE-] found, Submit result: QWZ86IiJYzKbqw1L5GZ8tRX9zpE- has been confirmed
[aaa446f0] (3/3) Accurately ripped


==== Log checksum C11D69BE71573A8E03DD8BE7D47CB9BDB8EB60F5F5AC675662805D87B1BDE1F4 ====

[CUETools log; Date: 08.04.2018 2:03:02; Version: 2.1.4]
[CTDB TOCID: QWZ86IiJYzKbqw1L5GZ8tRX9zpE-] found.
Track | CTDB Status
1 | (9/9) Accurately ripped
2 | (9/9) Accurately ripped
3 | (9/9) Accurately ripped
4 | (9/9) Accurately ripped
5 | (9/9) Accurately ripped
6 | (9/9) Accurately ripped
7 | (9/9) Accurately ripped
8 | (9/9) Accurately ripped
9 | (9/9) Accurately ripped
10 | (9/9) Accurately ripped
[AccurateRip ID: 000f3c76-007af175-81099f0a] found.
Track [ CRC | V2 ] Status
01 [f753a74c|1713a132] (03+00/12) Accurately ripped
02 [7c617b44|ecd03ed7] (03+00/12) Accurately ripped
03 [b394c045|bbf855e7] (03+00/12) Accurately ripped
04 [f5d9f829|cc58acf2] (03+00/12) Accurately ripped
05 [d8850cd6|4f1addea] (03+00/12) Accurately ripped
06 [9e34d31b|84b462c1] (03+00/12) Accurately ripped
07 [5960a004|ecc74df6] (03+00/12) Accurately ripped
08 [8ce58349|01434bea] (03+00/12) Accurately ripped
09 [377e74b4|87869b1f] (03+00/12) Accurately ripped
10 [d40e2dd7|9fd9f11c] (03+00/12) Accurately ripped
Offsetted by -719:
01 [7465b1bc] (02/12) Accurately ripped
02 [1b06b865] (02/12) Accurately ripped
03 [5abfc45e] (02/12) Accurately ripped
04 [f5ed4f07] (02/12) Accurately ripped
05 [68a88438] (02/12) Accurately ripped
06 [3ed09c97] (02/12) Accurately ripped
07 [251a62b6] (02/12) Accurately ripped
08 [be8cebc0] (02/12) Accurately ripped
09 [13bc954f] (02/12) Accurately ripped
10 [a7f38d44] (02/12) Accurately ripped
Offsetted by -676:
01 [1615538c] (00/12) No match (V2 was not tested)
02 [5a8bf47b] (00/12) No match (V2 was not tested)
03 [137342e1] (00/12) No match (V2 was not tested)
04 [92bdf7fb] (00/12) No match (V2 was not tested)
05 [c5b887ea] (00/12) No match (V2 was not tested)
06 [49f96128] (00/12) No match (V2 was not tested)
07 [585d3c79] (00/12) No match (V2 was not tested)
08 [b8abad83] (00/12) No match (V2 was not tested)
09 [650905dc] (00/12) No match (V2 was not tested)
10 [13b19b60] (00/12) No match (V2 was not tested)

Track Peak [ CRC32 ] [W/O NULL] [ LOG ]
– 100,0 [4DD7A909] [52505A0A]
01 96,1 [771DEAC8] [BCB0E975] CRC32
02 90,8 [2C6A52ED] [8AAB6C1A] CRC32
03 95,5 [F77629B3] [3E32EC93] CRC32
04 84,1 [EA63C27C] [33233834] CRC32
05 100,0 [7649ED73] [7B8EF7B7] CRC32
06 100,0 [AC7711EB] [0FCFD795] CRC32
07 98,5 [B9A56497] [2C1B48C5] CRC32
08 99,9 [63B83E4F] [EE92129B] CRC32
09 100,0 [D8B5DF09] [84834929] CRC32
10 81,8 [52F519C3] [68E44EBC] CRC32

foobar2000 1.2 / Dynamic Range Meter 1.1.1
log date: 2018-04-08 01:52:00

––––––––––––––––––––––––––––––––––––––––
Analyzed: The Smokin' Joe Kubek Band featuring B'nois King / Steppin' Out Texas Style
––––––––––––––––––––––––––––––––––––––––

DR Peak RMS Duration Track
––––––––––––––––––––––––––––––––––––––––
DR14 -0.34 dB -16.27 dB 2:50 1/10-Comin' Home Today
DR14 -0.83 dB -17.21 dB 5:24 2/10-I Wonder Why
DR15 -0.40 dB -16.56 dB 3:36 3/10-Natural Born Lover
DR13 -1.50 dB -16.46 dB 3:05 4/10-Everybody's Talkin'
DR14 0.00 dB -16.86 dB 5:31 5/10-Square Bizness
DR15 0.00 dB -17.19 dB 3:02 6/10-Hands On It
DR14 -0.13 dB -16.88 dB 5:42 7/10-Smokin' Joe's Cafe
DR14 0.00 dB -16.34 dB 4:17 8/10-That's All I Want
DR15 0.00 dB -16.46 dB 3:12 9/10-Steppin' Out
DR14 -1.74 dB -18.02 dB 4:26 10/10-Lonely Days
––––––––––––––––––––––––––––––––––––––––

Number of tracks: 10
Official DR value: DR14

Samplerate: 44100 Hz
Channels: 2
Bits per sample: 16
Bitrate: 819 kbps
Codec: FLAC
================================================================================

The Smokin' Joe Kubek Band & Bnois King - Steppin' Out Texas Style (1991)