Subcategories

The Spinners - Albums Collection (4CD) [Re-Up]

Posted By: Designol
The Spinners - Albums Collection (4CD) [Re-Up]

The Spinners - Albums Collection (4CD)
EAC | FLAC | Image (Cue&Log) ~ 1.41 Gb | Mp3 (CBR320) ~ 592 Mb | Scans included
R&B, Philly Soul, Smooth Soul, Disco | Time: 03:42:56

Collection includes: 'Pick Of The Litter' (1975); Dancin' And Lovin' (1979); 2LP-in-1CD 'From Here To Eternally' (1979)+ 'Love Trippin' (1980); 2LP-in-1CD 'Yesterday, Today & Tomorrow' (1977) + 'Labor Of Love' (1981).

The Spinners were the greatest soul group of the early '70s, creating a body of work that defined the lush, seductive sound of Philly soul. Ironically, the band's roots lay in Detroit, where they formed as a doo wop group during the late '50s. Throughout the '60s, The Spinners tried to land a hit by adapting to the shifting fashions of R&B and pop. By the mid-'60s, they had signed with Motown Records, but the label never gave the group much consideration. "It's a Shame" became a hit in 1970, but the label continued to ignore the group, and dropped the band two years later. Unsigned and featuring new lead singer Phillipe Wynne, The Spinners seemed destined to never break into the big leagues, but they managed to sign with Atlantic Records, where they began working with producer Thom Bell. With his assistance, The Spinners developed a distinctive sound, one that relied on Wynne's breathtaking falsetto and the group's intricate vocal harmonies. Bell provided the group with an appropriately detailed production, creating a detailed web of horns, strings, backing vocals, and lightly funky rhythms. Between 1972 and 1977, The Spinners and Bell recorded a number of soul classics, including "I'll Be Around," "Could It Be I'm Fallin in Love," "Mighty Love," "Ghetto Child," "Then Came You," "Games People Play," and "The Rubberband Man." Wynne left in 1977 and The Spinners had hits for a few years after his departure, but the group will always be remembered for its classic mid-'70s work.

Originally, called the Domingoes, The Spinners formed when the quintet were high school students in the Detroit suburb of Ferndale in 1957. At the time, the group featured Bobbie Smith, Pervis Jackson, George W. Dixon, Billy Henderson, and Henry Fambrough. Four years later, they came to the attention of producer Harvey Fuqua, who began recording the group – who were now called The Spinners – for his Tri-Phi Records. The band's first single, "That's What Girls Are Made For," became a Top Ten R&B hit upon its 1961 release and featured Smith on vocals. Following its release, Dixon was replaced by Edgar "Chico" Edwards. Over the next few years, the group released a series of failed singles, and when Tri-Phi was bought out by Motown in the mid-'60s, The Spinners became part of the larger company's roster. By that time, Edwards had been replaced by G.C. Cameron.

Though The Spinners had some R&B hits at Motown during the late '60s, including "I'll Always Love You" and "Truly Yours," they didn't have a genuine crossover success until 1970, when Stevie Wonder gave the group "It's a Shame." Motown never concentrated on The Spinners, and they let the group go in 1972. Before the band signed with Atlantic Records, Phillipe Wynne replaced Cameron as the group's lead vocalist. Wynne had previously sung with Catfish and Bootsy Collins.

At Atlantic Records, The Spinners worked with producer Thom Bell, who gave the group a lush, seductive sound, complete with sighing strings, a tight rhythm section, sultry horns, and a slight funk underpinning. Wynne quickly emerged as a first-rate soul singer, and the combination of the group's harmonies, Wynne's soaring leads, and Bell's meticulous production made The Spinners the most popular soul group of the '70s. Once the group signed with Atlantic, they became a veritable hit machine, topping the R&B and pop charts with songs like "I'll Be Around," "Could It Be I'm Falling in Love," "One of a Kind (Love Affair)," "Ghetto Child," "Rubberband Man," and "You're Throwing a Good Love Away." Not only were their singles hits, but their albums constantly went gold and charted in the Top 20.

Wynne left the band to pursue a solo career in 1977; he was replaced by John Edwards. Though none of Wynne's solo records were big hits, his tours with Parliament-Funkadelic were well-received, as were his solo concerts. In October 1984, he died of a heart attack during a concert in Oakland, CA. The Spinners, meanwhile, had a number of minor hits in the late '70s, highlighted by their disco covers of "Working My Way Back to You" and the medley "Cupid/I've Loved You for a Long Time." During the early '80s, they had several minor hits before fading away from the charts and entering the oldies circuit, reprising their earlier material for 1999's new studio effort At Their Best.

Biography by Stephen Thomas Erlewine, Allmusic.com

The Spinners - Albums Collection (4CD) [Re-Up]






The Spinners - Albums Collection (4CD) [Re-Up]

The Spinners - Pick Of The Litter (1975) Reissue 1995
EAC | FLAC | Image (Cue&Log) ~ 207 Mb | Mp3 (CBR320) ~ 97 Mb | Scans included
Label: Atlantic | # R2-71884 | Time: 00:33:53

For their fourth Atlantic Records outing, the Spinners – Henry Fambrough (baritone vocal), Billy Henderson (tenor vocal), Pervis Jackson (bass vocal), Bobbie Smith (tenor vocal) and Philippe Wynne (tenor vocal) – cook up another sizable serving of Philly Soul under the care of producer/arranger Thom Bell. Following on the heels of three sequential gold records, it is not particularly surprising that they would continue in the same vein. The danceable R&B grooves – especially the undeniably memorable "They Just Can't Stop It (The Games People Play)" – not to mention the soulful slow jams, were ultimately a factor in making Pick of the Litter (1975) the Spinners' most successful long-player. Although the entire affair clocks in at just over half-an-hour, they pack a great deal into the effort, commencing with the dynamic mid-tempo "Honest I Do." The four-on-the-floor tempo and compact string arrangement are part and parcel of what made their sound so instantly discernible among concurrent copycat combos. They likewise had Wynne's versatile vocals in their arsenal, which was no doubt a significant component in their second 7" side, the compelling "Love or Leave." Instrumentally, the distinctive distorted guitar and refined brass accompaniment are all courtesy of Bell's singular musical vision, and faultlessly executed by the equally unmistakable MFSB Orchestra. "All That Glitters Ain't Gold" is a catchy number sporting a brisk propelling rhythm and score foreshadowing Bell's work with Elton John on "Mama Can't Buy You Love." The batch of ballads on Pick of the Litter are proportionately excellent as well, highlighted by Dionne Warwick's second guest appearance. Fambrough's debut as a solo lead demonstrates a gentle and supple intonation, perfectly matched to Warwick's agile and affective style. The album's primary focus track was the aforementioned "They Just Can't Stop It (The Games People Play)." The slightly, albeit judiciously edited version became a crossover smash, landing in the upper reaches of the Pop Singles survey and topping the R&B countdown in July of 1975. Trading vocals with Wynne and Jackson – whose resonant "12:45" interjection became a hallmark of the song – is backing session singer Barbara Ingram. Because the group was touring at the time, Fambrough was unavailable to put the finishing touches on the recording. Bell was under the gun to complete the production, so he chose Ingram to step in, and in doing so lent a whole new dimension to the lyrical banter. Those seeking a thoroughly solid effort Philly Soul are encouraged to spin the appropriately named Pick of the Litter.

Review by Lindsay Planer, Allmusic.com

Tracklist:

01. Honest I Do (4:04)
02. I Don't Want To Lose You (3:45)
03. Love Or Leave (5:01)
04. Sweet Love Of Mine (4:23)
05. All That Glitters Ain't Gold (3:51)
06. You Made A Promise To Me (3:59)
07. Games People Play (4:44)
08. Just As Long As We Have Love (4:06)


Exact Audio Copy V1.0 beta 2 from 29. April 2011

EAC extraction logfile from 9. October 2011, 19:30

The Spinners / Pick of the Litter

Used drive : Memorex 52MAXX 3252AJ1 Adapter: 1 ID: 0

Read mode : Secure
Utilize accurate stream : Yes
Defeat audio cache : Yes
Make use of C2 pointers : No

Read offset correction : 6
Overread into Lead-In and Lead-Out : No
Fill up missing offset samples with silence : Yes
Delete leading and trailing silent blocks : No
Null samples used in CRC calculations : Yes
Used interface : Native Win32 interface for Win NT & 2000

Used output format : User Defined Encoder
Selected bitrate : 1024 kBit/s
Quality : High
Add ID3 tag : No
Command line compressor : C:\Program Files (x86)\Exact Audio Copy\wavpack.exe
Additional command line options : -w "Artist=%artist%" -w "Title=%title%" -w "Album=%albumtitle%" -w "Year=%year%" -w "Track=%tracknr%" -w "Genre=%genre%" -h %source% %dest%


TOC of the extracted CD

Track | Start | Length | Start sector | End sector
––––––––––––––––––––––––––––-
1 | 0:00.33 | 4:03.50 | 33 | 18307
2 | 4:04.08 | 3:45.35 | 18308 | 35217
3 | 7:49.43 | 5:00.65 | 35218 | 57782
4 | 12:50.33 | 4:23.12 | 57783 | 77519
5 | 17:13.45 | 3:51.10 | 77520 | 94854
6 | 21:04.55 | 3:58.40 | 94855 | 112744
7 | 25:03.20 | 4:44.10 | 112745 | 134054
8 | 29:47.30 | 4:05.65 | 134055 | 152494


Range status and errors

Selected range

Filename C:\Users\M@ce\Music\Archives\Rips\The Spinners - Pick of the Litter.wav

Peak level 97.2 %
Extraction speed 2.4 X
Range quality 100.0 %
Test CRC 33F6063C
Copy CRC 33F6063C
Copy OK

No errors occurred


AccurateRip summary

Track 1 not present in database
Track 2 not present in database
Track 3 cannot be verified as accurate (confidence 1) [6597AD83], AccurateRip returned [84C99C56] (AR v2)
Track 4 not present in database
Track 5 not present in database
Track 6 not present in database
Track 7 cannot be verified as accurate (confidence 1) [F2F85C71], AccurateRip returned [4263707B] (AR v2)
Track 8 not present in database

2 track(s) could not be verified as accurate
6 track(s) not present in the AccurateRip database

No tracks could be verified as accurate
You may have a different pressing from the one(s) in the database

End of status report

–– CUETools DB Plugin V2.1.2

[CTDB TOCID: ih3JxJWj4yNbFksQNfWJxj1nE_c-] disk not present in database, Submit result: ih3JxJWj4yNbFksQNfWJxj1nE_c- has been uploaded


==== Log checksum E3948C7275DC3DFB2836C45258D6E217E18A62F29F60BE1752D88992BE1BB5FA ====

[CUETools log; Date: 01.11.2017 21:56:49; Version: 2.1.4]
Pregap length 00:00:33.
[CTDB TOCID: ih3JxJWj4yNbFksQNfWJxj1nE_c-] disk not present in database.
[AccurateRip ID: 000a6c04-0045a533-6607f108] found.
Track [ CRC | V2 ] Status
01 [8036e499|819662fc] (0+0/3) No match
02 [d789052a|91a14e2d] (0+0/3) No match
03 [fc568512|6597ad83] (0+0/3) No match
04 [8dbcf5fc|6bedfbc4] (0+0/3) No match
05 [438c4582|269546b2] (0+0/3) No match
06 [250868f9|7a7c9d09] (0+0/3) No match
07 [0c127dfb|f2f85c71] (0+0/3) No match
08 [c0c1c8b3|091d3d6d] (0+0/3) No match
Offsetted by 92:
01 [54d4cb11] (0/3) No match (V2 was not tested)
02 [98c2d696] (0/3) No match (V2 was not tested)
03 [84c99c56] (0/3) No match (V2 was not tested)
04 [018067b4] (0/3) No match (V2 was not tested)
05 [41950b06] (0/3) No match (V2 was not tested)
06 [8c058231] (0/3) No match (V2 was not tested)
07 [4263707b] (0/3) No match (V2 was not tested)
08 [abdf58c5] (0/3) No match (V2 was not tested)

Track Peak [ CRC32 ] [W/O NULL] [ LOG ]
– 97,2 [33F6063C] [341144CE] CRC32
01 97,2 [64B0C0CF] [22083FF9]
02 94,6 [7F686D7A] [332511E6]
03 97,2 [63C0C7D3] [758D12E5]
04 97,2 [8E6A3EF7] [6436733E]
05 97,2 [409903FB] [96BA9D2E]
06 97,2 [9A9033B8] [28A9A5CD]
07 97,2 [E82EECB3] [C7D86C53]
08 94,6 [824402CA] [2E81279C]

foobar2000 1.2 / Dynamic Range Meter 1.1.1
log date: 2017-11-02 23:10:08

––––––––––––––––––––––––––––––––––––––––
Analyzed: The Spinners / Pick Of The Litter
––––––––––––––––––––––––––––––––––––––––

DR Peak RMS Duration Track
––––––––––––––––––––––––––––––––––––––––
DR10 -0.24 dB -11.90 dB 4:04 01-Honest I Do
DR11 -0.48 dB -14.24 dB 3:45 02-I Don't Want To Lose You
DR10 -0.24 dB -11.85 dB 5:01 03-Love Or Leave
DR11 -0.24 dB -13.89 dB 4:23 04-Sweet Love Of Mine
DR11 -0.24 dB -13.33 dB 3:51 05-All That Glitters Ain't Gold
DR11 -0.24 dB -14.20 dB 3:59 06-You Made A Promise To Me
DR11 -0.24 dB -13.63 dB 4:44 07-Games People Play
DR10 -0.48 dB -13.12 dB 4:06 08-Just As Long As We Have Love
––––––––––––––––––––––––––––––––––––––––

Number of tracks: 8
Official DR value: DR11

Samplerate: 44100 Hz
Channels: 2
Bits per sample: 16
Bitrate: 774 kbps
Codec: FLAC
================================================================================




The Spinners - Albums Collection (4CD) [Re-Up]

The Spinners - Dancin' And Lovin' (1979) Reissue 1992
EAC | FLAC | Image (Cue&Log) ~ 277 Mb | Mp3 (CBR320) ~ 117 Mb | Scans included
Label: Rhino | # R2-71115 | Time: 00:36:41

While soul purists recoiled in horror, the Spinners climbed off the ropes and soared back into the spotlight by recasting themselves as a modified dance/crossover band with soul/R&B influences. It worked in the short run, as their remake of the Four Seasons' "Working My Way Back to You," mixed with their own wailer, "Forgive Me Girl," made a nice sandwich at number two pop and number six R&B. It took nearly a year, but they were revived. While they wore the formula out with a similar follow-up, it gave them a fresh start and the necessary credibility to eventually return to their customary sophisticated soul.

Review by Ron Wynn, Allmusic.com

Tracklist:

01. Disco Ride (6:25)
02. Body Language (6:26)
03. Let's Boogie, Let's Dance (5:57)
04. Medley: Working My Way Back To You / Forgive Me, Girl (6:05)
05. With My Eyes (6:43)
06. One, One, Two, Two, Boogie Woogie Avenue (Home Of The Boogie, House Of The Funk) (5:05)


Exact Audio Copy V1.0 beta 2 from 29. April 2011

EAC extraction logfile from 5. November 2011, 7:09

The Spinners / Dancin' and Lovin'

Used drive : Memorex 52MAXX 3252AJ1 Adapter: 1 ID: 0

Read mode : Secure
Utilize accurate stream : Yes
Defeat audio cache : Yes
Make use of C2 pointers : No

Read offset correction : 6
Overread into Lead-In and Lead-Out : No
Fill up missing offset samples with silence : Yes
Delete leading and trailing silent blocks : No
Null samples used in CRC calculations : Yes
Used interface : Native Win32 interface for Win NT & 2000

Used output format : User Defined Encoder
Selected bitrate : 1024 kBit/s
Quality : High
Add ID3 tag : No
Command line compressor : C:\Program Files (x86)\Exact Audio Copy\wavpack.exe
Additional command line options : -w "Artist=%artist%" -w "Title=%title%" -w "Album=%albumtitle%" -w "Year=%year%" -w "Track=%tracknr%" -w "Genre=%genre%" -h %source% %dest%


TOC of the extracted CD

Track | Start | Length | Start sector | End sector
––––––––––––––––––––––––––––-
1 | 0:00.32 | 6:24.60 | 32 | 28891
2 | 6:25.17 | 6:26.20 | 28892 | 57861
3 | 12:51.37 | 5:56.45 | 57862 | 84606
4 | 18:48.07 | 6:04.50 | 84607 | 111956
5 | 24:52.57 | 6:43.28 | 111957 | 142209
6 | 31:36.10 | 5:05.07 | 142210 | 165091


Range status and errors

Selected range

Filename C:\Users\M@ce\Music\Archives\Rips\The Spinners - Dancin' and Lovin'.wav

Peak level 100.0 %
Extraction speed 7.8 X
Range quality 100.0 %
Test CRC 09F442AE
Copy CRC 09F442AE
Copy OK

No errors occurred


AccurateRip summary

Track 1 accurately ripped (confidence 1) [D6437E04] (AR v1)
Track 2 accurately ripped (confidence 1) [9E1A79AA] (AR v1)
Track 3 accurately ripped (confidence 1) [4CCDDBB1] (AR v1)
Track 4 accurately ripped (confidence 1) [C22ECB17] (AR v1)
Track 5 accurately ripped (confidence 1) [87C606E5] (AR v1)
Track 6 accurately ripped (confidence 1) [351D0433] (AR v1)

All tracks accurately ripped

End of status report

–– CUETools DB Plugin V2.1.2

[CTDB TOCID: 8Xz6Nk8.4CwPrPnA8yL6HDaDQf8-] disk not present in database, Submit result: 8Xz6Nk8.4CwPrPnA8yL6HDaDQf8- has been uploaded


==== Log checksum 1AD63D599BF7512DCCA582D99CB33BCE0A7CCCC19814FC6706EB65B92899A681 ====

[CUETools log; Date: 01.11.2017 21:56:59; Version: 2.1.4]
Pregap length 00:00:32.
[CTDB TOCID: 8Xz6Nk8.4CwPrPnA8yL6HDaDQf8-] found.
Track | CTDB Status
1 | (2/2) Accurately ripped
2 | (2/2) Accurately ripped
3 | (2/2) Accurately ripped
4 | (2/2) Accurately ripped
5 | (2/2) Accurately ripped
6 | (2/2) Accurately ripped
[AccurateRip ID: 0009033c-002fe3d7-56089906] found.
Track [ CRC | V2 ] Status
01 [d6437e04|6a162825] (0+4/4) Accurately ripped
02 [9e1a79aa|ad09b83b] (0+4/4) Accurately ripped
03 [4ccddbb1|2dcf7d2b] (0+4/4) Accurately ripped
04 [c22ecb17|07f451ed] (0+4/4) Accurately ripped
05 [87c606e5|0f1a4ea0] (0+4/4) Accurately ripped
06 [351d0433|9eb62c86] (0+4/4) Accurately ripped

Track Peak [ CRC32 ] [W/O NULL] [ LOG ]
– 100,0 [09F442AE] [B8755FE0] CRC32
01 100,0 [ED08EB85] [15C58BAD]
02 100,0 [FE85C04E] [EFE9128A]
03 100,0 [CA73D355] [E713E45B]
04 100,0 [1A63DED7] [2BE651E8]
05 100,0 [7D456FDA] [F560D9E5]
06 95,5 [C45DF5AD] [05F5BBDC]

foobar2000 1.2 / Dynamic Range Meter 1.1.1
log date: 2017-11-02 23:10:25

––––––––––––––––––––––––––––––––––––––––
Analyzed: Spinners / Dancin' And Lovin'
––––––––––––––––––––––––––––––––––––––––

DR Peak RMS Duration Track
––––––––––––––––––––––––––––––––––––––––
DR12 0.00 dB -14.22 dB 6:25 01-Disco Ride
DR12 0.00 dB -13.80 dB 6:26 02-Body Language
DR13 0.00 dB -14.52 dB 5:57 03-Let's Boogie, Let's Dance
DR12 0.00 dB -14.20 dB 6:05 04-Medley: Working My Way Back To You / Forgive Me, Girl
DR11 0.00 dB -13.49 dB 6:43 05-With My Eyes
DR12 -0.40 dB -14.92 dB 5:05 06-One, One, Two, Two, Boogie Woogie Avenue (Home Of The Boogie, House Of The Funk)
––––––––––––––––––––––––––––––––––––––––

Number of tracks: 6
Official DR value: DR12

Samplerate: 44100 Hz
Channels: 2
Bits per sample: 16
Bitrate: 928 kbps
Codec: FLAC
================================================================================




The Spinners - Albums Collection (4CD) [Re-Up]

The Spinners - From Here to Eternally (1979) + Love Trippin' (1980) [1998 2 LPs on 1 CD]
EAC | FLAC | Image (Cue&Log) ~ 517 Mb | Mp3 (CBR320) ~ 193 Mb | Scans included
Label: Collectables | # COL-CD-6202 | Time: 01:18:40

Only three singles sprang from the release of From Here to Eternally (1979) and Love Trippin' (1980) combined, so this two-fer is hardly a musical powerball. It's not remotely close to their early-'70s LPs, with the unpredictable Philippe Wynne leading the charge and producer Thom Bell in a zone. Wynne's gone; his replacement, John Edwards, a seasoned soul singer, does an admirable job. "Cupid"/"I Loved You For a Long Time" was the Spinners' last significant hit before becoming pop Top 40 nonfactors. A second single, "Now That You're Mine Again," went unnoticed, and the third, "I Just Want to Fall in Love," gets more plays via Internet Real Audio and Window Media than it did when Atlantic Records released it. Bell relies on Bobbie Smith's light tenor and Henry Fambrough's pleasant but colorless tenor for too many leads; after too many doses of them you welcome Edwards' biting, expressive full-bodied vocals with open ears. Other than the previously mentioned singles and "Streetwise," "Love Trippin'," and "Split Decision" (on which Pervis Jackson's bass is unleashed), there's nothing else among the 18 tracks you'll want to hear twice.

Review by Andrew Hamilton, Allmusic.com

Tracklist:

01. It's A Natural Affair (4:04)
02. Don't Let The Man Get You (5:11)
03. (A) Plain And Simple Love Song (5:22)
04. Are You Ready For Love (5:21)
05. I Love The Music (5:23)
06. One Man Wonderful Band (3:06)
07. If You Wanna Do A Dance (All Night) (7:07)
08. Once You Fall In Love (4:25)
09. Love Trippin' (4:10)
10. Heavy On Sunshine (3:40)
11. Medley: Cupid / I've Loved You For A Long Time (5:34)
12. I Just Want To Be With You (3:25)
13. Streetwise (3:38)
14. I Just Want To Fall In Love (3:51)
15. Now That You're Mine Again (4:23)
16. Split Decision (3:31)
17. I'm Takin' You Back (3:18)
18. Pipedream (3:12)


Exact Audio Copy V1.0 beta 2 from 29. April 2011

EAC extraction logfile from 7. November 2011, 16:42

The Spinners / From Here to Eternally/Love Trippin'

Used drive : Memorex 52MAXX 3252AJ1 Adapter: 1 ID: 0

Read mode : Secure
Utilize accurate stream : Yes
Defeat audio cache : Yes
Make use of C2 pointers : No

Read offset correction : 6
Overread into Lead-In and Lead-Out : No
Fill up missing offset samples with silence : Yes
Delete leading and trailing silent blocks : No
Null samples used in CRC calculations : Yes
Used interface : Native Win32 interface for Win NT & 2000

Used output format : User Defined Encoder
Selected bitrate : 1024 kBit/s
Quality : High
Add ID3 tag : No
Command line compressor : C:\Program Files (x86)\Exact Audio Copy\wavpack.exe
Additional command line options : -w "Artist=%artist%" -w "Title=%title%" -w "Album=%albumtitle%" -w "Year=%year%" -w "Track=%tracknr%" -w "Genre=%genre%" -h %source% %dest%


TOC of the extracted CD

Track | Start | Length | Start sector | End sector
––––––––––––––––––––––––––––-
1 | 0:00.00 | 4:04.00 | 0 | 18299
2 | 4:04.00 | 5:10.65 | 18300 | 41614
3 | 9:14.65 | 5:22.25 | 41615 | 65789
4 | 14:37.15 | 5:20.57 | 65790 | 89846
5 | 19:57.72 | 5:22.50 | 89847 | 114046
6 | 25:20.47 | 3:05.43 | 114047 | 127964
7 | 28:26.15 | 7:07.07 | 127965 | 159996
8 | 35:33.22 | 4:24.50 | 159997 | 179846
9 | 39:57.72 | 4:09.55 | 179847 | 198576
10 | 44:07.52 | 3:40.18 | 198577 | 215094
11 | 47:47.70 | 5:34.12 | 215095 | 240156
12 | 53:22.07 | 3:25.30 | 240157 | 255561
13 | 56:47.37 | 3:38.30 | 255562 | 271941
14 | 60:25.67 | 3:50.70 | 271942 | 289261
15 | 64:16.62 | 4:22.43 | 289262 | 308954
16 | 68:39.30 | 3:30.42 | 308955 | 324746
17 | 72:09.72 | 3:17.45 | 324747 | 339566
18 | 75:27.42 | 3:12.15 | 339567 | 353981


Range status and errors

Selected range

Filename C:\Users\M@ce\Music\Archives\Rips\The Spinners - From Here to Eternally,Love Trippin'.wav

Peak level 99.9 %
Extraction speed 6.9 X
Range quality 100.0 %
Test CRC 929A7798
Copy CRC 929A7798
Copy OK

No errors occurred


AccurateRip summary

Track 1 cannot be verified as accurate (confidence 1) [9BFC4E31], AccurateRip returned [8FAA33DE] (AR v2)
Track 2 accurately ripped (confidence 1) [0CCE7FFD] (AR v1)
Track 3 accurately ripped (confidence 1) [8D676668] (AR v1)
Track 4 accurately ripped (confidence 1) [2016131E] (AR v1)
Track 5 accurately ripped (confidence 1) [09D68050] (AR v1)
Track 6 accurately ripped (confidence 1) [DCC7BBB7] (AR v1)
Track 7 accurately ripped (confidence 1) [C3DA91DA] (AR v1)
Track 8 accurately ripped (confidence 1) [460CDCF6] (AR v1)
Track 9 accurately ripped (confidence 1) [8B515A0A] (AR v1)
Track 10 accurately ripped (confidence 1) [BC2D5285] (AR v1)
Track 11 accurately ripped (confidence 1) [7E9EFBC0] (AR v1)
Track 12 accurately ripped (confidence 1) [FCC8B68A] (AR v1)
Track 13 accurately ripped (confidence 1) [37A1BCF5] (AR v1)
Track 14 accurately ripped (confidence 1) [D148072C] (AR v1)
Track 15 accurately ripped (confidence 1) [C8FEA061] (AR v1)
Track 16 accurately ripped (confidence 1) [236DA534] (AR v1)
Track 17 accurately ripped (confidence 1) [7071B058] (AR v1)
Track 18 accurately ripped (confidence 1) [F37E8BC1] (AR v1)

17 track(s) accurately ripped
1 track(s) could not be verified as accurate

Some tracks could not be verified as accurate

End of status report

–– CUETools DB Plugin V2.1.2

[CTDB TOCID: 5oj8LnKMMRuyuvcZwQtNnkuFwsQ-] disk not present in database, Submit result: 5oj8LnKMMRuyuvcZwQtNnkuFwsQ- has been uploaded


==== Log checksum E1BB7402441DB3895C8354E92B9134C3634412934384CDA6E5FD5961F1064988 ====

[CUETools log; Date: 01.11.2017 21:57:21; Version: 2.1.4]
[CTDB TOCID: 5oj8LnKMMRuyuvcZwQtNnkuFwsQ-] found.
Track | CTDB Status
1 | (4/4) Accurately ripped
2 | (4/4) Accurately ripped
3 | (4/4) Accurately ripped
4 | (4/4) Accurately ripped
5 | (4/4) Accurately ripped
6 | (4/4) Accurately ripped
7 | (4/4) Accurately ripped
8 | (4/4) Accurately ripped
9 | (4/4) Accurately ripped
10 | (4/4) Accurately ripped
11 | (4/4) Accurately ripped
12 | (4/4) Accurately ripped
13 | (4/4) Accurately ripped
14 | (4/4) Accurately ripped
15 | (4/4) Accurately ripped
16 | (4/4) Accurately ripped
17 | (4/4) Accurately ripped
18 | (4/4) Accurately ripped
[AccurateRip ID: 0036dbf6-02d29a1b-1f126f12] found.
Track [ CRC | V2 ] Status
01 [0f069856|9bfc4e31] (0+4/4) Accurately ripped
02 [0cce7ffd|6ae6c54c] (0+4/4) Accurately ripped
03 [8d676668|bcf71d13] (0+4/4) Accurately ripped
04 [2016131e|f587a1cb] (0+4/4) Accurately ripped
05 [09d68050|29896132] (0+4/4) Accurately ripped
06 [dcc7bbb7|9abed489] (0+4/4) Accurately ripped
07 [c3da91da|42829b95] (0+4/4) Accurately ripped
08 [460cdcf6|428229eb] (0+4/4) Accurately ripped
09 [8b515a0a|a0b09c2e] (0+4/4) Accurately ripped
10 [bc2d5285|723e4adb] (0+4/4) Accurately ripped
11 [7e9efbc0|d2194f83] (0+4/4) Accurately ripped
12 [fcc8b68a|cd815e18] (0+4/4) Accurately ripped
13 [37a1bcf5|adc726b6] (0+4/4) Accurately ripped
14 [d148072c|c1c6fbf2] (0+4/4) Accurately ripped
15 [c8fea061|0dfccfb5] (0+4/4) Accurately ripped
16 [236da534|1ae31d2a] (0+4/4) Accurately ripped
17 [7071b058|874aaf5e] (0+4/4) Accurately ripped
18 [f37e8bc1|3e02ade1] (0+4/4) Accurately ripped

Track Peak [ CRC32 ] [W/O NULL] [ LOG ]
– 99,9 [929A7798] [254505DA] CRC32
01 99,9 [3BDC9452] [4697AEA3]
02 99,9 [C409A602] [4F98AAE5]
03 99,9 [61083B49] [7273E308]
04 99,9 [F7DC8412] [F2FCDFD3]
05 99,9 [550C0DE4] [808331E0]
06 99,9 [C4A7375D] [C6F19A9B]
07 99,9 [7B89DC20] [FD7BC4C9]
08 99,9 [726F17B5] [A43D56B8]
09 99,9 [BE88BC01] [B6FB1DEB]
10 99,9 [7ED6FA0E] [39C69A48]
11 96,3 [06191FEE] [1A51BA7A]
12 99,9 [AA833D5B] [D1351A30]
13 94,9 [79DC0DA7] [E3A266AD]
14 92,0 [E2F31289] [4D85FB01]
15 99,9 [FBD19178] [912C3CEF]
16 95,6 [DC6564B2] [AE5F1B3B]
17 97,3 [DAAFA248] [C073B379]
18 92,0 [E1DB3203] [1538C76A]

foobar2000 1.2 / Dynamic Range Meter 1.1.1
log date: 2017-11-02 23:11:00

––––––––––––––––––––––––––––––––––––––––
Analyzed: The Spinners / From Here To Eternally (1979) & Love Trippin' (1980)
––––––––––––––––––––––––––––––––––––––––

DR Peak RMS Duration Track
––––––––––––––––––––––––––––––––––––––––
DR13 0.00 dB -14.23 dB 4:04 01-It's A Natural Affair
DR12 0.00 dB -13.54 dB 5:11 02-Don't Let The Man Get You
DR11 0.00 dB -12.79 dB 5:22 03-(A) Plain And Simple Love Song
DR12 0.00 dB -13.60 dB 5:21 04-Are You Ready For Love
DR12 0.00 dB -13.77 dB 5:23 05-I Love The Music
DR12 0.00 dB -13.44 dB 3:06 06-One Man Wonderful Band
DR12 0.00 dB -14.12 dB 7:07 07-If You Wanna Do A Dance (All Night)
DR12 0.00 dB -13.83 dB 4:25 08-Once You Fall In Love
DR13 0.00 dB -14.80 dB 4:10 09-Love Trippin'
DR11 0.00 dB -13.34 dB 3:40 10-Heavy On Sunshine
DR13 -0.32 dB -13.95 dB 5:34 11-Medley: Cupid / I've Loved You For A Long Time
DR12 0.00 dB -13.46 dB 3:25 12-I Just Want To Be With You
DR13 -0.45 dB -14.22 dB 3:38 13-Streetwise
DR12 -0.72 dB -14.41 dB 3:51 14-I Just Want To Fall In Love
DR13 0.00 dB -15.60 dB 4:23 15-Now That You're Mine Again
DR12 -0.39 dB -15.22 dB 3:31 16-Split Decision
DR11 -0.23 dB -13.73 dB 3:18 17-I'm Takin' You Back
DR11 -0.72 dB -14.20 dB 3:12 18-Pipedream
––––––––––––––––––––––––––––––––––––––––

Number of tracks: 18
Official DR value: DR12

Samplerate: 44100 Hz
Channels: 2
Bits per sample: 16
Bitrate: 896 kbps
Codec: FLAC
================================================================================




The Spinners - Albums Collection (4CD) [Re-Up]

The Spinners - Yesterday, Today & Tomorrow (1977) + Labor Of Love (1981) [1998 2 LPs on 1 CD]
EAC | FLAC | Image (Cue&Log) ~ 440 Mb | Mp3 (CBR320) ~ 183 Mb | Scans included
Label: Collectables | # COL-CD-6203 | Time: 01:13:42

If not for "You're Throwing a Good Love Away," a romping excursion transformed into a mini-revival by the Spinners, this would be a throwaway. The material is pleasant, but nothing else here compels you to listen. In most cases, the titles are better then the songs. "I'm Riding Your Shadow (Down to Love)" is the exception to that; the title is confusing, but the tune is a pleasant, lightweight ballad done in the Spinners' imitable style. The others are unmemorable even after repeated spins. Either producer Thom Bell dusted off some rejects, or his Midas touch with the Spinners had worn thin.

Review by Andrew Hamilton, Allmusic.com

Tracklist:

01. Me And My Music (4:26)
02. I Found Love (When I Found You) (5:11)
03. I'm Riding Your Shadow (Down To Love) (4:15)
04. You're The Love Of My Life (4:15)
05. I Must Be Living For A Broken Heart (4:55)
06. Honey, I'm In Love With You (5:44)
07. Just To Be With You (8:22)
08. You're Throwing A Good Love Away (8:38)
09. Medley: Yesterday Once More / Nothing Reamins The Same (7:32)
10. Almost All The Way To Love (4:08)
11. The Winter Of Our Love (3:52)
12. Be My Love (4:07)
13. Give Your Lady What She Wants (3:18)
14. Long Live Soul Music (4:58)


Exact Audio Copy V1.0 beta 2 from 29. April 2011

EAC extraction logfile from 2. November 2011, 21:03

The Spinners / Yesterday, Today & Tomorrow/Labor Of Love

Used drive : Memorex 52MAXX 3252AJ1 Adapter: 1 ID: 0

Read mode : Secure
Utilize accurate stream : Yes
Defeat audio cache : Yes
Make use of C2 pointers : No

Read offset correction : 6
Overread into Lead-In and Lead-Out : No
Fill up missing offset samples with silence : Yes
Delete leading and trailing silent blocks : No
Null samples used in CRC calculations : Yes
Used interface : Native Win32 interface for Win NT & 2000

Used output format : User Defined Encoder
Selected bitrate : 1024 kBit/s
Quality : High
Add ID3 tag : No
Command line compressor : C:\Program Files (x86)\Exact Audio Copy\wavpack.exe
Additional command line options : -w "Artist=%artist%" -w "Title=%title%" -w "Album=%albumtitle%" -w "Year=%year%" -w "Track=%tracknr%" -w "Genre=%genre%" -h %source% %dest%


TOC of the extracted CD

Track | Start | Length | Start sector | End sector
––––––––––––––––––––––––––––-
1 | 0:00.30 | 4:26.00 | 30 | 19979
2 | 4:26.30 | 5:10.74 | 19980 | 43303
3 | 9:37.29 | 4:14.69 | 43304 | 62422
4 | 13:52.23 | 4:15.31 | 62423 | 81578
5 | 18:07.54 | 4:54.69 | 81579 | 103697
6 | 23:02.48 | 5:44.10 | 103698 | 129507
7 | 28:46.58 | 8:21.66 | 129508 | 167148
8 | 37:08.49 | 8:37.56 | 167149 | 205979
9 | 45:46.30 | 7:32.19 | 205980 | 239898
10 | 53:18.49 | 4:08.13 | 239899 | 258511
11 | 57:26.62 | 3:52.24 | 258512 | 275935
12 | 61:19.11 | 4:06.60 | 275936 | 294445
13 | 65:25.71 | 3:17.62 | 294446 | 309282
14 | 68:43.58 | 4:58.23 | 309283 | 331655


Range status and errors

Selected range

Filename C:\Users\M@ce\Music\Archives\Rips\The Spinners - Yesterday, Today & Tomorrow,Labor Of Love.wav

Peak level 100.0 %
Extraction speed 10.1 X
Range quality 100.0 %
Test CRC 3E49BB4E
Copy CRC 3E49BB4E
Copy OK

No errors occurred


AccurateRip summary

Track 1 not present in database
Track 2 not present in database
Track 3 not present in database
Track 4 not present in database
Track 5 not present in database
Track 6 not present in database
Track 7 not present in database
Track 8 not present in database
Track 9 cannot be verified as accurate (confidence 1) [0F683BA2], AccurateRip returned [0F8E15D4] (AR v2)
Track 10 not present in database
Track 11 accurately ripped (confidence 1) [FDC7119A] (AR v1)
Track 12 accurately ripped (confidence 1) [DAAED963] (AR v1)
Track 13 accurately ripped (confidence 1) [BA723CA5] (AR v1)
Track 14 cannot be verified as accurate (confidence 1) [A3971B80], AccurateRip returned [6E165BB0] (AR v2)

3 track(s) accurately ripped
2 track(s) could not be verified as accurate
9 track(s) not present in the AccurateRip database

Some tracks could not be verified as accurate

End of status report

–– CUETools DB Plugin V2.1.2

[CTDB TOCID: 6E5I8Wa1CPNyLX43yP_7fOktQN4-] disk not present in database, Submit result: 6E5I8Wa1CPNyLX43yP_7fOktQN4- has been uploaded


==== Log checksum B05BC06ECAEB3A0C50B55EA4200C3531163E4A3153DF1505EFBFC09E45AF7D84 ====

[CUETools log; Date: 01.11.2017 21:57:39; Version: 2.1.4]
Pregap length 00:00:30.
[CTDB TOCID: 6E5I8Wa1CPNyLX43yP_7fOktQN4-] found.
Track | CTDB Status
1 | (4/4) Accurately ripped
2 | (4/4) Accurately ripped
3 | (4/4) Accurately ripped
4 | (4/4) Accurately ripped
5 | (4/4) Accurately ripped
6 | (4/4) Accurately ripped
7 | (4/4) Accurately ripped
8 | (4/4) Accurately ripped
9 | (4/4) Accurately ripped
10 | (4/4) Accurately ripped
11 | (4/4) Accurately ripped
12 | (4/4) Accurately ripped
13 | (4/4) Accurately ripped
14 | (4/4) Accurately ripped
[AccurateRip ID: 002680f7-019f8da3-d111460e] found.
Track [ CRC | V2 ] Status
01 [b080a8e9|6c135e05] (0+5/5) Accurately ripped
02 [603a5f14|a786df32] (0+5/5) Accurately ripped
03 [1a6eee07|c1d8b34f] (0+5/5) Accurately ripped
04 [7858e969|19208225] (0+5/5) Accurately ripped
05 [6c23902a|d7cd91c2] (0+5/5) Accurately ripped
06 [e80e7e1f|cbc90a05] (0+5/5) Accurately ripped
07 [d4d46758|02ed8e7e] (0+5/5) Accurately ripped
08 [31c9f939|5b2cd7a0] (0+5/5) Accurately ripped
09 [bcc8cdd0|0f683ba2] (0+5/5) Accurately ripped
10 [29f0f7df|c22f95ad] (0+5/5) Accurately ripped
11 [fdc7119a|fc64bd92] (0+5/5) Accurately ripped
12 [daaed963|3c6a47a4] (0+5/5) Accurately ripped
13 [ba723ca5|2d2c4f07] (0+5/5) Accurately ripped
14 [2b6a3bfd|a3971b80] (0+5/5) Accurately ripped

Track Peak [ CRC32 ] [W/O NULL] [ LOG ]
– 100,0 [3E49BB4E] [4DD72C8E] CRC32
01 100,0 [CEDA33D0] [68110C4E]
02 91,7 [BBD6EB9B] [BEC8EF44]
03 100,0 [F0BF1A54] [19CC2603]
04 100,0 [A5FA79AC] [74647230]
05 100,0 [E2660B67] [F2DCB204]
06 96,6 [8825BD5C] [E5C321BC]
07 89,7 [A5546F5C] [1B11996E]
08 100,0 [210B72BB] [D4A63D06]
09 100,0 [1BBBFF18] [7075888B]
10 100,0 [A9220880] [7536B6EE]
11 100,0 [C5945504] [CE54CD4B]
12 100,0 [7A654EC4] [A9DBC57B]
13 100,0 [EC066806] [135D5F08]
14 100,0 [2D568AB1] [A1B45235]

foobar2000 1.2 / Dynamic Range Meter 1.1.1
log date: 2017-11-02 23:11:32

––––––––––––––––––––––––––––––––––––––––
Analyzed: The Spinners / Yesterday, Today & Tomorrow (1977) & Labor Of Love (1981)
––––––––––––––––––––––––––––––––––––––––

DR Peak RMS Duration Track
––––––––––––––––––––––––––––––––––––––––
DR13 0.00 dB -14.57 dB 4:26 01-Me And My Music
DR12 -0.74 dB -16.94 dB 5:11 02-I Found Love (When I Found You)
DR13 0.00 dB -17.53 dB 4:15 03-I'm Riding Your Shadow (Down To Love)
DR14 0.00 dB -16.01 dB 4:15 04-You're The Love Of My Life
DR13 0.00 dB -15.94 dB 4:55 05-I Must Be Living For A Broken Heart
DR13 -0.30 dB -16.67 dB 5:44 06-Honey, I'm In Love With You
DR15 -0.94 dB -19.80 dB 8:22 07-Just To Be With You
DR14 0.00 dB -15.88 dB 8:38 08-You're Throwing A Good Love Away
DR14 0.00 dB -16.56 dB 7:32 09-Medley: Yesterday Once More / Nothing Reamins The Same
DR13 0.00 dB -17.70 dB 4:08 10-Almost All The Way To Love
DR12 0.00 dB -15.67 dB 3:52 11-The Winter Of Our Love
DR12 0.00 dB -15.04 dB 4:07 12-Be My Love
DR12 0.00 dB -13.92 dB 3:18 13-Give Your Lady What She Wants
DR13 0.00 dB -14.60 dB 4:58 14-Long Live Soul Music
––––––––––––––––––––––––––––––––––––––––

Number of tracks: 14
Official DR value: DR13

Samplerate: 44100 Hz
Channels: 2
Bits per sample: 16
Bitrate: 808 kbps
Codec: FLAC
================================================================================





All thanks to original releaser - M@ce

More interesting music in My Blog