Tags
Language
Tags

The Stranglers - Rattus Norvegicus (1977) [Toshiba-EMI TOCP-67941, Japan]

Posted By: v3122
The Stranglers - Rattus Norvegicus (1977) [Toshiba-EMI TOCP-67941, Japan]

The Stranglers - Rattus Norvegicus (1977)
EAC | Flac(Image) + Cue + Log & MP3 CBR 320Kbps
2006 | Toshiba-EMI, TOCP-67941 | ~ 321 or 120 Mb | Scans(jpg) -> 162 Mb
New Wave / Punk

Like the Vibrators, the Stranglers were an older band which managed to gain visibility and success through association with Britain's punk movement. Musically, the group is much more polished than some of their rawer brethren such as the Adverts and Siouxsie and the Banshees. The Stranglers' early work is most properly described as stripped-down pop played with a hardcore sensibility; fairly lengthy songs with frequent solo breaks, prominent keyboard usage, and occasional employment of vocal harmony sets them apart from their peers. But snarling lead singing that puts forth macho/critical/distasteful lyrics predominates here, clearly showing the group's punk affinity. Most of the songs on this album fit the description of hardcore pop to a tee, but there are a few deviations from this model. "Princess of the Streets" is a slow-tempo selection with blueslike echoes. The ambitious "Down in the Sewer" crosses the concept of episodic numbers like the Who's "A Quick One" with early-'60s instrumentals. And the energetic "London Lady" is almost a true punk song – or at least as close as the band gets to one. While not the equal of their best album, No More Heroes, this release is solid and worthwhile, a rewarding listen.

by David Cleary, AMG
The Stranglers - Rattus Norvegicus (1977):

The Stranglers - Rattus Norvegicus (1977) [Toshiba-EMI TOCP-67941, Japan]

Tracklist:

01. Sometimes 4:55
02. Goodbye Toulouse 3:17
03. London Lady 2:33
04. Princess Of The Streets 4:38
05. Hanging Around 4:27
06. Peaches 4:08
07. (Get A) Grip (On Yourself) 4:02
08. Ugly 4:08
09. Down In The Sewer 7:58
10. Choosey Susie (Bonus Track) 3:14
11. Go Buddy Go (Bonus Track) 3:58
12. Peasant In The Big Shitty (Bonus Track, Live) 3:42

Exact Audio Copy V1.1 from 23. June 2015

EAC extraction logfile from 3. March 2016, 19:42

The Stranglers / Rattus Norvegicus (TOCP-67941)

Used drive : PLEXTOR DVDR PX-891SA Adapter: 1 ID: 0

Read mode : Secure
Utilize accurate stream : Yes
Defeat audio cache : Yes
Make use of C2 pointers : No

Read offset correction : 6
Overread into Lead-In and Lead-Out : No
Fill up missing offset samples with silence : Yes
Delete leading and trailing silent blocks : No
Null samples used in CRC calculations : Yes
Used interface : Native Win32 interface for Win NT & 2000

Used output format : User Defined Encoder
Selected bitrate : 128 kBit/s
Quality : High
Add ID3 tag : No
Command line compressor : C:\Program Files (x86)\Exact Audio Copy\Flac\flac.exe
Additional command line options : -V -8 -T "Genre=%genre%" -T "Artist=%artist%" -T "Title=%title%" -T "Album=%albumtitle%" -T "Date=%year%" -T "Tracknumber=%tracknr%" -T "Comment=%comment%" %source%


TOC of the extracted CD

Track | Start | Length | Start sector | End sector
––––––––––––––––––––––––––––-
1 | 0:00.00 | 4:55.20 | 0 | 22144
2 | 4:55.20 | 3:16.62 | 22145 | 36906
3 | 8:12.07 | 2:32.40 | 36907 | 48346
4 | 10:44.47 | 4:37.60 | 48347 | 69181
5 | 15:22.32 | 4:27.28 | 69182 | 89234
6 | 19:49.60 | 4:07.57 | 89235 | 107816
7 | 23:57.42 | 4:01.73 | 107817 | 125964
8 | 27:59.40 | 4:07.45 | 125965 | 144534
9 | 32:07.10 | 7:58.20 | 144535 | 180404
10 | 40:05.30 | 3:13.50 | 180405 | 194929
11 | 43:19.05 | 3:58.32 | 194930 | 212811
12 | 47:17.37 | 3:41.70 | 212812 | 229456


Range status and errors

Selected range

Filename H:\dafnaplus\+Stranglers - Rattus Norvegicus\The Stranglers - Rattus Norvegicus (TOCP-67941).wav

Peak level 100.0 %
Extraction speed 7.5 X
Range quality 100.0 %
Test CRC C1D15848
Copy CRC C1D15848
Copy OK

No errors occurred


AccurateRip summary

Track 1 cannot be verified as accurate (confidence 46) [48C34D8C], AccurateRip returned [02434FDA] (AR v2)
Track 2 cannot be verified as accurate (confidence 46) [2DEACB81], AccurateRip returned [6AAA5B5D] (AR v2)
Track 3 cannot be verified as accurate (confidence 45) [DAD9AD25], AccurateRip returned [0B7BFA25] (AR v2)
Track 4 cannot be verified as accurate (confidence 45) [65F9EF32], AccurateRip returned [6F8656A8] (AR v2)
Track 5 cannot be verified as accurate (confidence 45) [922A083A], AccurateRip returned [4FB39B0F] (AR v2)
Track 6 cannot be verified as accurate (confidence 45) [7DE75BF1], AccurateRip returned [B302B6A3] (AR v2)
Track 7 cannot be verified as accurate (confidence 45) [4FB1DBD0], AccurateRip returned [63838178] (AR v2)
Track 8 cannot be verified as accurate (confidence 45) [95F9F440], AccurateRip returned [D677E963] (AR v2)
Track 9 cannot be verified as accurate (confidence 45) [D918B79E], AccurateRip returned [CCE8C38F] (AR v2)
Track 10 cannot be verified as accurate (confidence 43) [B236808A], AccurateRip returned [D8A6C28A] (AR v2)
Track 11 cannot be verified as accurate (confidence 43) [410DB0A4], AccurateRip returned [241CE22A] (AR v2)
Track 12 cannot be verified as accurate (confidence 43) [9CD11C45], AccurateRip returned [D2601E08] (AR v2)

No tracks could be verified as accurate
You may have a different pressing from the one(s) in the database

End of status report

–– CUETools DB Plugin V2.1.6

[CTDB TOCID: emeMdsgpgjLSRNEg.9g8g0pPguI-] found
Submit result: emeMdsgpgjLSRNEg.9g8g0pPguI- has been confirmed
Track | CTDB Status
1 | ( 1/67) Accurately ripped
2 | ( 2/67) Accurately ripped
3 | ( 2/67) Accurately ripped
4 | ( 2/67) Accurately ripped
5 | ( 2/67) Accurately ripped
6 | ( 2/67) Accurately ripped
7 | ( 2/67) Accurately ripped
8 | ( 2/67) Accurately ripped
9 | ( 2/67) Accurately ripped
10 | ( 2/67) Accurately ripped
11 | ( 2/67) Accurately ripped
12 | ( 2/67) Accurately ripped


==== Log checksum 45A05878EF34BBCA25C33607CF88B807AA82F1E28985E6B9ECB1E79E38EF90D4 ====

foobar2000 1.2.9 / Dynamic Range Meter 1.1.1
log date: 2016-10-03 01:07:12

––––––––––––––––––––––––––––––––––––––––
Analyzed: The Stranglers / Rattus Norvegicus (TOCP-67941)
––––––––––––––––––––––––––––––––––––––––

DR Peak RMS Duration Track
––––––––––––––––––––––––––––––––––––––––
DR12 -0.08 dB -13.31 dB 4:55 01-Sometimes
DR12 -0.06 dB -14.29 dB 3:17 02-Goodbye Toulouse
DR12 -0.19 dB -13.94 dB 2:33 03-London Lady
DR14 -0.34 dB -16.01 dB 4:38 04-Princess Of The Streets
DR12 -0.08 dB -13.44 dB 4:27 05-Hanging Around
DR13 -0.45 dB -15.71 dB 4:08 06-Peaches
DR13 -0.51 dB -14.12 dB 4:02 07-(Get A) Grip (On Yourself)
DR12 -0.18 dB -13.97 dB 4:08 08-Ugly
DR12 -1.14 dB -14.97 dB 7:58 09-Down In The Sewer
DR12 0.00 dB -14.23 dB 3:14 10-Choosey Susie (Bonus Track)
DR14 0.00 dB -16.22 dB 3:58 11-Go Buddy Go (Bonus Track)
DR13 0.00 dB -15.56 dB 3:42 12-Peasant In The Big Shitty (Bonus Track, Live)
––––––––––––––––––––––––––––––––––––––––

Number of tracks: 12
Official DR value: DR13

Samplerate: 44100 Hz
Channels: 2
Bits per sample: 16
Bitrate: 856 kbps
Codec: FLAC

[CUETools log; Date: 03.10.2016 1:03:56; Version: 2.1.4]
[CTDB TOCID: emeMdsgpgjLSRNEg.9g8g0pPguI-] found.
Track | CTDB Status
1 | ( 2/88) Accurately ripped
2 | ( 3/88) Accurately ripped
3 | ( 3/88) Accurately ripped
4 | ( 3/88) Accurately ripped
5 | ( 3/88) Accurately ripped
6 | ( 3/88) Accurately ripped
7 | ( 3/88) Accurately ripped
8 | ( 3/88) Accurately ripped
9 | ( 3/88) Accurately ripped
10 | ( 3/88) Accurately ripped
11 | ( 3/88) Accurately ripped
12 | ( 3/88) Accurately ripped
[AccurateRip ID: 00164de9-00d23c13-b20bf30c] found.
Track [ CRC | V2 ] Status
01 [2fe9a851|48c34d8c] (000+002/142) Accurately ripped
02 [48198428|2deacb81] (000+002/141) Accurately ripped
03 [405c33ec|dad9ad25] (000+002/141) Accurately ripped
04 [bcf16ddc|65f9ef32] (000+002/139) Accurately ripped
05 [8ae8f8ed|922a083a] (000+002/142) Accurately ripped
06 [9331dd1f|7de75bf1] (000+002/141) Accurately ripped
07 [b358edeb|4fb1dbd0] (000+002/141) Accurately ripped
08 [b4732ae9|95f9f440] (000+002/140) Accurately ripped
09 [5de8b2b6|d918b79e] (000+002/140) Accurately ripped
10 [6cae4700|b236808a] (000+002/138) Accurately ripped
11 [662400f5|410db0a4] (000+002/137) Accurately ripped
12 [fca0fc74|9cd11c45] (000+002/135) Accurately ripped

Track Peak [ CRC32 ] [W/O NULL] [ LOG ]
– 100,0 [C1D15848] [4392FD9A] CRC32
01 99,0 [2A306987] [29FAA832]
02 99,2 [C5B3E8E6] [61CC43B9]
03 97,8 [FBE68CB3] [E11A9174]
04 96,1 [255CF5C0] [4F7E4488]
05 99,0 [2DE3BA33] [7C26C99F]
06 94,9 [70BF80EB] [9467FF89]
07 94,3 [8517F35F] [0620CDCF]
08 98,0 [4C8E9FA7] [4AD5B945]
09 87,6 [721273A8] [ECBBCC1A]
10 100,0 [CC3CF937] [F3A08BD8]
11 100,0 [47055339] [CB15428C]
12 100,0 [EE37F94D] [2478616D]

The Stranglers - Rattus Norvegicus (1977) [Toshiba-EMI TOCP-67941, Japan]

All thanks go to dafnaplus

The Stranglers in my Blog

Download The Stranglers - Rattus Norvegicus (1977):