Tags
Language
Tags

The Sweet - Archive Series (1997)

Posted By: popsakov
The Sweet - Archive Series (1997)

The Sweet - Archive Series (1997)
EAC Rip | FLAC (Img) + Cue + Log ~ 469 Mb | MP3 CBR320 ~ 176 Mb
Full Scans | 01:11:06 | RAR 5% Recovery
Brit Pop, Hard Rock, Glam Rock | Rialto Records #RMCD 215

Archive is a compilation album from British rock band The Sweet, released in UK in 1997 on the Rialto Records label, includes rare tracks.

***************

The Sweet - Archive Series (1997)

The Sweet - Archive Series (1997)

Track List:

01. Eye Games [01:46]
02. Strong Love [03:29]
03. White Mice [05:02]
04. Air On A Tape Loop [03:00]
05. Healer [08:56]
06. Windy City [06:50]
07. Play All Night [03:28]
08. Distinct Lack Of Ancient [04:09]
09. Dream On [02:51]
10. Why Don't You Do It To Me [03:00]
11. Cover Girl [03:35]
12. Sweet FA [05:36]
13. California Nights [04:14]
14. Midnight To Daylight [04:14]
15. Stairway To The Stars [03:06]
16. Anthem (Lady Of The Lake) [04:10]
17. Lost Angels [03:48]

Exact Audio Copy V1.0 beta 4 from 7. December 2014

Отчёт EAC об извлечении, выполненном 24. мая 2015, 11:38

Sweet / Archive Series (RMCD 215)

Дисковод: HL-DT-STDVD-RAM GSA-H22N Adapter: 1 ID: 0

Режим чтения : Достоверность
Использование точного потока : Да
Отключение кэша аудио : Нет
Использование указателей C2 : Нет

Коррекция смещения при чтении : 102
Способность читать области Lead-in и Lead-out : Нет
Заполнение пропущенных сэмплов тишиной : Да
Удаление блоков с тишиной в начале и конце : Нет
При вычислениях CRC использовались нулевые сэмплы : Да
Интерфейс : Встроенный Win32-интерфейс для Win NT/2000

Выходной формат : Внутренние WAV-операции
Формат сэмплов : 44.100 Гц; 16 бит; стерео


TOC извлечённого CD

Трек | Старт | Длительность | Начальный сектор | Конечный сектор
––––––––––––––––––––––––––––––––––-
1 | 0:00.32 | 1:45.18 | 32 | 7924
2 | 1:45.50 | 3:28.32 | 7925 | 23556
3 | 5:14.07 | 5:01.05 | 23557 | 46136
4 | 10:15.12 | 2:59.05 | 46137 | 59566
5 | 13:14.17 | 8:55.73 | 59567 | 99764
6 | 22:10.15 | 6:49.15 | 99765 | 130454
7 | 28:59.30 | 3:27.27 | 130455 | 146006
8 | 32:26.57 | 4:08.30 | 146007 | 164636
9 | 36:35.12 | 2:51.00 | 164637 | 177461
10 | 39:26.12 | 2:59.05 | 177462 | 190891
11 | 42:25.17 | 3:34.63 | 190892 | 207004
12 | 46:00.05 | 5:35.67 | 207005 | 232196
13 | 51:35.72 | 4:14.00 | 232197 | 251246
14 | 55:49.72 | 4:13.55 | 251247 | 270276
15 | 60:03.52 | 3:05.55 | 270277 | 284206
16 | 63:09.32 | 4:09.08 | 284207 | 302889
17 | 67:18.40 | 3:47.27 | 302890 | 319941


Характеристики диапазона извлечения и сообщения об ошибках

Выбранный диапазон

Имя файла D:\Музыка\Готовое для заливки\The Sweet - Archive Series (1997) APE\Sweet - Archive Series (RMCD 215).wav

Пиковый уровень 99.2 %
Скорость извлечения 4.6 X
Качество диапазона 99.9 %
CRC копии 4C57259E
Копирование… OK

Ошибок не произошло


AccurateRip: сводка

Трек 1 точность не определена (достоверность 1) [851414A8], AccurateRip вернул [EABF63CF] (AR v2)
Трек 2 точность не определена (достоверность 1) [ACBD4FFE], AccurateRip вернул [36E96547] (AR v2)
Трек 3 точность не определена (достоверность 1) [D6A77962], AccurateRip вернул [3DF36697] (AR v2)
Трек 4 точность не определена (достоверность 1) [026758BC], AccurateRip вернул [138CD42B] (AR v2)
Трек 5 точность не определена (достоверность 1) [04C27E23], AccurateRip вернул [5EACF74B] (AR v2)
Трек 6 точность не определена (достоверность 1) [CE658B81], AccurateRip вернул [7B79479B] (AR v2)
Трек 7 точность не определена (достоверность 1) [C78CDEBE], AccurateRip вернул [CC492EEA] (AR v2)
Трек 8 точность не определена (достоверность 1) [AE4521D1], AccurateRip вернул [178F76B8] (AR v2)
Трек 9 точность не определена (достоверность 1) [0953F5AB], AccurateRip вернул [6CA1FEE8] (AR v2)
Трек 10 точность не определена (достоверность 1) [D56B55F8], AccurateRip вернул [6E88E291] (AR v2)
Трек 11 точность не определена (достоверность 1) [8C3DAFEB], AccurateRip вернул [14952800] (AR v2)
Трек 12 точность не определена (достоверность 1) [866F78DC], AccurateRip вернул [ABFD4422] (AR v2)
Трек 13 точность не определена (достоверность 1) [36C92D27], AccurateRip вернул [C3609076] (AR v2)
Трек 14 точность не определена (достоверность 1) [71A39B29], AccurateRip вернул [12056347] (AR v2)
Трек 15 точность не определена (достоверность 1) [1CEC494D], AccurateRip вернул [7EB92677] (AR v2)
Трек 16 точность не определена (достоверность 1) [99994A05], AccurateRip вернул [095B6768] (AR v2)
Трек 17 точность не определена (достоверность 1) [C26695BE], AccurateRip вернул [064230A9] (AR v2)

Ни один трек не прошёл проверки на точность
В вашей базе может быть иной вариант штамповки диска

Конец отчёта

==== Контрольная сумма отчёта 47784DDEEDC8AD42F8F3E65B34E406B4C365DDBCF6BA16CA8F64D4AF95E67FBA ====

The Sweet - Archive Series (1997)


All thanks go to SWAT

>>> Sweet in my Blog <<<

DOWNLOAD: