Tags
Language
Tags

VA - The Very Best Of Cold Feet (2003)

Posted By: Rtax
VA - The Very Best Of Cold Feet (2003)

VA - The Very Best Of Cold Feet (2003)
XLD Rip | FLAC (tracks, cue, log) - 947 MB | MP3 CBR 320 kbps - 333 MB
2:24:50 | Soundtrack, Soul, Rock, Electronic, Pop | Label: Universal Music TV

Ori. Compilation Release '03, music selected over five series of the British TV series, includes music from Oasis, Coldplay, Tom Jones, Barry White. Etc, total 37 trax.

Tracklist
Disc 1
1. Appleton – Don't Worry
2. Sugababes – Round Round
3. Ms. Dynamite – Dy-Na-Mi-Tee
4. Ronan Keating – Life Is A Rollercoaster
5. Afroman – Because I Got High
6. All Saints – Black Coffee
7. Mary J. Blige – Family Affair
8. Craig David – Walking Away
9. Alicia Keys – A Woman's Worth
10. Marvin Gaye – I Heard It Through The Grapevine
11. Barry White – Never, Never Gonna Give You Up
12. Jackie Wilson – I Get The Sweetest Feeling
13. Moby – In This World
14. Oakenfold – Starry Eyed Surprise
15. Fatboy Slim – Praise You
16. Mousse T. & Hot 'n' Juicy – Horny
17. Kool & The Gang – Celebration
18. Fat Larry's Band – Zoom

Disc 2
1. Coldplay – The Scientist
2. U2 – Stuck In A Moment You Can't Get Out Of
3. Oasis – The Hindu Times
4. Space – Female Of The Species
5. Ash – Candy
6. The Undertones – Teenage Kicks
7. Free – All Right Now
8. Catatonia – Mulder And Scully
9. Andreas Johnson – Glorious
10. Manic Street Preachers – Everything Must Go
11. Bentley Rhythm Ace – Bentley's Gonna Sort You Out
12. New Radicals – You Get What You Give
13. Cardigans – Lovefool
14. Tom Jones – Help Yourself
15. Norman Greenbaum – Spirit In The Sky
16. Tears For Fears – Everybody Wants To Rule The World
17. Frankie Goes To Hollywood – The Power Of Love
18. 10CC – I'm Not In Love
19. Andy Williams – Can't Take My Eyes Off You
X Lossless Decoder version 20210101 (153.1)

XLD extraction logfile from 2021-02-05 17:31:08 +0000

Various Artists / The Very Best of Cold Feet

Used drive : TSSTcorp CDDVDW SE-208GB (revision TS00)
Media type : Pressed CD

Ripper mode : XLD Secure Ripper
Disable audio cache : OK for the drive with a cache less than 1375KiB
Make use of C2 pointers : NO
Read offset correction : 6
Max retry count : 20
Gap status : Analyzed, Appended (except HTOA)

TOC of the extracted CD
Track | Start | Length | Start sector | End sector
––––––––––––––––––––––––––––-
1 | 00:00:00 | 04:18:24 | 0 | 19373
2 | 04:18:24 | 03:54:62 | 19374 | 36985
3 | 08:13:11 | 03:37:47 | 36986 | 53307
4 | 11:50:58 | 03:51:36 | 53308 | 70668
5 | 15:42:19 | 03:17:37 | 70669 | 85480
6 | 18:59:56 | 04:47:39 | 85481 | 107044
7 | 23:47:20 | 03:59:47 | 107045 | 125016
8 | 27:46:67 | 03:22:30 | 125017 | 140196
9 | 31:09:22 | 05:02:04 | 140197 | 162850
10 | 36:11:26 | 03:09:01 | 162851 | 177026
11 | 39:20:27 | 03:57:35 | 177027 | 194836
12 | 43:17:62 | 02:54:06 | 194837 | 207892
13 | 46:11:68 | 03:24:02 | 207893 | 223194
14 | 49:35:70 | 03:07:22 | 223195 | 237241
15 | 52:43:17 | 05:21:44 | 237242 | 261360
16 | 58:04:61 | 03:05:30 | 261361 | 275265
17 | 61:10:16 | 03:38:70 | 275266 | 291685
18 | 64:49:11 | 03:47:27 | 291686 | 308737
19 | 71:08:38 | 05:41:61 | 320138 | 345773

AccurateRip Summary (DiscID: 002e0229-0265bb7e-2c120213)
Track 01 : OK (v1+v2, confidence 47/47)
Track 02 : OK (v1+v2, confidence 48/48)
Track 03 : OK (v1+v2, confidence 46/46)
Track 04 : OK (v1+v2, confidence 46/46)
Track 05 : OK (v1+v2, confidence 48/48)
Track 06 : OK (v1+v2, confidence 48/48)
Track 07 : OK (v1+v2, confidence 48/48)
Track 08 : OK (v1+v2, confidence 48/48)
Track 09 : OK (v1+v2, confidence 48/48)
Track 10 : OK (v1+v2, confidence 47/47)
Track 11 : OK (v1+v2, confidence 48/48)
Track 12 : OK (v1+v2, confidence 48/48)
Track 13 : OK (v1+v2, confidence 47/47)
Track 14 : OK (v1+v2, confidence 46/46)
Track 15 : OK (v1+v2, confidence 46/46)
Track 16 : OK (v1+v2, confidence 46/46)
Track 17 : OK (v1+v2, confidence 48/48)
Track 18 : OK (v1+v2, confidence 47/47)
->All tracks accurately ripped.

All Tracks
Album gain : -6.26 dB
Peak : 0.919006
Statistics
Read error : 0
Jitter error (maybe fixed) : 0
Retry sector count : 0
Damaged sector count : 0

Track 01
Filename : /Volumes/Data/Various Artists - The Very Best of Cold Feet (2003) [FLAC]/CD1/01 - Appleton- Don’t Worry.flac
Pre-gap length : 00:02:00

Track gain : -5.16 dB
Peak : 0.872131
CRC32 hash (test run) : 851B5C20
CRC32 hash : 851B5C20
CRC32 hash (skip zero) : 40E9E92B
AccurateRip v1 signature : 3BCCA45D
AccurateRip v2 signature : B129EB73
->Accurately ripped (v1+v2, confidence 12+35/47)
Statistics
Read error : 0
Jitter error (maybe fixed) : 0
Retry sector count : 0
Damaged sector count : 0

Track 02
Filename : /Volumes/Data/Various Artists - The Very Best of Cold Feet (2003) [FLAC]/CD1/02 - Sugababes- Round Round.flac

Track gain : -7.50 dB
Peak : 0.835022
CRC32 hash (test run) : 52AEB6FF
CRC32 hash : 52AEB6FF
CRC32 hash (skip zero) : 77BFD2F5
AccurateRip v1 signature : A631C74B
AccurateRip v2 signature : 08D13003
->Accurately ripped (v1+v2, confidence 13+35/48)
Statistics
Read error : 0
Jitter error (maybe fixed) : 0
Retry sector count : 0
Damaged sector count : 0

Track 03
Filename : /Volumes/Data/Various Artists - The Very Best of Cold Feet (2003) [FLAC]/CD1/03 - Ms. Dynamite- Dy‐na‐mi‐tee.flac

Track gain : -6.71 dB
Peak : 0.837982
CRC32 hash (test run) : 7CA0D8A9
CRC32 hash : 7CA0D8A9
CRC32 hash (skip zero) : 51AFA5C6
AccurateRip v1 signature : 6795CE23
AccurateRip v2 signature : A5323245
->Accurately ripped (v1+v2, confidence 11+35/46)
Statistics
Read error : 0
Jitter error (maybe fixed) : 0
Retry sector count : 0
Damaged sector count : 0

Track 04
Filename : /Volumes/Data/Various Artists - The Very Best of Cold Feet (2003) [FLAC]/CD1/04 - Ronan Keating- Life Is a Rollercoaster.flac

Track gain : -5.56 dB
Peak : 0.864319
CRC32 hash (test run) : 48601434
CRC32 hash : 48601434
CRC32 hash (skip zero) : 4C4E75D2
AccurateRip v1 signature : 0357C3E9
AccurateRip v2 signature : 2C303A94
->Accurately ripped (v1+v2, confidence 12+34/46)
Statistics
Read error : 0
Jitter error (maybe fixed) : 0
Retry sector count : 0
Damaged sector count : 0

Track 05
Filename : /Volumes/Data/Various Artists - The Very Best of Cold Feet (2003) [FLAC]/CD1/05 - Afroman- Because I Got High.flac

Track gain : -4.76 dB
Peak : 0.865753
CRC32 hash (test run) : A9EAADC4
CRC32 hash : A9EAADC4
CRC32 hash (skip zero) : 32389E7D
AccurateRip v1 signature : 4CFCEFE4
AccurateRip v2 signature : F37D6C35
->Accurately ripped (v1+v2, confidence 13+35/48)
Statistics
Read error : 0
Jitter error (maybe fixed) : 0
Retry sector count : 0
Damaged sector count : 0

Track 06
Filename : /Volumes/Data/Various Artists - The Very Best of Cold Feet (2003) [FLAC]/CD1/06 - All Saints- Black Coffee.flac

Track gain : -7.10 dB
Peak : 0.890320
CRC32 hash (test run) : 898CCE28
CRC32 hash : 898CCE28
CRC32 hash (skip zero) : B386F9B1
AccurateRip v1 signature : B00479D0
AccurateRip v2 signature : 722CAF6E
->Accurately ripped (v1+v2, confidence 13+35/48)
Statistics
Read error : 0
Jitter error (maybe fixed) : 0
Retry sector count : 0
Damaged sector count : 0

Track 07
Filename : /Volumes/Data/Various Artists - The Very Best of Cold Feet (2003) [FLAC]/CD1/07 - Mary J. Blige- Family Affair.flac

Track gain : -7.01 dB
Peak : 0.854065
CRC32 hash (test run) : B85E079C
CRC32 hash : B85E079C
CRC32 hash (skip zero) : D72DA60D
AccurateRip v1 signature : 6D11E39E
AccurateRip v2 signature : 52A71573
->Accurately ripped (v1+v2, confidence 13+35/48)
Statistics
Read error : 0
Jitter error (maybe fixed) : 0
Retry sector count : 0
Damaged sector count : 0

Track 08
Filename : /Volumes/Data/Various Artists - The Very Best of Cold Feet (2003) [FLAC]/CD1/08 - Craig David- Walking Away.flac

Track gain : -5.70 dB
Peak : 0.871277
CRC32 hash (test run) : 874D2E3A
CRC32 hash : 874D2E3A
CRC32 hash (skip zero) : 04FAC384
AccurateRip v1 signature : B90333F6
AccurateRip v2 signature : FD5B515E
->Accurately ripped (v1+v2, confidence 13+35/48)
Statistics
Read error : 0
Jitter error (maybe fixed) : 0
Retry sector count : 0
Damaged sector count : 0

Track 09
Filename : /Volumes/Data/Various Artists - The Very Best of Cold Feet (2003) [FLAC]/CD1/09 - Alicia Keys- A Woman’s Worth.flac

Track gain : -5.32 dB
Peak : 0.850891
CRC32 hash (test run) : 730E7EA9
CRC32 hash : 730E7EA9
CRC32 hash (skip zero) : 54D89157
AccurateRip v1 signature : B1BF2153
AccurateRip v2 signature : BAED6404
->Accurately ripped (v1+v2, confidence 13+35/48)
Statistics
Read error : 0
Jitter error (maybe fixed) : 0
Retry sector count : 0
Damaged sector count : 0

Track 10
Filename : /Volumes/Data/Various Artists - The Very Best of Cold Feet (2003) [FLAC]/CD1/10 - Marvin Gaye- I Heard It Through the Grapevine.flac

Track gain : -4.60 dB
Peak : 0.887939
CRC32 hash (test run) : 34AB4C1D
CRC32 hash : 34AB4C1D
CRC32 hash (skip zero) : 94D665B8
AccurateRip v1 signature : 8EF1BDEE
AccurateRip v2 signature : B475E1BE
->Accurately ripped (v1+v2, confidence 13+34/47)
Statistics
Read error : 0
Jitter error (maybe fixed) : 0
Retry sector count : 0
Damaged sector count : 0

Track 11
Filename : /Volumes/Data/Various Artists - The Very Best of Cold Feet (2003) [FLAC]/CD1/11 - Barry White- Never, Never Gonna Give You Up.flac

Track gain : -5.55 dB
Peak : 0.861969
CRC32 hash (test run) : 9B6E62C5
CRC32 hash : 9B6E62C5
CRC32 hash (skip zero) : 154BBDD0
AccurateRip v1 signature : 9532D53E
AccurateRip v2 signature : 1BC7C6A4
->Accurately ripped (v1+v2, confidence 13+35/48)
Statistics
Read error : 0
Jitter error (maybe fixed) : 0
Retry sector count : 0
Damaged sector count : 0

Track 12
Filename : /Volumes/Data/Various Artists - The Very Best of Cold Feet (2003) [FLAC]/CD1/12 - Jackie Wilson- I Get the Sweetest Feeling.flac

Track gain : -6.88 dB
Peak : 0.919006
CRC32 hash (test run) : 1B2D5852
CRC32 hash : 1B2D5852
CRC32 hash (skip zero) : 4A86BAAD
AccurateRip v1 signature : FB7694B9
AccurateRip v2 signature : E47A1703
->Accurately ripped (v1+v2, confidence 13+35/48)
Statistics
Read error : 0
Jitter error (maybe fixed) : 0
Retry sector count : 0
Damaged sector count : 0

Track 13
Filename : /Volumes/Data/Various Artists - The Very Best of Cold Feet (2003) [FLAC]/CD1/13 - Moby- In This World.flac

Track gain : -5.79 dB
Peak : 0.826294
CRC32 hash (test run) : B2EE8097
CRC32 hash : B2EE8097
CRC32 hash (skip zero) : 3A082976
AccurateRip v1 signature : 80C3A1F5
AccurateRip v2 signature : 7808ABEA
->Accurately ripped (v1+v2, confidence 13+34/47)
Statistics
Read error : 0
Jitter error (maybe fixed) : 0
Retry sector count : 0
Damaged sector count : 0

Track 14
Filename : /Volumes/Data/Various Artists - The Very Best of Cold Feet (2003) [FLAC]/CD1/14 - Paul Oakenfold- Starry Eyed Surprise.flac

Track gain : -6.18 dB
Peak : 0.790070
CRC32 hash (test run) : 81EEB552
CRC32 hash : 81EEB552
CRC32 hash (skip zero) : 60E7C661
AccurateRip v1 signature : DAA2D2EA
AccurateRip v2 signature : 305FAE89
->Accurately ripped (v1+v2, confidence 13+33/46)
Statistics
Read error : 0
Jitter error (maybe fixed) : 0
Retry sector count : 0
Damaged sector count : 0

Track 15
Filename : /Volumes/Data/Various Artists - The Very Best of Cold Feet (2003) [FLAC]/CD1/15 - Fatboy Slim- Praise You.flac

Track gain : -6.85 dB
Peak : 0.815399
CRC32 hash (test run) : 12D34020
CRC32 hash : 12D34020
CRC32 hash (skip zero) : 3DE2A2C7
AccurateRip v1 signature : 92FCD1F8
AccurateRip v2 signature : F8D56F38
->Accurately ripped (v1+v2, confidence 12+34/46)
Statistics
Read error : 0
Jitter error (maybe fixed) : 0
Retry sector count : 0
Damaged sector count : 0

Track 16
Filename : /Volumes/Data/Various Artists - The Very Best of Cold Feet (2003) [FLAC]/CD1/16 - Mousse T. vs. Hot ’n’ Juicy- Horny.flac

Track gain : -8.71 dB
Peak : 0.855499
CRC32 hash (test run) : B5B81845
CRC32 hash : B5B81845
CRC32 hash (skip zero) : 1591A67D
AccurateRip v1 signature : 3207F61D
AccurateRip v2 signature : 7D250C46
->Accurately ripped (v1+v2, confidence 13+33/46)
Statistics
Read error : 0
Jitter error (maybe fixed) : 0
Retry sector count : 0
Damaged sector count : 0

Track 17
Filename : /Volumes/Data/Various Artists - The Very Best of Cold Feet (2003) [FLAC]/CD1/17 - Kool & The Gang- Celebration.flac

Track gain : -2.32 dB
Peak : 0.872803
CRC32 hash (test run) : D23185A3
CRC32 hash : D23185A3
CRC32 hash (skip zero) : 9922C74E
AccurateRip v1 signature : 23B6829E
AccurateRip v2 signature : 1D5C72B8
->Accurately ripped (v1+v2, confidence 13+35/48)
Statistics
Read error : 0
Jitter error (maybe fixed) : 0
Retry sector count : 0
Damaged sector count : 0

Track 18
Filename : /Volumes/Data/Various Artists - The Very Best of Cold Feet (2003) [FLAC]/CD1/18 - Fat Larry's Band- Zoom.flac

Track gain : -6.94 dB
Peak : 0.887817
CRC32 hash (test run) : 6C642D58
CRC32 hash : 6C642D58
CRC32 hash (skip zero) : 422E0398
AccurateRip v1 signature : 71DF2783
AccurateRip v2 signature : 305A4EE1
->Accurately ripped (v1+v2, confidence 13+34/47)
Statistics
Read error : 0
Jitter error (maybe fixed) : 0
Retry sector count : 0
Damaged sector count : 0

No errors occurred

End of status report

––-BEGIN XLD SIGNATURE––-
sHK3CexwqC0p7wmXhaUqb.wMeIMpES0ZCRUyaPruBxS1JVbSS2PHgYZwMlAfHLuNNxpa4Dx84HDp2QLhItGpjP8QPqYBPX7xkXIaEaq
––-END XLD SIGNATURE––-