Tags
Language
Tags

The Dells - Love Connection (1977) [2012, Remastered & Expanded Edition]

Posted By: BlondStyle
The Dells - Love Connection (1977) [2012, Remastered & Expanded Edition]

The Dells - Love Connection (1977) [2012, Remastered & Expanded Edition]
R&B, Soul/Funk, Smooth Soul | EAC Rip | FLAC, Img+CUE+LOG+Scans (JPEG) | 42:48 | 317,81 Mb
Label: SoulMusic Records (UK) | Cat.# SMCR 5047 | Released: 2012-04-16 (1977)
The Dells - Love Connection (1977) [2012, Remastered & Expanded Edition]

Digitally re-mastered and expanded edition of this 1977 album from the Soul quintet. "Love Connection" saw The Dells returning to Philadelphia to work with the top-notch "Harris Machine" production team (which included Norman Harris, Earl Young and Ron Baker of the Trammps). The Dells teamed with arrangers Ron Kersey, T.G. Conway and Allan Felder, songwriters such as (future Temptation) Ron Tyson and top Philly session musicians for the album, much in-demand by their many fans worldwide who consider this as one of their best group's best recordings of the '70's.
~Amazon US

The Dells - Love Connection (1977) [2012, Remastered & Expanded Edition]

The Dells - Love Connection (1977) [2012, Remastered & Expanded Edition]


Release of this album: 1977 [LP Mercury Records, Cat.# SRM-1-3711, USA]
Release of this CD: 2012, April, 16 [CD SoulMusic Records (UK), Cat.# SMCR 5047 / UPC: 5013929074736]
℗ 1977 Mercury Records.
This compilation ℗&© 2012 SoulMusic Records.
Licensed courtesy of Universal Music Orerations Ltd.
Marketed and Distributed by Cherry Red Records Ltd.
Made in EU


Credits:

Art Direction – AGI, Jim Ladwig
Design – John Youssi
Design, Artwork By – Roger Williams
Engineer – Carl Parvolo, Dick Devlin, Jim Gallagher
Mastered By – Alan Wilson, Nimitr Sarakananda
Photography By – Don Levy
Photography By [Portrait] – Bill Frantz
Reissue Producer – David Nathan
Vocals – Chuck Barksdale, Johnny Carter, Marvin Junior, Mickey McGill, Verne Allison


Tracklist:

01. Private Property (04:13)
(E. Moore, R. Tyson)
02. God Helps Those (Who Help Themselves) (05:00)
(B. Eli, J. Prusan)
03. I'm In Love (06:07)
(B. Gray, T. G. Conway)
04. Don't Trick Me (04:54)
(J. Aikens, J. Bellmon, B. Turner)
05. How Can One Man Be So Lucky (04:06)
(E. Moore, R. Tyson)
06. Should I Or Should I Not (05:43)
(B. Sigler)
07. Love Connection (05:03)
(A. Felder, N. Harris, R. Tyson)
08. Wasted Tears (04:34)
(M. Junior)
Bonus Track:
09. Private Property (US Single Edit) (03:09)
(E. Moore, R. Tyson)

Exact Audio Copy V1.3 from 2. September 2016

EAC extraction logfile from 4. September 2017, 19:34

The Dells / Love Connection (Expanded Edition)

Used drive : PIONEER BD-RW BDR-208D Adapter: 1 ID: 0

Read mode : Secure
Utilize accurate stream : Yes
Defeat audio cache : Yes
Make use of C2 pointers : No

Read offset correction : 667
Overread into Lead-In and Lead-Out : No
Fill up missing offset samples with silence : Yes
Delete leading and trailing silent blocks : No
Null samples used in CRC calculations : Yes
Used interface : Native Win32 interface for Win NT & 2000

Used output format : Internal WAV Routines
Sample format : 44.100 Hz; 16 Bit; Stereo


TOC of the extracted CD

Track | Start | Length | Start sector | End sector
––––––––––––––––––––––––––––-
1 | 0:00.00 | 4:12.53 | 0 | 18952
2 | 4:12.53 | 4:59.59 | 18953 | 41436
3 | 9:12.37 | 6:07.11 | 41437 | 68972
4 | 15:19.48 | 4:54.17 | 68973 | 91039
5 | 20:13.65 | 4:06.15 | 91040 | 109504
6 | 24:20.05 | 5:43.01 | 109505 | 135230
7 | 30:03.06 | 5:02.50 | 135231 | 157930
8 | 35:05.56 | 4:33.74 | 157931 | 178479
9 | 39:39.55 | 3:08.39 | 178480 | 192618


Range status and errors

Selected range

Filename D:\BlondStyle\The Dells - Love Connection (Expanded Edition).wav

Peak level 100.0 %
Extraction speed 4.0 X
Range quality 100.0 %
Test CRC 69211657
Copy CRC 69211657
Copy OK

No errors occurred


AccurateRip summary

Track 1 accurately ripped (confidence 2) [226C0AD0] (AR v2)
Track 2 accurately ripped (confidence 2) [F8C5EA68] (AR v2)
Track 3 accurately ripped (confidence 2) [ECA0CDA7] (AR v2)
Track 4 accurately ripped (confidence 2) [61167C22] (AR v2)
Track 5 accurately ripped (confidence 2) [A9DBFB4D] (AR v2)
Track 6 accurately ripped (confidence 2) [C8ABC150] (AR v2)
Track 7 accurately ripped (confidence 2) [6000084D] (AR v2)
Track 8 accurately ripped (confidence 2) [8328955E] (AR v2)
Track 9 accurately ripped (confidence 2) [3976D956] (AR v2)

All tracks accurately ripped

End of status report

–– CUETools DB Plugin V2.1.6

[CTDB TOCID: rMDFc4zsFx80v1is.Rnl2OGPMJo-] found
Submit result: rMDFc4zsFx80v1is.Rnl2OGPMJo- has been confirmed
Track | CTDB Status
1 | (4/4) Accurately ripped
2 | (4/4) Accurately ripped
3 | (4/4) Accurately ripped
4 | (4/4) Accurately ripped
5 | (4/4) Accurately ripped
6 | (4/4) Accurately ripped
7 | (4/4) Accurately ripped
8 | (4/4) Accurately ripped
9 | (4/4) Accurately ripped


==== Log checksum 7AEBD13AA521EE0F2C474F289A8F0D6254308B3747460C5DA338DA825407BC02 ====

––––––––––––––––––––––––––––––––––––––––
Analyzed: The Dells / Love Connection (Expanded Edition)
––––––––––––––––––––––––––––––––––––––––

DR Peak RMS Duration Track
––––––––––––––––––––––––––––––––––––––––
DR12 0.00 dB -15.10 dB 4:13 01-Private Property
DR12 0.00 dB -13.71 dB 5:00 02-God Helps Those (Who Help Themselves)
DR12 0.00 dB -14.56 dB 6:07 03-I'm In Love (I Can't Explain What I Feel)
DR12 0.00 dB -14.34 dB 4:54 04-Don't Trick Me
DR12 0.00 dB -13.76 dB 4:06 05-How Can One Man Be So Lucky
DR12 0.00 dB -14.03 dB 5:43 06-Should I Or Should I Not
DR12 0.00 dB -14.06 dB 5:03 07-Love Connection
DR12 0.00 dB -14.13 dB 4:34 08-Wasted Tears
DR11 0.00 dB -15.28 dB 3:09 09-Private Property (US Single Edit) (Bonus Track)
––––––––––––––––––––––––––––––––––––––––

Number of tracks: 9
Official DR value: DR12

Samplerate: 44100 Hz
Channels: 2
Bits per sample: 16
Bitrate: 815 kbps
Codec: FLAC
================================================================================

♫~Welcome To My Blog~♫

password: BlondStyle