Subcategories
Tags
Language
Tags

The Future Sound Of London - Papua New Guinea Translations (2001)

Posted By: gribovar
The Future Sound Of London - Papua New Guinea Translations (2001)

The Future Sound Of London - Papua New Guinea Translations (2001)
EAC Rip | FLAC (image+.cue+log) - 391 MB | MP3 CBR 320 kbps (LAME 3.93) - 128 MB | Covers - 122 MB
Genre: IDM, Downtempo, Techno, Ambient | RAR 3% Rec. | Label: Jumpin' & Pumpin' (CD TOT 52)

The Future Sound Of London's Translations takes their very essence, subverts it, turns it on it's head, twists and nurtures it. This is an album that makes a global journey of rare insight and beauty through the history of musical composition. Translations grew from the seminal 'Papua New Guinea' and is a transportive journey through the world of music and image, an album which is a stepping stone between their former works and their new incarnation.
Tracklist:
01. Translation 1 - 12" Original
02. Translation 2 - Papsico
03. Translation 3 - The Lovers
04. Translation 4 - Wooden Ships
05. Translation 5 - The Great Marmalade Mama In The Sky
06. Translation 6 - Requiem
07. Translation 7 - Things Change Like The Patterns And Shades That Fall From The Sun
08. Translation 8 - The Big Blue

Total time: 54:25

Exact Audio Copy V0.99 prebeta 4 from 23. January 2008

EAC extraction logfile from 14. June 2009, 21:15

The Future Sound Of London / Papua New Guinea Translations

Used drive : Optiarc DVD RW AD-7220A Adapter: 1 ID: 2

Read mode : Secure
Utilize accurate stream : Yes
Defeat audio cache : Yes
Make use of C2 pointers : No

Read offset correction : 6
Overread into Lead-In and Lead-Out : No
Fill up missing offset samples with silence : Yes
Delete leading and trailing silent blocks : No
Null samples used in CRC calculations : Yes
Used interface : Installed external ASPI interface

Used output format : User Defined Encoder
Selected bitrate : 320 kBit/s
Quality : High
Add ID3 tag : No
Command line compressor : C:\Program Files\Exact Audio Copy\Flac\flac.exe
Additional command line options : –fast -T "ARTIST=%a" -T "TITLE=%t" -T "ALBUM=%g" -T "DATE=%y" -T "TRACKNUMBER=%n" -T "GENRE=%m" %s


TOC of the extracted CD

Track | Start | Length | Start sector | End sector
––––––––––––––––––––––––––––-
1 | 0:00.00 | 4:59.57 | 0 | 22481
2 | 4:59.57 | 9:51.18 | 22482 | 66824
3 | 14:51.00 | 9:03.04 | 66825 | 107553
4 | 23:54.04 | 6:04.15 | 107554 | 134868
5 | 29:58.19 | 4:37.46 | 134869 | 155689
6 | 34:35.65 | 6:05.67 | 155690 | 183131
7 | 40:41.57 | 6:01.56 | 183132 | 210262
8 | 46:43.38 | 7:41.58 | 210263 | 244895


Range status and errors

Selected range

Filename Y:\_EAC_New\The Future Sound Of London - Papua New Guinea Translations.wav

Peak level 99.7 %
Range quality 100.0 %
Test CRC C77DD8B3
Copy CRC C77DD8B3
Copy OK

No errors occurred


AccurateRip summary

Track 1 accurately ripped (confidence 2) [4229C699]
Track 2 accurately ripped (confidence 2) [E41389B2]
Track 3 accurately ripped (confidence 2) [AA660F64]
Track 4 accurately ripped (confidence 2) [E8E94280]
Track 5 accurately ripped (confidence 2) [96199BCD]
Track 6 accurately ripped (confidence 2) [325EE2AF]
Track 7 accurately ripped (confidence 2) [06635F28]
Track 8 accurately ripped (confidence 2) [E69F9266]

All tracks accurately ripped

End of status report

[CUETools log; Date: 24.05.2021 13:08:58; Version: 2.1.4]
[CTDB TOCID: khgvqeZEt8VlycppwuomgV.piQ8-] found.
Track | CTDB Status
1 | (64/64) Accurately ripped
2 | (64/64) Accurately ripped
3 | (63/64) Accurately ripped
4 | (64/64) Accurately ripped
5 | (64/64) Accurately ripped
6 | (64/64) Accurately ripped
7 | (64/64) Accurately ripped
8 | (64/64) Accurately ripped
[AccurateRip ID: 00112d4f-0071b649-5d0cc108] found.
Track [ CRC | V2 ] Status
01 [4229c699|5e3d8249] (04+00/51) Accurately ripped
02 [e41389b2|7fb0bb8b] (04+00/51) Accurately ripped
03 [aa660f64|630eb2e4] (04+00/51) Accurately ripped
04 [e8e94280|878ec82f] (04+00/51) Accurately ripped
05 [96199bcd|0055d50c] (04+00/50) Accurately ripped
06 [325ee2af|09c6e134] (04+00/50) Accurately ripped
07 [06635f28|83355562] (04+00/50) Accurately ripped
08 [e69f9266|6c607456] (04+00/50) Accurately ripped
Offsetted by -10:
01 [b64973da] (04/51) Accurately ripped
02 [f2e25b34] (04/51) Accurately ripped
03 [6d740b54] (04/51) Accurately ripped
04 [39f4ba40] (04/51) Accurately ripped
05 [3cb08815] (04/50) Accurately ripped
06 [d2f40a99] (04/50) Accurately ripped
07 [7420892f] (04/50) Accurately ripped
08 [7416355a] (04/50) Accurately ripped
Offsetted by 654:
01 [2513295d] (09/51) Accurately ripped
02 [789a9df0] (09/51) Accurately ripped
03 [eec05d4f] (09/51) Accurately ripped
04 [732a3e52] (09/51) Accurately ripped
05 [116b1835] (09/50) Accurately ripped
06 [d7b6eec8] (09/50) Accurately ripped
07 [e8092b00] (09/50) Accurately ripped
08 [33ed0c92] (09/50) Accurately ripped
Offsetted by 1318:
01 [04eef2fa] (07/51) Accurately ripped
02 [abe848f9] (07/51) Accurately ripped
03 [c882f6f7] (07/51) Accurately ripped
04 [aa48308a] (07/51) Accurately ripped
05 [125f136e] (07/50) Accurately ripped
06 [7e81a807] (07/50) Accurately ripped
07 [9ed54434] (07/50) Accurately ripped
08 [48075fac] (07/50) Accurately ripped

Track Peak [ CRC32 ] [W/O NULL] [ LOG ]
– 99,7 [C77DD8B3] [3F54FF7F] CRC32
01 99,7 [496819A6] [2A5B053F]
02 99,7 [AE6785C1] [8560BFF4]
03 99,7 [3A4B7E59] [3A230ADB]
04 99,7 [CB468E0D] [D3DBF175]
05 88,8 [038DE6F9] [D9E2B5B9]
06 99,7 [98291535] [018872D5]
07 99,7 [CEFC279A] [C793DC78]
08 99,7 [69F859E2] [1B32A244]

Thanks to EPSmuz

See also:
The Future Sound Of London - 4 Albums (1991-1996)
The Future Sound Of London - From The Archives Vol. 1-6 (2007-2010)
The Future Sound of London - Environments 1-4, 6-6.5 (2008-2016)
The Future Sound Of London - Life in Moments (2015)
The Future Sound Of London - From The Archives Vol. 9 (2018)
The Future Sound Of London - Music From Calendars (2021)