Tags
Language
Tags
April 2024
Su Mo Tu We Th Fr Sa
31 1 2 3 4 5 6
7 8 9 10 11 12 13
14 15 16 17 18 19 20
21 22 23 24 25 26 27
28 29 30 1 2 3 4

The Stranglers - The Sessions (1995)

Posted By: JET 1
The Stranglers - The Sessions (1995)

The Stranglers - The Sessions (1995)
EAC Rip | FLAC (Tracks) +CUE, LOG | 330 MB | Scans
Genre: Alt Rock, Post Punk, New Wave | Label: Castle Records | Catalog Number: CASTLE 123-2

English rock band (New Wave, Punk, Rock), formed as the Guildford Stranglers on 11 September 1974 in Guildford, Surrey, UK. The Stranglers' early sound was driven by J.J. Burnel's melodic bass, but also gave prominence to Dave Greenfield's keyboards. Their early music was also characterised by the growling vocals and sometimes misanthropic lyrics of both Burnel and Hugh Cornwell.

Exact Audio Copy V0.99 prebeta 5 from 4. May 2009

EAC extraction logfile from 5. October 2010, 8:39

The Stranglers / The Sessions (Castle ESSCD 283)

Used drive : HL-DT-STDVD-RAM GSA-H55N Adapter: 1 ID: 0

Read mode : Secure
Utilize accurate stream : Yes
Defeat audio cache : Yes
Make use of C2 pointers : No

Read offset correction : 102
Overread into Lead-In and Lead-Out : No
Fill up missing offset samples with silence : Yes
Delete leading and trailing silent blocks : No
Null samples used in CRC calculations : Yes
Used interface : Installed external ASPI interface
Gap handling : Appended to previous track

Used output format : User Defined Encoder
Selected bitrate : 768 kBit/s
Quality : High
Add ID3 tag : No
Command line compressor : C:\Program Files\Exact Audio Copy\FLAC\FLAC.EXE
Additional command line options : -V -8 -T "artist=%a" -T "title=%t" -T "album=%g" -T "date=%y" -T "tracknumber=%n" -T "genre=%m" %s


TOC of the extracted CD

Track | Start | Length | Start sector | End sector
––––––––––––––––––––––––––––-
1 | 0:00.00 | 4:22.02 | 0 | 19651
2 | 4:22.02 | 3:49.48 | 19652 | 36874
3 | 8:11.50 | 3:15.45 | 36875 | 51544
4 | 11:27.20 | 3:32.40 | 51545 | 67484
5 | 14:59.60 | 2:37.60 | 67485 | 79319
6 | 17:37.45 | 3:12.57 | 79320 | 93776
7 | 20:50.27 | 2:23.28 | 93777 | 104529
8 | 23:13.55 | 2:16.57 | 104530 | 114786
9 | 25:30.37 | 3:57.45 | 114787 | 132606
10 | 29:28.07 | 8:14.25 | 132607 | 169681
11 | 37:42.32 | 7:34.18 | 169682 | 203749


Track 1

Filename H:\EAC Rips\The Stranglers\01 - Hanging Around.wav

Pre-gap length 0:00:02.00

Peak level 99.5 %
Track quality 99.5 %
Test CRC E18B9D82
Copy CRC E18B9D82
Accurately ripped (confidence 4) [B6737C7C]
Copy OK

Track 2

Filename H:\EAC Rips\The Stranglers\02 - I Feel Like A Wog.wav

Pre-gap length 0:00:02.26

Peak level 80.3 %
Track quality 100.0 %
Test CRC 7CFA64E3
Copy CRC 7CFA64E3
Accurately ripped (confidence 4) [3130AC90]
Copy OK

Track 3

Filename H:\EAC Rips\The Stranglers\03 - Goodbye Toulouse.wav

Pre-gap length 0:00:00.97

Peak level 67.9 %
Track quality 99.9 %
Test CRC BF38B3AF
Copy CRC BF38B3AF
Accurately ripped (confidence 4) [217BD001]
Copy OK

Track 4

Filename H:\EAC Rips\The Stranglers\04 - Something Better Change.wav

Pre-gap length 0:00:00.97

Peak level 93.8 %
Track quality 99.9 %
Test CRC 352C86CB
Copy CRC 352C86CB
Accurately ripped (confidence 4) [D6FDCAD4]
Copy OK

Track 5

Filename H:\EAC Rips\The Stranglers\05 - Dead Ringer.wav

Pre-gap length 0:00:01.60

Peak level 99.4 %
Track quality 100.0 %
Test CRC 4D21556E
Copy CRC 4D21556E
Accurately ripped (confidence 4) [9AC82AC0]
Copy OK

Track 6

Filename H:\EAC Rips\The Stranglers\06 - No More Heroes.wav

Pre-gap length 0:00:02.53

Peak level 90.2 %
Track quality 100.0 %
Test CRC 321837B5
Copy CRC 321837B5
Accurately ripped (confidence 4) [18382BCF]
Copy OK

Track 7

Filename H:\EAC Rips\The Stranglers\07 - Burning Up Time.wav

Pre-gap length 0:00:02.00

Peak level 100.0 %
Track quality 100.0 %
Test CRC B1618EB8
Copy CRC B1618EB8
Accurately ripped (confidence 4) [6A1F2B6D]
Copy OK

Track 8

Filename H:\EAC Rips\The Stranglers\08 - Bring On The Nubiles.wav

Pre-gap length 0:00:02.13

Peak level 99.9 %
Track quality 100.0 %
Test CRC 83B3479F
Copy CRC 83B3479F
Accurately ripped (confidence 4) [AAC53819]
Copy OK

Track 9

Filename H:\EAC Rips\The Stranglers\09 - The Man They Love To Hate.wav

Pre-gap length 0:00:02.29

Peak level 92.6 %
Track quality 100.0 %
Test CRC 47745A6C
Copy CRC 47745A6C
Accurately ripped (confidence 4) [E69B7A1D]
Copy OK

Track 10

Filename H:\EAC Rips\The Stranglers\10 - Nuclear Device,Genetix.wav

Pre-gap length 0:00:01.96

Peak level 98.3 %
Track quality 100.0 %
Test CRC 10E30E9F
Copy CRC 10E30E9F
Accurately ripped (confidence 4) [A5D76ECB]
Copy OK

Track 11

Filename H:\EAC Rips\The Stranglers\11 - Down In The Sewer.wav

Pre-gap length 0:00:02.46

Peak level 90.8 %
Track quality 99.9 %
Test CRC 35A2DB1B
Copy CRC 35A2DB1B
Accurately ripped (confidence 4) [9FA4B306]
Copy OK


All tracks accurately ripped

No errors occurred

End of status report

Tracklist :::
01. Hanging Around (4:22)
02. I Feel Like A Wog (3:50)
03. Goodbye Toulouse (3:16)
04. Something Better Change (3:33)
05. Dead Ringer (2:38)
06. No More Heroes (3:13)
07. Burning Up Time (2:23)
08. Bring On The Nubiles (2:17)
09. The Man They Love To Hate (3:58)
10. Nuclear Device/Genetix (8:14)
11. Down In The Sewer (7:34)