Subcategories

The Trammps - This Is Where The Happy People Go: The Best Of The Trammps (1994)

Posted By: BlondStyle
The Trammps - This Is Where The Happy People Go: The Best Of The Trammps (1994)

The Trammps - This Is Where The Happy People Go: The Best Of The Trammps (1994)
R&B, Soul/Funk, Disco | EAC Rip | FLAC, Tracks+CUE+LOG+Scans (JPEG) | 01:16:05 | 559,87 Mb
Label: Rhino Records (USA) | Cat.# R2 71724 | Released: 1994-08-16
The Trammps - This Is Where The Happy People Go: The Best Of The Trammps (1994)

Due to all the great funk, R&B, and soul bands of the '70s, it's easy to overlook many of the lesser-known (but just as great) bands. Such is the case with the Trammps. Best known for their smash hit from the Saturday Night Fever Soundtrack, "Disco Inferno" (their only Top 20 appearance on the pop charts), the group had many other hits on the R&B charts, which were just as deserving of crossover success. Just about any track from the excellent This Is Where All the Happy People Go: The Best of the Trammps compilation is a solid example of '70s R&B at its finest and most expertly crafted. Many overlooked and forgotten gems reside here, such as "Hold Back the Night," "Trammps Disco Theme," "That's Where the Happy People Go," and "Zing Went the Strings of My Heart." Admittedly, the Trammps did seem to jump on the disco bandwagon, like so many other bands from this era, but the quality of the music never suffered. For a representation of some of the '70s most underrated dance music, The Best of the Trammps simply can't be beat.
~Review by Greg Prato

The Trammps - This Is Where The Happy People Go: The Best Of The Trammps (1994)

The Trammps - This Is Where The Happy People Go: The Best Of The Trammps (1994)




Release of this CD: 1994, August, 16 [CD Rhino Records (USA), Cat.# R2 71724, UPC: 081227172428]
This Compilation ℗&© 1994 Rhino Records, Inc.
Printed/Made in U.S.A.

The Trammps - This Is Where The Happy People Go: The Best Of The Trammps (1994)

Credits:

Co-producer – Bruce Gray, Ron "Have Mercy" Kersey, T.G. Conway
Compilation Producer – David McLees
Producer – Earl Young, Norman Harris, Ron Baker
Producer [Sound] – Bill Inglot


Tracklist:

01. Zing Went The Strings Of My Heart (03:21)
02. Pray All You Sinners (03:32)
03. Hold Back The Night (03:22)
04. Love Epidemic (04:53)
05. Where Do We Go From Here (03:47)
06. Trusting Heart (03:21)
07. Trammps Disco Theme (03:26)
08. Hooked For Life (03:00)
09. That's Where The Happy People Go (03:18)
10. Soul Searchin' Time (03:20)
11. Ninety-Nine And A Half (03:36)
12. Disco Party (08:12)
13. Disco Inferno (10:57)
14. I Feel Like I've Been Livin' (On The Dark Side Of The Moon) (03:28)
15. Body Contract (03:02)
16. The Night The Lights Went Out (03:27)
17. Seasons For Girls (03:46)
18. Soul Bones (04:17)

Exact Audio Copy V0.99 prebeta 5 from 4. May 2009

EAC extraction logfile from 21. January 2011, 13:16

The Trammps / The Best Of The Trammps

Used drive : HL-DT-STDVD-RAM GH22NP20 Adapter: 1 ID: 1

Read mode : Secure
Utilize accurate stream : Yes
Defeat audio cache : Yes
Make use of C2 pointers : No

Read offset correction : 102
Overread into Lead-In and Lead-Out : No
Fill up missing offset samples with silence : Yes
Delete leading and trailing silent blocks : No
Null samples used in CRC calculations : Yes
Used interface : Native Win32 interface for Win NT & 2000
Gap handling : Appended to previous track

Used output format : User Defined Encoder
Selected bitrate : 1024 kBit/s
Quality : High
Add ID3 tag : No
Command line compressor : C:\Program Files\Exact Audio Copy\FLAC\FLAC.EXE
Additional command line options : -5 -V -T "ARTIST=%a" -T "TITLE=%t" -T "ALBUM=%g" -T "DATE=%y" -T "TRACKNUMBER=%n" -T "GENRE=%m" -T "COMMENT=%e" %s -o %d


TOC of the extracted CD

Track | Start | Length | Start sector | End sector
––––––––––––––––––––––––––––-
1 | 0:00.32 | 3:21.08 | 32 | 15114
2 | 3:21.40 | 3:32.02 | 15115 | 31016
3 | 6:53.42 | 3:21.55 | 31017 | 46146
4 | 10:15.22 | 4:53.28 | 46147 | 68149
5 | 15:08.50 | 3:47.30 | 68150 | 85204
6 | 18:56.05 | 3:20.50 | 85205 | 100254
7 | 22:16.55 | 3:25.42 | 100255 | 115671
8 | 25:42.22 | 2:59.48 | 115672 | 129144
9 | 28:41.70 | 3:17.72 | 129145 | 143991
10 | 31:59.67 | 3:20.20 | 143992 | 159011
11 | 35:20.12 | 3:36.25 | 159012 | 175236
12 | 38:56.37 | 8:12.25 | 175237 | 212161
13 | 47:08.62 | 10:57.15 | 212162 | 261451
14 | 58:06.02 | 3:28.23 | 261452 | 277074
15 | 61:34.25 | 3:01.47 | 277075 | 290696
16 | 64:35.72 | 3:26.48 | 290697 | 306194
17 | 68:02.45 | 3:45.42 | 306195 | 323111
18 | 71:48.12 | 4:17.35 | 323112 | 342421


Track 1

Filename C:\New Folder\01. Zing Went The Strings Of My Heart.wav

Pre-gap length 0:00:02.42

Peak level 97.2 %
Track quality 100.0 %
Test CRC 22C5F177
Copy CRC 22C5F177
Accurately ripped (confidence 3) [FC7D853B]
Copy OK

Track 2

Filename C:\New Folder\02. Pray All You Sinners.wav

Pre-gap length 0:00:02.70

Peak level 97.2 %
Track quality 100.0 %
Test CRC 4336FE20
Copy CRC 4336FE20
Accurately ripped (confidence 3) [E96ED585]
Copy OK

Track 3

Filename C:\New Folder\03. Hold Back The Night.wav

Pre-gap length 0:00:02.00

Peak level 97.2 %
Track quality 100.0 %
Test CRC 22621B71
Copy CRC 22621B71
Accurately ripped (confidence 3) [CCD1CFA1]
Copy OK

Track 4

Filename C:\New Folder\04. Love Epidemic.wav

Pre-gap length 0:00:02.40

Peak level 94.6 %
Track quality 100.0 %
Test CRC 02B934AA
Copy CRC 02B934AA
Accurately ripped (confidence 3) [5EBE421C]
Copy OK

Track 5

Filename C:\New Folder\05. Where Do We Go From Here.wav

Pre-gap length 0:00:01.93

Peak level 94.6 %
Track quality 100.0 %
Test CRC 3E9DDC32
Copy CRC 3E9DDC32
Accurately ripped (confidence 3) [C73F6970]
Copy OK

Track 6

Filename C:\New Folder\06. Trusting Heart.wav

Pre-gap length 0:00:01.70

Peak level 97.2 %
Track quality 100.0 %
Test CRC 24A6CF21
Copy CRC 24A6CF21
Accurately ripped (confidence 3) [FB18792B]
Copy OK

Track 7

Filename C:\New Folder\07. Trammps Disco Theme.wav

Pre-gap length 0:00:02.57

Peak level 94.6 %
Track quality 99.9 %
Test CRC 02A920D9
Copy CRC 02A920D9
Accurately ripped (confidence 3) [0C98E9A7]
Copy OK

Track 8

Filename C:\New Folder\08. Hooked For Llife.wav

Pre-gap length 0:00:02.33

Peak level 97.2 %
Track quality 99.9 %
Test CRC 3C5D038F
Copy CRC 3C5D038F
Accurately ripped (confidence 3) [114B5315]
Copy OK

Track 9

Filename C:\New Folder\09. That's Where The Happy People Go.wav

Pre-gap length 0:00:02.06

Peak level 97.2 %
Track quality 100.0 %
Test CRC 9E9328F9
Copy CRC 9E9328F9
Accurately ripped (confidence 3) [4AA9B20F]
Copy OK

Track 10

Filename C:\New Folder\10. Soul Searchin' Time.wav

Pre-gap length 0:00:02.33

Peak level 97.2 %
Track quality 100.0 %
Test CRC EA23D451
Copy CRC EA23D451
Accurately ripped (confidence 3) [C9F87C96]
Copy OK

Track 11

Filename C:\New Folder\11. Ninety-Nine & A Half.wav

Pre-gap length 0:00:02.00

Peak level 97.2 %
Track quality 100.0 %
Test CRC 93CC2A70
Copy CRC 93CC2A70
Accurately ripped (confidence 3) [7CDFEB13]
Copy OK

Track 12

Filename C:\New Folder\12. Disco Party.wav

Pre-gap length 0:00:02.13

Peak level 97.2 %
Track quality 100.0 %
Test CRC D85D0BCE
Copy CRC D85D0BCE
Accurately ripped (confidence 3) [2242D62A]
Copy OK

Track 13

Filename C:\New Folder\13. Disco Inferno.wav

Pre-gap length 0:00:02.40

Peak level 97.2 %
Track quality 100.0 %
Test CRC 9DEA0EC4
Copy CRC 9DEA0EC4
Accurately ripped (confidence 3) [3ABF62BB]
Copy OK

Track 14

Filename C:\New Folder\14. I Feel Lke I've Been Livin' (On The Dark Side Of The Moon).wav

Pre-gap length 0:00:02.56

Peak level 97.2 %
Track quality 100.0 %
Test CRC 5606ACA4
Copy CRC 5606ACA4
Accurately ripped (confidence 2) [8296D05E]
Copy OK

Track 15

Filename C:\New Folder\15. Body Contact Contract.wav

Pre-gap length 0:00:02.44

Peak level 97.2 %
Track quality 99.9 %
Test CRC CF9EFE97
Copy CRC CF9EFE97
Accurately ripped (confidence 3) [22610560]
Copy OK

Track 16

Filename C:\New Folder\16. The Night The Lghts Went Out.wav

Pre-gap length 0:00:02.26

Peak level 97.2 %
Track quality 100.0 %
Test CRC 5F98DBB5
Copy CRC 5F98DBB5
Accurately ripped (confidence 2) [4EA44B92]
Copy OK

Track 17

Filename C:\New Folder\17. Seasons For Girls.wav

Pre-gap length 0:00:02.44

Peak level 97.2 %
Track quality 100.0 %
Test CRC 9C67FFF5
Copy CRC 9C67FFF5
Accurately ripped (confidence 2) [E1795875]
Copy OK

Track 18

Filename C:\New Folder\18. Soul Bones.wav

Pre-gap length 0:00:02.42

Peak level 97.2 %
Track quality 100.0 %
Test CRC 9F54AE23
Copy CRC 9F54AE23
Accurately ripped (confidence 2) [55A0AD08]
Copy OK


All tracks accurately ripped

No errors occurred

End of status report

––––––––––––––––––––––––––––––––––––––––
Analyzed: The Trammps / The Best Of The Trammps
––––––––––––––––––––––––––––––––––––––––

DR Peak RMS Duration Track
––––––––––––––––––––––––––––––––––––––––
DR10 -0.24 dB -12.28 dB 3:21 01-Zing Went The Strings Of My Heart
DR12 -0.24 dB -14.34 dB 3:32 02-Pray All You Sinners
DR9 -0.24 dB -10.68 dB 3:22 03-Hold Back The Night
DR12 -0.48 dB -14.13 dB 4:53 04-Love Epidemic
DR12 -0.48 dB -14.93 dB 3:47 05-Where Do We Go From Here
DR11 -0.24 dB -13.01 dB 3:21 06-Trusting Heart
DR12 -0.48 dB -13.99 dB 3:26 07-Trammps Disco Theme
DR9 -0.24 dB -11.09 dB 3:00 08-Hooked For Llife
DR8 -0.24 dB -9.82 dB 3:18 09-That's Where The Happy People Go
DR12 -0.24 dB -14.65 dB 3:20 10-Soul Searchin' Time
DR10 -0.24 dB -11.53 dB 3:36 11-Ninety-Nine & A Half
DR8 -0.24 dB -9.95 dB 8:12 12-Disco Party
DR11 -0.24 dB -12.80 dB 10:57 13-Disco Inferno
DR11 -0.24 dB -13.99 dB 3:28 14-I Feel Lke I've Been Livin' (On The Dark Side Of The Moon)
DR9 -0.24 dB -10.70 dB 3:02 15-Body Contact Contract
DR8 -0.24 dB -10.40 dB 3:27 16-The Night The Lghts Went Out
DR10 -0.24 dB -12.96 dB 3:46 17-Seasons For Girls
DR12 -0.24 dB -13.44 dB 4:17 18-Soul Bones
––––––––––––––––––––––––––––––––––––––––

Number of tracks: 18
Official DR value: DR10

Samplerate: 44100 Hz
Channels: 2
Bits per sample: 16
Bitrate: 878 kbps
Codec: FLAC
================================================================================

Thanks to original releaser

♫~Welcome To My Blog~♫

password: BlondStyle