Tags
Language
Tags
February 2024
Su Mo Tu We Th Fr Sa
28 29 30 31 1 2 3
4 5 6 7 8 9 10
11 12 13 14 15 16 17
18 19 20 21 22 23 24
25 26 27 28 29 1 2
Attention❗ To save your time, in order to download anything on this site, you must be registered 👉 HERE. If you do not have a registration yet, it is better to do it right away. ✌

( • )( • ) ( ͡⚆ ͜ʖ ͡⚆ ) (‿ˠ‿)
SpicyMags.xyz

The Wedding Present - The Hit Parade [Expanded Edition] (2014)

Posted By: JET 1
The Wedding Present - The Hit Parade [Expanded Edition] (2014)

The Wedding Present - The Hit Parade [Expanded Edition] (2014)
EAC Rip | FLAC (Tracks) +CUE, LOG | 1.54 GB
Genre: Alternative, Indie Rock | Label: Edsel Records | Catalog Number: EDSJ 9007

The Wedding Present have been unanimously despised by the British music press following a brief honeymoon period in the mid-'80s. When they announced their desire to issue a single a month for a whole year, one particularly caustic Melody Maker journalist pointed out that she now had two low spots in her monthly cycle to endure. It must also be said that RCA were not too enamored of the projected release schedule when David Gedge first put his idea to them. For many, though – including discerning onlookers like long-standing friend and supporter John Peel – The Wedding Present's single-a-month blitz in 1992 was one of the highlights of that year. The band were at their peak: They'd just recorded their best record, Seamonsters, with Steve Albini, and they were beginning to stretch their sound beyond the coy romanticism of old. However, the real joy of the singles – good as they were – was Gedge's esoteric choices for B-sides, including the Go-Betweens' "Cattle and Cane," Altered Images' "Think That It Might" (Gedge was a huge fan of their overlooked Bite album), and the Monkees' "Pleasant Valley Sunday." Diverting, original, and great fun.
THE WEDDING PRESENT The Hit Parade (2014 UK Expanded Edition 4-disc [3CD/1DVD] set including the 12 Hit Parade singles together sequenced in order chronologically for the first time, bonus tracks, extensive BBC sessions and a live concert recording plus music videos, alternate video takes, Top Of The Pops performances and a new acoustic performance of 'The Queen Of Outer Space' plus an interview with David Gedge discussing the project.

Exact Audio Copy V1.0 beta 3 from 29. August 2011

EAC extraction logfile from 12. November 2014, 11:40

The Wedding Present / The Hit Parade

Used drive : SONY DVD RW DRU-840A Adapter: 2 ID: 0

Read mode : Secure
Utilize accurate stream : Yes
Defeat audio cache : Yes
Make use of C2 pointers : No

Read offset correction : 6
Overread into Lead-In and Lead-Out : No
Fill up missing offset samples with silence : Yes
Delete leading and trailing silent blocks : No
Null samples used in CRC calculations : Yes
Used interface : Native Win32 interface for Win NT & 2000
Gap handling : Appended to previous track

Used output format : User Defined Encoder
Selected bitrate : 1024 kBit/s
Quality : High
Add ID3 tag : No
Command line compressor : C:\Program Files\Exact Audio Copy\FLAC\FLAC.EXE
Additional command line options : -8 -V -T "ARTIST=%artist%" -T "TITLE=%title%" -T "ALBUM=%albumtitle%" -T "DATE=%year%" -T "TRACKNUMBER=%tracknr%" -T "GENRE=%genre%" -T "PERFORMER=%albuminterpret%" -T "COMPOSER=%composer%" %haslyrics%–tag-from-file=LYRICS="%lyricsfile%"%haslyrics% -T "ALBUMARTIST=%albumartist%" -T "DISCNUMBER=%cdnumber%" -T "TOTALDISCS=%totalcds%" -T "TOTALTRACKS=%numtracks%" -T "COMMENT=%comment%" %source% -o %dest%


TOC of the extracted CD

Track | Start | Length | Start sector | End sector
––––––––––––––––––––––––––––-
1 | 0:00.00 | 2:54.60 | 0 | 13109
2 | 2:54.60 | 3:04.66 | 13110 | 26975
3 | 5:59.51 | 2:46.66 | 26976 | 39491
4 | 8:46.42 | 2:31.40 | 39492 | 50856
5 | 11:18.07 | 2:30.52 | 50857 | 62158
6 | 13:48.59 | 2:40.70 | 62159 | 74228
7 | 16:29.54 | 3:22.74 | 74229 | 89452
8 | 19:52.53 | 5:55.46 | 89453 | 116123
9 | 25:48.24 | 4:33.74 | 116124 | 136672
10 | 30:22.23 | 4:43.71 | 136673 | 157968
11 | 35:06.19 | 3:11.40 | 157969 | 172333
12 | 38:17.59 | 3:35.13 | 172334 | 188471
13 | 41:52.72 | 4:51.49 | 188472 | 210345
14 | 46:44.46 | 3:28.28 | 210346 | 225973
15 | 50:12.74 | 3:46.20 | 225974 | 242943
16 | 53:59.19 | 3:17.69 | 242944 | 257787
17 | 57:17.13 | 3:11.41 | 257788 | 272153
18 | 60:28.54 | 2:27.59 | 272154 | 283237
19 | 62:56.38 | 3:03.58 | 283238 | 297020
20 | 66:00.21 | 2:28.05 | 297021 | 308125
21 | 68:28.26 | 2:55.39 | 308126 | 321289
22 | 71:23.65 | 1:01.46 | 321290 | 325910


Track 1

Filename C:\Users\dewey\Dropbox\FLAC\The Wedding Present - The Hit Parade (2014) [FLAC]\Disc 1\01 - Blue Eyes.wav

Pre-gap length 0:00:02.00

Peak level 97.0 %
Extraction speed 4.2 X
Track quality 100.0 %
Test CRC 132DCF72
Copy CRC 132DCF72
Track not present in AccurateRip database
Copy OK

Track 2

Filename C:\Users\dewey\Dropbox\FLAC\The Wedding Present - The Hit Parade (2014) [FLAC]\Disc 1\02 - Cattle And Cane.wav

Pre-gap length 0:00:01.58

Peak level 97.0 %
Extraction speed 4.6 X
Track quality 100.0 %
Test CRC ED011AC9
Copy CRC ED011AC9
Track not present in AccurateRip database
Copy OK

Track 3

Filename C:\Users\dewey\Dropbox\FLAC\The Wedding Present - The Hit Parade (2014) [FLAC]\Disc 1\03 - Go-Go Dancer.wav

Pre-gap length 0:00:01.58

Peak level 97.0 %
Extraction speed 4.8 X
Track quality 100.0 %
Test CRC 0B69E137
Copy CRC 0B69E137
Track not present in AccurateRip database
Copy OK

Track 4

Filename C:\Users\dewey\Dropbox\FLAC\The Wedding Present - The Hit Parade (2014) [FLAC]\Disc 1\04 - Don't Cry No Tears.wav

Pre-gap length 0:00:01.58

Peak level 97.0 %
Extraction speed 4.9 X
Track quality 100.0 %
Test CRC 97A8F66A
Copy CRC 97A8F66A
Track not present in AccurateRip database
Copy OK

Track 5

Filename C:\Users\dewey\Dropbox\FLAC\The Wedding Present - The Hit Parade (2014) [FLAC]\Disc 1\05 - Three.wav

Pre-gap length 0:00:01.58

Peak level 97.0 %
Extraction speed 3.9 X
Track quality 99.9 %
Test CRC 996BB35E
Copy CRC 996BB35E
Track not present in AccurateRip database
Copy OK

Track 6

Filename C:\Users\dewey\Dropbox\FLAC\The Wedding Present - The Hit Parade (2014) [FLAC]\Disc 1\06 - Think That It Might.wav

Pre-gap length 0:00:01.58

Peak level 97.0 %
Extraction speed 5.4 X
Track quality 100.0 %
Test CRC FF33A214
Copy CRC FF33A214
Track not present in AccurateRip database
Copy OK

Track 7

Filename C:\Users\dewey\Dropbox\FLAC\The Wedding Present - The Hit Parade (2014) [FLAC]\Disc 1\07 - Silver Shorts.wav

Pre-gap length 0:00:01.58

Peak level 97.0 %
Extraction speed 5.9 X
Track quality 100.0 %
Test CRC 536D512F
Copy CRC 536D512F
Track not present in AccurateRip database
Copy OK

Track 8

Filename C:\Users\dewey\Dropbox\FLAC\The Wedding Present - The Hit Parade (2014) [FLAC]\Disc 1\08 - Falling.wav

Pre-gap length 0:00:01.58

Peak level 97.0 %
Extraction speed 6.7 X
Track quality 100.0 %
Test CRC FB1E3E7C
Copy CRC FB1E3E7C
Track not present in AccurateRip database
Copy OK

Track 9

Filename C:\Users\dewey\Dropbox\FLAC\The Wedding Present - The Hit Parade (2014) [FLAC]\Disc 1\09 - Come Play With Me.wav

Pre-gap length 0:00:01.58

Peak level 97.0 %
Extraction speed 6.1 X
Track quality 100.0 %
Test CRC CD1C0695
Copy CRC CD1C0695
Track not present in AccurateRip database
Copy OK

Track 10

Filename C:\Users\dewey\Dropbox\FLAC\The Wedding Present - The Hit Parade (2014) [FLAC]\Disc 1\10 - Pleasant Valley Sunday.wav

Pre-gap length 0:00:01.58

Peak level 97.0 %
Extraction speed 7.0 X
Track quality 100.0 %
Test CRC 08BF6390
Copy CRC 08BF6390
Track not present in AccurateRip database
Copy OK

Track 11

Filename C:\Users\dewey\Dropbox\FLAC\The Wedding Present - The Hit Parade (2014) [FLAC]\Disc 1\11 - California.wav

Pre-gap length 0:00:01.58

Peak level 97.0 %
Extraction speed 5.1 X
Track quality 99.9 %
Test CRC 83BE6A74
Copy CRC 83BE6A74
Track not present in AccurateRip database
Copy OK

Track 12

Filename C:\Users\dewey\Dropbox\FLAC\The Wedding Present - The Hit Parade (2014) [FLAC]\Disc 1\12 - Let's Make Some Plans.wav

Pre-gap length 0:00:01.58

Peak level 97.0 %
Extraction speed 7.3 X
Track quality 100.0 %
Test CRC 0022D282
Copy CRC 0022D282
Track not present in AccurateRip database
Copy OK

Track 13

Filename C:\Users\dewey\Dropbox\FLAC\The Wedding Present - The Hit Parade (2014) [FLAC]\Disc 1\13 - Flying Saucer.wav

Pre-gap length 0:00:01.58

Peak level 97.0 %
Extraction speed 7.4 X
Track quality 100.0 %
Test CRC 45F57AAE
Copy CRC 45F57AAE
Track not present in AccurateRip database
Copy OK

Track 14

Filename C:\Users\dewey\Dropbox\FLAC\The Wedding Present - The Hit Parade (2014) [FLAC]\Disc 1\14 - Rocket.wav

Pre-gap length 0:00:01.58

Peak level 97.0 %
Extraction speed 7.2 X
Track quality 100.0 %
Test CRC 24C7BC7E
Copy CRC 24C7BC7E
Track not present in AccurateRip database
Copy OK

Track 15

Filename C:\Users\dewey\Dropbox\FLAC\The Wedding Present - The Hit Parade (2014) [FLAC]\Disc 1\15 - Boing! (7'' Version).wav

Pre-gap length 0:00:01.58

Peak level 97.0 %
Extraction speed 7.6 X
Track quality 100.0 %
Test CRC FEC16B53
Copy CRC FEC16B53
Track not present in AccurateRip database
Copy OK

Track 16

Filename C:\Users\dewey\Dropbox\FLAC\The Wedding Present - The Hit Parade (2014) [FLAC]\Disc 1\16 - Theme From Shaft.wav

Pre-gap length 0:00:03.21

Peak level 97.0 %
Extraction speed 8.1 X
Track quality 100.0 %
Test CRC 52DE6658
Copy CRC 52DE6658
Track not present in AccurateRip database
Copy OK

Track 17

Filename C:\Users\dewey\Dropbox\FLAC\The Wedding Present - The Hit Parade (2014) [FLAC]\Disc 1\17 - Loveslave.wav

Pre-gap length 0:00:01.58

Peak level 97.0 %
Extraction speed 5.6 X
Track quality 99.9 %
Test CRC 45BF4BF7
Copy CRC 45BF4BF7
Track not present in AccurateRip database
Copy OK

Track 18

Filename C:\Users\dewey\Dropbox\FLAC\The Wedding Present - The Hit Parade (2014) [FLAC]\Disc 1\18 - Chant Of The Ever Circling Skeletal Family.wav

Pre-gap length 0:00:01.58

Peak level 97.0 %
Extraction speed 5.6 X
Track quality 100.0 %
Test CRC 0E75DB73
Copy CRC 0E75DB73
Track not present in AccurateRip database
Copy OK

Track 19

Filename C:\Users\dewey\Dropbox\FLAC\The Wedding Present - The Hit Parade (2014) [FLAC]\Disc 1\19 - Sticky.wav

Pre-gap length 0:00:01.58

Peak level 97.0 %
Extraction speed 7.7 X
Track quality 100.0 %
Test CRC 6FCB49A7
Copy CRC 6FCB49A7
Track not present in AccurateRip database
Copy OK

Track 20

Filename C:\Users\dewey\Dropbox\FLAC\The Wedding Present - The Hit Parade (2014) [FLAC]\Disc 1\20 - Go Wild In The Country.wav

Pre-gap length 0:00:01.58

Peak level 97.0 %
Extraction speed 6.0 X
Track quality 99.9 %
Test CRC 43894645
Copy CRC 43894645
Track not present in AccurateRip database
Copy OK

Track 21

Filename C:\Users\dewey\Dropbox\FLAC\The Wedding Present - The Hit Parade (2014) [FLAC]\Disc 1\21 - The Queen Of Outer Space.wav

Pre-gap length 0:00:01.57

Peak level 97.0 %
Extraction speed 8.5 X
Track quality 100.0 %
Test CRC 20833EA4
Copy CRC 20833EA4
Track not present in AccurateRip database
Copy OK

Track 22

Filename C:\Users\dewey\Dropbox\FLAC\The Wedding Present - The Hit Parade (2014) [FLAC]\Disc 1\22 - U.F.O..wav

Pre-gap length 0:00:01.58

Peak level 97.0 %
Extraction speed 6.5 X
Track quality 100.0 %
Test CRC 86BE962D
Copy CRC 86BE962D
Track not present in AccurateRip database
Copy OK


None of the tracks are present in the AccurateRip database

No errors occurred

End of status report

–– CUETools DB Plugin V2.1.3

[CTDB TOCID: 1T8Qk64dRlMGDZ.hBdazD4gHD6I-] disk not present in database, Submit result: 1T8Qk64dRlMGDZ.hBdazD4gHD6I- has been uploaded


==== Log checksum F05B3160A48EF99BFB9A798969C18580CCB92FBDA605CFA1B6F0B65B496465EC ====

Exact Audio Copy V1.0 beta 3 from 29. August 2011

EAC extraction logfile from 12. November 2014, 12:57

The Wedding Present / The Hit Parade

Used drive : SONY DVD RW DRU-840A Adapter: 2 ID: 0

Read mode : Secure
Utilize accurate stream : Yes
Defeat audio cache : Yes
Make use of C2 pointers : No

Read offset correction : 6
Overread into Lead-In and Lead-Out : No
Fill up missing offset samples with silence : Yes
Delete leading and trailing silent blocks : No
Null samples used in CRC calculations : Yes
Used interface : Native Win32 interface for Win NT & 2000
Gap handling : Appended to previous track

Used output format : User Defined Encoder
Selected bitrate : 1024 kBit/s
Quality : High
Add ID3 tag : No
Command line compressor : C:\Program Files\Exact Audio Copy\FLAC\FLAC.EXE
Additional command line options : -8 -V -T "ARTIST=%artist%" -T "TITLE=%title%" -T "ALBUM=%albumtitle%" -T "DATE=%year%" -T "TRACKNUMBER=%tracknr%" -T "GENRE=%genre%" -T "PERFORMER=%albuminterpret%" -T "COMPOSER=%composer%" %haslyrics%–tag-from-file=LYRICS="%lyricsfile%"%haslyrics% -T "ALBUMARTIST=%albumartist%" -T "DISCNUMBER=%cdnumber%" -T "TOTALDISCS=%totalcds%" -T "TOTALTRACKS=%numtracks%" -T "COMMENT=%comment%" %source% -o %dest%


TOC of the extracted CD

Track | Start | Length | Start sector | End sector
––––––––––––––––––––––––––––-
1 | 0:00.00 | 4:37.66 | 0 | 20840
2 | 4:37.66 | 4:46.64 | 20841 | 42354
3 | 9:24.55 | 3:45.06 | 42355 | 59235
4 | 13:09.61 | 2:54.28 | 59236 | 72313
5 | 16:04.14 | 1:33.11 | 72314 | 79299
6 | 17:37.25 | 3:16.63 | 79300 | 94062
7 | 20:54.13 | 3:01.08 | 94063 | 107645
8 | 23:55.21 | 4:46.32 | 107646 | 129127
9 | 28:41.53 | 3:16.14 | 129128 | 143841
10 | 31:57.67 | 4:25.48 | 143842 | 163764
11 | 36:23.40 | 3:06.25 | 163765 | 177739
12 | 39:29.65 | 3:25.28 | 177740 | 193142
13 | 42:55.18 | 3:10.69 | 193143 | 207461
14 | 46:06.12 | 2:52.30 | 207462 | 220391
15 | 48:58.42 | 3:01.44 | 220392 | 234010
16 | 52:00.11 | 3:02.49 | 234011 | 247709
17 | 55:02.60 | 2:31.54 | 247710 | 259088
18 | 57:34.39 | 3:28.23 | 259089 | 274711
19 | 61:02.62 | 3:19.53 | 274712 | 289689
20 | 64:22.40 | 4:56.03 | 289690 | 311892
21 | 69:18.43 | 3:54.31 | 311893 | 329473
22 | 73:12.74 | 3:07.15 | 329474 | 343513


Track 1

Filename C:\Users\dewey\Dropbox\FLAC\The Wedding Present - The Hit Parade (2014) [FLAC]\Disc 2\01 - No Christmas.wav

Pre-gap length 0:00:02.00

Peak level 97.0 %
Extraction speed 3.9 X
Track quality 99.9 %
Test CRC 7FAFFAB7
Copy CRC 7FAFFAB7
Track not present in AccurateRip database
Copy OK

Track 2

Filename C:\Users\dewey\Dropbox\FLAC\The Wedding Present - The Hit Parade (2014) [FLAC]\Disc 2\02 - Step Into Christmas.wav

Pre-gap length 0:00:01.58

Peak level 97.0 %
Extraction speed 4.0 X
Track quality 99.9 %
Test CRC 51EF614F
Copy CRC 51EF614F
Track not present in AccurateRip database
Copy OK

Track 3

Filename C:\Users\dewey\Dropbox\FLAC\The Wedding Present - The Hit Parade (2014) [FLAC]\Disc 2\03 - Boing! (Album Version).wav

Pre-gap length 0:00:01.58

Peak level 86.8 %
Extraction speed 4.1 X
Track quality 99.9 %
Test CRC 1BCEB9E0
Copy CRC 1BCEB9E0
Track not present in AccurateRip database
Copy OK

Track 4

Filename C:\Users\dewey\Dropbox\FLAC\The Wedding Present - The Hit Parade (2014) [FLAC]\Disc 2\04 - Blue Eyes (Radio Remix).wav

Pre-gap length 0:00:01.57

Peak level 97.0 %
Extraction speed 5.2 X
Track quality 100.0 %
Test CRC 35FD81F8
Copy CRC 35FD81F8
Track not present in AccurateRip database
Copy OK

Track 5

Filename C:\Users\dewey\Dropbox\FLAC\The Wedding Present - The Hit Parade (2014) [FLAC]\Disc 2\05 - Cumberland Gap.wav

Pre-gap length 0:00:02.54

Peak level 97.0 %
Extraction speed 3.8 X
Track quality 100.0 %
Test CRC 0525863E
Copy CRC 0525863E
Track not present in AccurateRip database
Copy OK

Track 6

Filename C:\Users\dewey\Dropbox\FLAC\The Wedding Present - The Hit Parade (2014) [FLAC]\Disc 2\06 - Signal.wav

Pre-gap length 0:00:01.58

Peak level 97.0 %
Extraction speed 4.5 X
Track quality 99.9 %
Test CRC 9F627617
Copy CRC 9F627617
Track not present in AccurateRip database
Copy OK

Track 7

Filename C:\Users\dewey\Dropbox\FLAC\The Wedding Present - The Hit Parade (2014) [FLAC]\Disc 2\07 - California.wav

Pre-gap length 0:00:01.58

Peak level 97.0 %
Extraction speed 5.6 X
Track quality 100.0 %
Test CRC 892E46EA
Copy CRC 892E46EA
Track not present in AccurateRip database
Copy OK

Track 8

Filename C:\Users\dewey\Dropbox\FLAC\The Wedding Present - The Hit Parade (2014) [FLAC]\Disc 2\08 - Flying Saucer.wav

Pre-gap length 0:00:01.58

Peak level 97.0 %
Extraction speed 5.7 X
Track quality 100.0 %
Test CRC 464F73C7
Copy CRC 464F73C7
Track not present in AccurateRip database
Copy OK

Track 9

Filename C:\Users\dewey\Dropbox\FLAC\The Wedding Present - The Hit Parade (2014) [FLAC]\Disc 2\09 - Softly Softly.wav

Pre-gap length 0:00:01.58

Peak level 97.0 %
Extraction speed 4.5 X
Track quality 99.9 %
Test CRC 4C0D0B9D
Copy CRC 4C0D0B9D
Track not present in AccurateRip database
Copy OK

Track 10

Filename C:\Users\dewey\Dropbox\FLAC\The Wedding Present - The Hit Parade (2014) [FLAC]\Disc 2\10 - Come Play With Me.wav

Pre-gap length 0:00:01.58

Peak level 97.0 %
Extraction speed 6.0 X
Track quality 100.0 %
Test CRC B0E90690
Copy CRC B0E90690
Track not present in AccurateRip database
Copy OK

Track 11

Filename C:\Users\dewey\Dropbox\FLAC\The Wedding Present - The Hit Parade (2014) [FLAC]\Disc 2\11 - Sticky.wav

Pre-gap length 0:00:01.58

Peak level 97.0 %
Extraction speed 6.6 X
Track quality 100.0 %
Test CRC A9EA3DED
Copy CRC A9EA3DED
Track not present in AccurateRip database
Copy OK

Track 12

Filename C:\Users\dewey\Dropbox\FLAC\The Wedding Present - The Hit Parade (2014) [FLAC]\Disc 2\12 - No Christmas (Instrumental Version).wav

Pre-gap length 0:00:01.58

Peak level 97.0 %
Extraction speed 7.1 X
Track quality 100.0 %
Test CRC 2F2D735E
Copy CRC 2F2D735E
Track not present in AccurateRip database
Copy OK

Track 13

Filename C:\Users\dewey\Dropbox\FLAC\The Wedding Present - The Hit Parade (2014) [FLAC]\Disc 2\13 - Loveslave.wav

Pre-gap length 0:00:01.58

Peak level 97.0 %
Extraction speed 5.0 X
Track quality 99.9 %
Test CRC 7C7D6D89
Copy CRC 7C7D6D89
Track not present in AccurateRip database
Copy OK

Track 14

Filename C:\Users\dewey\Dropbox\FLAC\The Wedding Present - The Hit Parade (2014) [FLAC]\Disc 2\14 - The Queen Of Outer Space.wav

Pre-gap length 0:00:01.58

Peak level 94.1 %
Extraction speed 7.4 X
Track quality 100.0 %
Test CRC C67C3CCE
Copy CRC C67C3CCE
Track not present in AccurateRip database
Copy OK

Track 15

Filename C:\Users\dewey\Dropbox\FLAC\The Wedding Present - The Hit Parade (2014) [FLAC]\Disc 2\15 - Blue Eyes.wav

Pre-gap length 0:00:01.58

Peak level 97.0 %
Extraction speed 6.0 X
Track quality 99.9 %
Test CRC C4D43169
Copy CRC C4D43169
Track not present in AccurateRip database
Copy OK

Track 16

Filename C:\Users\dewey\Dropbox\FLAC\The Wedding Present - The Hit Parade (2014) [FLAC]\Disc 2\16 - Go-Go Dancer.wav

Pre-gap length 0:00:01.58

Peak level 97.0 %
Extraction speed 7.2 X
Track quality 100.0 %
Test CRC 9348B814
Copy CRC 9348B814
Track not present in AccurateRip database
Copy OK

Track 17

Filename C:\Users\dewey\Dropbox\FLAC\The Wedding Present - The Hit Parade (2014) [FLAC]\Disc 2\17 - Three.wav

Pre-gap length 0:00:01.58

Peak level 97.0 %
Extraction speed 5.6 X
Track quality 99.9 %
Test CRC C6347E17
Copy CRC C6347E17
Track not present in AccurateRip database
Copy OK

Track 18

Filename C:\Users\dewey\Dropbox\FLAC\The Wedding Present - The Hit Parade (2014) [FLAC]\Disc 2\18 - Silver Shorts.wav

Pre-gap length 0:00:01.58

Peak level 97.0 %
Extraction speed 7.2 X
Track quality 100.0 %
Test CRC B700AA75
Copy CRC B700AA75
Track not present in AccurateRip database
Copy OK

Track 19

Filename C:\Users\dewey\Dropbox\FLAC\The Wedding Present - The Hit Parade (2014) [FLAC]\Disc 2\19 - Silver Shorts.wav

Pre-gap length 0:00:01.57

Peak level 97.0 %
Extraction speed 7.1 X
Track quality 100.0 %
Test CRC 63F99119
Copy CRC 63F99119
Track not present in AccurateRip database
Copy OK

Track 20

Filename C:\Users\dewey\Dropbox\FLAC\The Wedding Present - The Hit Parade (2014) [FLAC]\Disc 2\20 - Flying Saucer.wav

Pre-gap length 0:00:04.28

Peak level 97.0 %
Extraction speed 8.6 X
Track quality 100.0 %
Test CRC F08990D1
Copy CRC F08990D1
Track not present in AccurateRip database
Copy OK

Track 21

Filename C:\Users\dewey\Dropbox\FLAC\The Wedding Present - The Hit Parade (2014) [FLAC]\Disc 2\21 - Boing!.wav

Pre-gap length 0:00:01.58

Peak level 80.7 %
Extraction speed 9.1 X
Track quality 100.0 %
Test CRC 09532F7C
Copy CRC 09532F7C
Track not present in AccurateRip database
Copy OK

Track 22

Filename C:\Users\dewey\Dropbox\FLAC\The Wedding Present - The Hit Parade (2014) [FLAC]\Disc 2\22 - California.wav

Pre-gap length 0:00:02.54

Peak level 97.0 %
Extraction speed 9.0 X
Track quality 100.0 %
Test CRC 512DDD82
Copy CRC 512DDD82
Track not present in AccurateRip database
Copy OK


None of the tracks are present in the AccurateRip database

No errors occurred

End of status report

–– CUETools DB Plugin V2.1.3

[CTDB TOCID: HBQ9hrh.dH2KxBKgFNFdpr50Txc-] disk not present in database, Submit result: HBQ9hrh.dH2KxBKgFNFdpr50Txc- has been uploaded


==== Log checksum A0FAAA28F0C6245AE1973B40AEB4B66B45C5245282953FD1D3D069EC1A4376E8 ====

Exact Audio Copy V1.0 beta 3 from 29. August 2011

EAC extraction logfile from 12. November 2014, 13:45

The Wedding Present / The Hit Parade

Used drive : SONY DVD RW DRU-840A Adapter: 2 ID: 0

Read mode : Secure
Utilize accurate stream : Yes
Defeat audio cache : Yes
Make use of C2 pointers : No

Read offset correction : 6
Overread into Lead-In and Lead-Out : No
Fill up missing offset samples with silence : Yes
Delete leading and trailing silent blocks : No
Null samples used in CRC calculations : Yes
Used interface : Native Win32 interface for Win NT & 2000
Gap handling : Appended to previous track

Used output format : User Defined Encoder
Selected bitrate : 1024 kBit/s
Quality : High
Add ID3 tag : No
Command line compressor : C:\Program Files\Exact Audio Copy\FLAC\FLAC.EXE
Additional command line options : -8 -V -T "ARTIST=%artist%" -T "TITLE=%title%" -T "ALBUM=%albumtitle%" -T "DATE=%year%" -T "TRACKNUMBER=%tracknr%" -T "GENRE=%genre%" -T "PERFORMER=%albuminterpret%" -T "COMPOSER=%composer%" %haslyrics%–tag-from-file=LYRICS="%lyricsfile%"%haslyrics% -T "ALBUMARTIST=%albumartist%" -T "DISCNUMBER=%cdnumber%" -T "TOTALDISCS=%totalcds%" -T "TOTALTRACKS=%numtracks%" -T "COMMENT=%comment%" %source% -o %dest%


TOC of the extracted CD

Track | Start | Length | Start sector | End sector
––––––––––––––––––––––––––––-
1 | 0:00.00 | 4:00.50 | 0 | 18049
2 | 4:00.50 | 2:26.56 | 18050 | 29055
3 | 6:27.31 | 3:47.72 | 29056 | 46152
4 | 10:15.28 | 2:38.51 | 46153 | 58053
5 | 12:54.04 | 2:57.72 | 58054 | 71400
6 | 15:52.01 | 4:50.58 | 71401 | 93208
7 | 20:42.59 | 4:23.11 | 93209 | 112944
8 | 25:05.70 | 3:52.49 | 112945 | 130393
9 | 28:58.44 | 3:17.05 | 130394 | 145173
10 | 32:15.49 | 3:33.44 | 145174 | 161192
11 | 35:49.18 | 3:01.13 | 161193 | 174780
12 | 38:50.31 | 6:45.68 | 174781 | 205223
13 | 45:36.24 | 2:45.54 | 205224 | 217652
14 | 48:22.03 | 3:14.07 | 217653 | 232209
15 | 51:36.10 | 3:28.72 | 232210 | 247881
16 | 55:05.07 | 4:11.22 | 247882 | 266728
17 | 59:16.29 | 4:16.60 | 266729 | 285988
18 | 63:33.14 | 3:24.30 | 285989 | 301318
19 | 66:57.44 | 3:29.62 | 301319 | 317055
20 | 70:27.31 | 4:32.19 | 317056 | 337474
21 | 74:59.50 | 4:50.49 | 337475 | 359273


Track 1

Filename C:\Users\dewey\Dropbox\FLAC\The Wedding Present - The Hit Parade (2014) [FLAC]\Disc 3\01 - Boing!.wav

Pre-gap length 0:00:02.00

Peak level 97.7 %
Extraction speed 3.9 X
Track quality 99.9 %
Test CRC FC469343
Copy CRC FC469343
Track not present in AccurateRip database
Copy OK

Track 2

Filename C:\Users\dewey\Dropbox\FLAC\The Wedding Present - The Hit Parade (2014) [FLAC]\Disc 3\02 - Go-Go Dancer.wav

Peak level 97.7 %
Extraction speed 3.5 X
Track quality 99.9 %
Test CRC A5829D2F
Copy CRC A5829D2F
Track not present in AccurateRip database
Copy OK

Track 3

Filename C:\Users\dewey\Dropbox\FLAC\The Wedding Present - The Hit Parade (2014) [FLAC]\Disc 3\03 - Lovenest.wav

Peak level 97.7 %
Extraction speed 5.4 X
Track quality 100.0 %
Test CRC 8B33CE44
Copy CRC 8B33CE44
Track not present in AccurateRip database
Copy OK

Track 4

Filename C:\Users\dewey\Dropbox\FLAC\The Wedding Present - The Hit Parade (2014) [FLAC]\Disc 3\04 - Three.wav

Peak level 97.7 %
Extraction speed 4.1 X
Track quality 99.9 %
Test CRC 064F0436
Copy CRC 064F0436
Track not present in AccurateRip database
Copy OK

Track 5

Filename C:\Users\dewey\Dropbox\FLAC\The Wedding Present - The Hit Parade (2014) [FLAC]\Disc 3\05 - Blue Eyes.wav

Peak level 97.7 %
Extraction speed 4.4 X
Track quality 99.9 %
Test CRC 2C3B73A3
Copy CRC 2C3B73A3
Track not present in AccurateRip database
Copy OK

Track 6

Filename C:\Users\dewey\Dropbox\FLAC\The Wedding Present - The Hit Parade (2014) [FLAC]\Disc 3\06 - Blonde.wav

Peak level 97.7 %
Extraction speed 6.5 X
Track quality 100.0 %
Test CRC 382AB80A
Copy CRC 382AB80A
Track not present in AccurateRip database
Copy OK

Track 7

Filename C:\Users\dewey\Dropbox\FLAC\The Wedding Present - The Hit Parade (2014) [FLAC]\Disc 3\07 - Kennedy.wav

Peak level 97.7 %
Extraction speed 6.7 X
Track quality 100.0 %
Test CRC B2080EC3
Copy CRC B2080EC3
Track not present in AccurateRip database
Copy OK

Track 8

Filename C:\Users\dewey\Dropbox\FLAC\The Wedding Present - The Hit Parade (2014) [FLAC]\Disc 3\08 - Suck.wav

Peak level 97.7 %
Extraction speed 6.9 X
Track quality 100.0 %
Test CRC 38F79371
Copy CRC 38F79371
Track not present in AccurateRip database
Copy OK

Track 9

Filename C:\Users\dewey\Dropbox\FLAC\The Wedding Present - The Hit Parade (2014) [FLAC]\Disc 3\09 - Loveslave.wav

Peak level 97.7 %
Extraction speed 6.9 X
Track quality 100.0 %
Test CRC 1EC912D0
Copy CRC 1EC912D0
Track not present in AccurateRip database
Copy OK

Track 10

Filename C:\Users\dewey\Dropbox\FLAC\The Wedding Present - The Hit Parade (2014) [FLAC]\Disc 3\10 - Silver Shorts.wav

Peak level 97.7 %
Extraction speed 7.3 X
Track quality 100.0 %
Test CRC E06631FE
Copy CRC E06631FE
Track not present in AccurateRip database
Copy OK

Track 11

Filename C:\Users\dewey\Dropbox\FLAC\The Wedding Present - The Hit Parade (2014) [FLAC]\Disc 3\11 - The Queen of Outer Space.wav

Peak level 97.7 %
Extraction speed 7.3 X
Track quality 100.0 %
Test CRC 4BDDBF54
Copy CRC 4BDDBF54
Track not present in AccurateRip database
Copy OK

Track 12

Filename C:\Users\dewey\Dropbox\FLAC\The Wedding Present - The Hit Parade (2014) [FLAC]\Disc 3\12 - Bewitched.wav

Peak level 97.7 %
Extraction speed 8.4 X
Track quality 100.0 %
Test CRC 26A3C991
Copy CRC 26A3C991
Track not present in AccurateRip database
Copy OK

Track 13

Filename C:\Users\dewey\Dropbox\FLAC\The Wedding Present - The Hit Parade (2014) [FLAC]\Disc 3\13 - Crawl.wav

Peak level 97.7 %
Extraction speed 7.8 X
Track quality 100.0 %
Test CRC D6F07636
Copy CRC D6F07636
Track not present in AccurateRip database
Copy OK

Track 14

Filename C:\Users\dewey\Dropbox\FLAC\The Wedding Present - The Hit Parade (2014) [FLAC]\Disc 3\14 - Heather.wav

Peak level 97.7 %
Extraction speed 8.1 X
Track quality 100.0 %
Test CRC 2A3404E4
Copy CRC 2A3404E4
Track not present in AccurateRip database
Copy OK

Track 15

Filename C:\Users\dewey\Dropbox\FLAC\The Wedding Present - The Hit Parade (2014) [FLAC]\Disc 3\15 - Sticky.wav

Peak level 97.7 %
Extraction speed 8.3 X
Track quality 100.0 %
Test CRC 42B21EC2
Copy CRC 42B21EC2
Track not present in AccurateRip database
Copy OK

Track 16

Filename C:\Users\dewey\Dropbox\FLAC\The Wedding Present - The Hit Parade (2014) [FLAC]\Disc 3\16 - Come Play With Me.wav

Peak level 97.7 %
Extraction speed 7.2 X
Track quality 99.9 %
Test CRC 5E3A13D4
Copy CRC 5E3A13D4
Track not present in AccurateRip database
Copy OK

Track 17

Filename C:\Users\dewey\Dropbox\FLAC\The Wedding Present - The Hit Parade (2014) [FLAC]\Disc 3\17 - Brassneck.wav

Peak level 97.7 %
Extraction speed 8.9 X
Track quality 100.0 %
Test CRC 9536BB74
Copy CRC 9536BB74
Track not present in AccurateRip database
Copy OK

Track 18

Filename C:\Users\dewey\Dropbox\FLAC\The Wedding Present - The Hit Parade (2014) [FLAC]\Disc 3\18 - Corduroy.wav

Peak level 97.7 %
Extraction speed 8.9 X
Track quality 100.0 %
Test CRC 8D0FF6BD
Copy CRC 8D0FF6BD
Track not present in AccurateRip database
Copy OK

Track 19

Filename C:\Users\dewey\Dropbox\FLAC\The Wedding Present - The Hit Parade (2014) [FLAC]\Disc 3\19 - Dare.wav

Peak level 97.7 %
Extraction speed 7.2 X
Track quality 99.9 %
Test CRC 16BB4D21
Copy CRC 16BB4D21
Track not present in AccurateRip database
Copy OK

Track 20

Filename C:\Users\dewey\Dropbox\FLAC\The Wedding Present - The Hit Parade (2014) [FLAC]\Disc 3\20 - Dalliance.wav

Peak level 97.7 %
Extraction speed 8.0 X
Track quality 99.9 %
Test CRC 43BF27EC
Copy CRC 43BF27EC
Track not present in AccurateRip database
Copy OK

Track 21

Filename C:\Users\dewey\Dropbox\FLAC\The Wedding Present - The Hit Parade (2014) [FLAC]\Disc 3\21 - Flying Saucer.wav

Peak level 97.7 %
Extraction speed 10.0 X
Track quality 100.0 %
Test CRC FD1065E9
Copy CRC FD1065E9
Track not present in AccurateRip database
Copy OK


None of the tracks are present in the AccurateRip database

No errors occurred

End of status report

–– CUETools DB Plugin V2.1.3

[CTDB TOCID: VmZU3cfK6K__g7TKvvcnileEK1k-] disk not present in database, Submit result: VmZU3cfK6K__g7TKvvcnileEK1k- has been uploaded


==== Log checksum A9A6FF838FB6C187754C036661FAA6463CD4A9CB94B4E2DA231F5C9AE23D641A ====

Tracklist ::::
CD One:
The Hit Parade Singles:
#1 6 January 1992
1. Blue Eyes 2:56
2. Cattle And Cane 3:07

#2 3 February 1992
3. Go-Go Dancer 2:47
4. Don't Cry No Tears 2:33

#3 2 March 1992
5. Three 2:31
6. Think That It Might 2:42

#4 6 April 1992
7. Silver Shorts 3:24
8. Falling 5:57

#5 4 May 1992
9. Come Play With Me 4:35
10. Pleasant Valley Sunday 4:45

#6 1 June 1992
11. California 3:12
12. Let's Make Some Plans 3:35

#7 6 July 1992
13. Flying Saucer 4:53
14. Rocket 3:29

#8 3 August 1992
15. Boing! (7" Version) 3:47
16. Theme From Shaft 3:19

#9 7 September 1992
17. Loveslave 3:13
18. Chant Of The Ever Circling Skeletal Family 2:28

#10 5 October 1992
19. Sticky 3:04
20. Go Wild In The Country 2:29

#11 2 November 1992
21. The Queen Of Outer Space 2:59
22. U.F.O. 1:02

CD Two:
#12 7 December
1. No Christmas 4:37
2. Step Into Christmas 4:45

Additional Extra Tracks
3. Boing! - Album Version 3:47
4. Blue Eyes - Radio Remix 2:50
5. Cumberland Gap 1:30
6. Signal 3:14

BBC Radio John Peel Session - 17 March 1992
7. California 3:01
8. Flying Saucer 4:46
9. Softly Softly 3:16
10. Come Play With Me 4:26

BBC Radio 1 Mark Goodier Session - 17 October 1992
11. Sticky 3:04
12. No Christmas - Instrumental Version 3:23
13. Loveslave 3:08
14. The Queen Of Outer Space 2:50

BBC Radio Leeds Session - January 1992
15. Blue Eyes 2:59
16. Go-Go Dancer 3:00
17. Three 2:29
18. Silver Shorts 3:26

BBC World Service Session - June 1992
19. Silver Shorts 3:17
20. Flying Saucer 4:54
21. Boing! 3:53
22. California 3:05

CD Three - Live Tape No. 11 Den Haag, 30 October 1992:
1. Boing! 4:01
2. Go-Go Dancer 2:26
3. Lovenest 3:47
4. Three 2:38
5. Blue Eyes 2:57
6. Blonde 4:50
7. Kennedy 4:23
8. Suck 3:52
9. Loveslave 3:17
10. Silver Shorts 3:33
11. The Queen Of Outer Space 3:01
12. Bewitched 6:45
13. Crawl 2:45
14. Heather 3:14
15. Sticky 3:28
16. Come Play With Me 4:11
17. Brassneck 4:16
18. Corduroy 3:24
19. Dare 3:29
20. Dalliance 4:32
21. Flying Saucer 4:50