Tags
Language
Tags

Thierry Mineau - Paris (1989) {Melodie}

Posted By: tiburon
Thierry Mineau - Paris (1989) {Melodie}

Thierry Mineau - Paris (1989) {Melodie}
EAC 0.99pb4 | FLAC tracks level 5 | Cue+Log+M3U | Full Scans 300dpi | 261MB + 5% Recovery
MP3 CBR 320 Kbps | 103MB + 5% Recovery
Genre: Fusion

This phenomenal French bassist leads a fine European group through some burning instrumentals. With special guests Mike Stern, Frank Gambale, Bireli Lagrene on guitar; Toots Thielemans, harmonica; Billy Cobham, drums and Mino Cinelu on percussion.
Track List
01. L.A.X. 4:43
02. French West Indies 3:57
03. Framboise 6:03
04. Maracuja 4:17
05. Paris By Night 4:45
06. Manhattan Groove 3:49
07. Pivettes 3:37
08. Belo Horizonte 5:09
09. Atlantic City 2:51
10. Vision 1:51

musicians
Thierry Mineau — 6 string bass (1-3, 6-10), 4 string fretless bass (4, 5, 8), 5 string piccolo bass (5)
Billy Cobham — drums (1, 6)
Mike Stern — guitar (1, 4)
Mino Cinelu — percussion (2, 3, 7-9)
Toots Thielemans — harmonica (3, 8)
Frank Gambale — solo guitar (5)
Bireli Lagrene — acoustic guitar (6), guitar (9)
Vinsent Limouzin — kat synthesizer (1-9), vibraphone (7)
Denis Benarrosh — percussion (1, 6)
Patrick Buchmann — drums (2-5, 7-9)
William Ledoux — lead vocal (2)
Benoit Urbain — background vocals (2)
Oliver Prou — background vocals (2)
Denis Benarrosh — percussion (4)
Denis Gouzil — rythm guitar (5)
Jean-Michel Hure — melody guitar (5), guitar (7)

Produced by Thierry Mineau


Exact Audio Copy V0.99 prebeta 4 from 23. January 2008

EAC extraction logfile from 1. November 2008, 14:20

Thierry Mineau / Paris

Used drive : TOSHIBA DVD/HD SD-H802A Adapter: 0 ID: 3

Read mode : Secure
Utilize accurate stream : Yes
Defeat audio cache : Yes
Make use of C2 pointers : No

Read offset correction : 697
Overread into Lead-In and Lead-Out : No
Fill up missing offset samples with silence : Yes
Delete leading and trailing silent blocks : No
Null samples used in CRC calculations : Yes
Used interface : Native Win32 interface for Win NT & 2000
Gap handling : Appended to previous track

Used output format : User Defined Encoder
Selected bitrate : 320 kBit/s
Quality : High
Add ID3 tag : No
Command line compressor : C:\Program Files\Exact Audio Copy\flac.exe
Additional command line options : -V -5 -T "artist=%a" -T "title=%t" -T "album=%g" -T "date=%y" -T "tracknumber=%n" -T "genre=%m" -T comment="%e" -T "comment=Exact Audio Copy (Secure Mode)" %s –verify


TOC of the extracted CD

Track | Start | Length | Start sector | End sector
––––––––––––––––––––––––––––-
1 | 0:00.32 | 4:45.50 | 32 | 21456
2 | 4:46.07 | 4:00.10 | 21457 | 39466
3 | 8:46.17 | 6:05.38 | 39467 | 66879
4 | 14:51.55 | 4:20.02 | 66880 | 86381
5 | 19:11.57 | 4:47.33 | 86382 | 107939
6 | 23:59.15 | 3:52.25 | 107940 | 125364
7 | 27:51.40 | 3:39.17 | 125365 | 141806
8 | 31:30.57 | 5:11.45 | 141807 | 165176
9 | 36:42.27 | 2:53.38 | 165177 | 178189
10 | 39:35.65 | 1:51.40 | 178190 | 186554


Track 1

Filename C:\Users\Jack\Desktop\Thierry Mineau - Paris\01-L.A.X.wav

Pre-gap length 0:00:02.32

Peak level 95.6 %
Track quality 100.0 %
Copy CRC 102573C0
Track not present in AccurateRip database
Copy OK

Track 2

Filename C:\Users\Jack\Desktop\Thierry Mineau - Paris\02-French West Indies.wav

Pre-gap length 0:00:02.57

Peak level 83.0 %
Track quality 100.0 %
Copy CRC 2A170883
Track not present in AccurateRip database
Copy OK

Track 3

Filename C:\Users\Jack\Desktop\Thierry Mineau - Paris\03-Framboise.wav

Pre-gap length 0:00:02.47

Peak level 94.9 %
Track quality 100.0 %
Copy CRC BF1A057C
Track not present in AccurateRip database
Copy OK

Track 4

Filename C:\Users\Jack\Desktop\Thierry Mineau - Paris\04-Maracuja.wav

Pre-gap length 0:00:02.45

Peak level 95.7 %
Track quality 100.0 %
Copy CRC DA2FC69F
Track not present in AccurateRip database
Copy OK

Track 5

Filename C:\Users\Jack\Desktop\Thierry Mineau - Paris\05-Paris By Nite.wav

Pre-gap length 0:00:02.47

Peak level 95.7 %
Track quality 100.0 %
Copy CRC FD1FEAB7
Track not present in AccurateRip database
Copy OK

Track 6

Filename C:\Users\Jack\Desktop\Thierry Mineau - Paris\06-Manhattan Groove.wav

Pre-gap length 0:00:02.48

Peak level 95.7 %
Track quality 100.0 %
Copy CRC E60CB8DE
Track not present in AccurateRip database
Copy OK

Track 7

Filename C:\Users\Jack\Desktop\Thierry Mineau - Paris\07-Pivettes.wav

Pre-gap length 0:00:02.55

Peak level 98.0 %
Track quality 100.0 %
Copy CRC 18AF8D96
Track not present in AccurateRip database
Copy OK

Track 8

Filename C:\Users\Jack\Desktop\Thierry Mineau - Paris\08-Belo Horizonte.wav

Pre-gap length 0:00:02.00

Peak level 95.7 %
Track quality 100.0 %
Copy CRC 2180CB97
Track not present in AccurateRip database
Copy OK

Track 9

Filename C:\Users\Jack\Desktop\Thierry Mineau - Paris\09-Atlantic City.wav

Pre-gap length 0:00:02.46

Peak level 86.2 %
Track quality 100.0 %
Copy CRC DB2394BC
Track not present in AccurateRip database
Copy OK

Track 10

Filename C:\Users\Jack\Desktop\Thierry Mineau - Paris\10-Vision.wav

Pre-gap length 0:00:02.50

Peak level 72.2 %
Track quality 100.0 %
Copy CRC 78997CC9
Track not present in AccurateRip database
Copy OK


None of the tracks are present in the AccurateRip database

No errors occurred

End of status report


––––––––––––––––––––––––––––––––––––––––
Analyzed: Thierry Mineau / Paris
––––––––––––––––––––––––––––––––––––––––

DR Peak RMS Duration Track
––––––––––––––––––––––––––––––––––––––––
DR15 -0.38 dB -17.29 dB 4:46 01-L.A.X.
DR13 -1.62 dB -17.87 dB 4:00 02-French West Indies
DR15 -0.45 dB -19.28 dB 6:06 03-Framboise
DR14 -0.38 dB -16.48 dB 4:20 04-Maracuja
DR15 -0.38 dB -17.44 dB 4:47 05-Paris By Nite
DR16 -0.38 dB -18.66 dB 3:52 06-Manhattan Groove
DR16 -0.17 dB -18.77 dB 3:39 07-Pivettes
DR15 -0.38 dB -18.61 dB 5:12 08-Belo Horizonte
DR15 -1.28 dB -18.94 dB 2:54 09-Atlantic City
DR11 -2.83 dB -16.07 dB 1:52 10-Vision
––––––––––––––––––––––––––––––––––––––––

Number of tracks: 10
Official DR value: DR14

Samplerate: 44100 Hz
Channels: 2
Bits per sample: 16
Bitrate: 514 kbps
Codec: FLAC
================================================================================

Thierry Mineau - Paris (1989) {Melodie}
Thierry Mineau - Paris (1989) {Melodie}
Thierry Mineau - Paris (1989) {Melodie}