Tags
Language
Tags

Tito & Tarantula - Andalucia (2002) {2017, Remastered}

Posted By: popsakov
Tito & Tarantula - Andalucia (2002) {2017, Remastered}

Tito & Tarantula - Andalucia (2002) {2017, Remastered}
EAC Rip | FLAC (Img) + Cue + Log ~ 370 Mb | MP3 CBR320 ~ 138 Mb
Full Scans | 00:51:54 | RAR 5% Recovery
Chicano Rock / Blues Rock / Latin Rock / Hard Rock / Stoner Rock / Punk Rock
It Sounds #ITS171

Andalucia is the fourth studio album by Los Angeles rock band Tito & Tarantula, released in 2002. The album marked several line-up changes in the band, which had previously consisted of lead singer/rhythm guitarist Tito Larriva, lead guitarist Peter Atanasoff, and drummer Johnny "Vatos" Hernandez. This album featured the debut of lead guitarist Steven Hufsteter – who had previously played with Larriva in the Cruzados, bassist Io Perry, and keyboardist Marcus Praed.

The band toured promoting the album for several years. They also filmed a music video for the song "California Girl". However, upon seeing how bad the footage of the video was, Perry threw up, Larriva threatened to quit, and Atanasoff was not seen around for days. So, to compensate, Larriva made his own video for the song using the eight dollars he had in his pocket. In the last 40 seconds of the song "Effortless", Larriva, Atanasoff, and Perry can be heard laughing while they watch the "California Girl" music video.

The song "La Flor De Mal" is a cover of a Cruzados song that Larriva and Hufsteter wrote when they were in the Cruzados.

***************

Tito & Tarantula - Andalucia (2002) {2017, Remastered}

Track List:

01. Missed Your Eyes [3:07]
02. It's My Mistake [3:18]
03. California Girl [3:31]
04. You're The One I Love [3:17]
05. Torn To Pieces [2:55]
06. Hey Hey Hey Whada Ya Say [2:14]
07. Bullets From A Gun [5:31]
08. Make Me [4:12]
09. My Power Is In Your Hands [4:04]
10. Ready Made [3:21]
11. Effortless [4:22]
12. In Between [3:19]
13. Mexican Sky [4:17]
14. La Flor De Mal [4:26]

Personnel:
Tito Larriva – lead vocals, rhythm guitar, one-finger keyboards"
Peter Atanasoff – lead guitar, backing vocals
Steven Hufsteter – lead guitar, backing vocals
Io Perry – bass, backing vocals
Marcus Praed – piano, backing vocals
Johnny "Vatos" Hernandez – drums

Additional personnel:
Ry Hoover – additional guitar on "California Girl"

Exact Audio Copy V1.1 from 23. June 2015

EAC extraction logfile from 7. October 2017, 14:49

Tito & Tarantula / Andalucia (LC11723-ITS171)

Used drive : PIONEER BD-RW BDR-209D Adapter: 0 ID: 5

Read mode : Secure
Utilize accurate stream : Yes
Defeat audio cache : Yes
Make use of C2 pointers : No

Read offset correction : 667
Overread into Lead-In and Lead-Out : No
Fill up missing offset samples with silence : Yes
Delete leading and trailing silent blocks : No
Null samples used in CRC calculations : Yes
Used interface : Installed external ASPI interface

Used output format : User Defined Encoder
Selected bitrate : 768 kBit/s
Quality : High
Add ID3 tag : No
Command line compressor : C:\Program Files (x86)\Exact Audio Copy\FLAC\FLAC.EXE
Additional command line options : -6 -V -T "ARTIST=%artist%" -T "TITLE=%title%" -T "ALBUM=%albumtitle%" -T "DATE=%year%" -T "TRACKNUMBER=%tracknr%" -T "GENRE=%genre%" -T "COMMENT=%comment%" -T "BAND=%albuminterpret%" -T "ALBUMARTIST=%albuminterpret%" -T "COMPOSER=%composer%" %haslyrics%–tag-from-file=LYRICS="%lyricsfile%"%haslyrics% -T "DISCNUMBER=%cdnumber%" -T "TOTALDISCS=%totalcds%" -T "TOTALTRACKS=%numtracks%" %hascover%–picture="%coverfile%"%hascover% %source% -o %dest%


TOC of the extracted CD

Track | Start | Length | Start sector | End sector
––––––––––––––––––––––––––––-
1 | 0:00.00 | 3:06.61 | 0 | 14010
2 | 3:06.61 | 3:18.00 | 14011 | 28860
3 | 6:24.61 | 3:30.58 | 28861 | 44668
4 | 9:55.44 | 3:16.63 | 44669 | 59431
5 | 13:12.32 | 2:55.28 | 59432 | 72584
6 | 16:07.60 | 2:13.59 | 72585 | 82618
7 | 18:21.44 | 5:30.65 | 82619 | 107433
8 | 23:52.34 | 4:11.55 | 107434 | 126313
9 | 28:04.14 | 4:04.21 | 126314 | 144634
10 | 32:08.35 | 3:20.73 | 144635 | 159707
11 | 35:29.33 | 4:22.34 | 159708 | 179391
12 | 39:51.67 | 3:18.56 | 179392 | 194297
13 | 43:10.48 | 4:17.04 | 194298 | 213576
14 | 47:27.52 | 4:26.32 | 213577 | 233558


Range status and errors

Selected range

Filename E:\MUSIC\Tito & Tarantula - Andalucia (LC11723-ITS171).wav

Peak level 99.6 %
Extraction speed 5.1 X
Range quality 100.0 %
Test CRC 779BBA4D
Copy CRC 779BBA4D
Copy OK

No errors occurred


AccurateRip summary

Track 1 not present in database
Track 2 not present in database
Track 3 not present in database
Track 4 not present in database
Track 5 not present in database
Track 6 not present in database
Track 7 not present in database
Track 8 not present in database
Track 9 not present in database
Track 10 not present in database
Track 11 not present in database
Track 12 not present in database
Track 13 not present in database
Track 14 not present in database

None of the tracks are present in the AccurateRip database

End of status report

==== Log checksum D6BAB08E6CFC2EA747D3CCDA4C9BFFC26FA5419BB1FC3B2DE368F2204E43B3DA ====

foobar2000 1.3.16 / Dynamic Range Meter 1.1.1
log date: 2017-10-17 13:39:26

––––––––––––––––––––––––––––––––––––––––
Analyzed: Tito & Tarantula / Andalucia (LC11723-ITS171)
––––––––––––––––––––––––––––––––––––––––

DR Peak RMS Duration Track
––––––––––––––––––––––––––––––––––––––––
DR5 -0.04 dB -6.01 dB 3:07 01-Missed Your Eyes
DR6 -0.04 dB -7.58 dB 3:18 02-It's My Mistake
DR6 -0.06 dB -7.62 dB 3:31 03-California Girl
DR7 -0.07 dB -9.43 dB 3:17 04-You're The One I Love
DR6 -0.04 dB -6.81 dB 2:55 05-Torn To Pieces
DR6 -0.03 dB -7.24 dB 2:14 06-Hey Hey Hey Whada Ya Say
DR7 -0.07 dB -8.28 dB 5:31 07-Bullets From A Gun
DR7 -0.06 dB -8.86 dB 4:12 08-Make Me
DR8 -0.05 dB -8.61 dB 4:04 09-My Power Is In Your Hands
DR7 -0.04 dB -8.39 dB 3:21 10-Ready Made
DR7 -0.06 dB -8.93 dB 4:22 11-Effortless
DR6 -0.03 dB -7.38 dB 3:19 12-In Between
DR6 -0.07 dB -6.95 dB 4:17 13-Mexican Sky
DR7 -0.04 dB -9.98 dB 4:26 14-La Flor De Mal *
––––––––––––––––––––––––––––––––––––––––

Number of tracks: 14
Official DR value: DR7

Samplerate: 44100 Hz
Channels: 2
Bits per sample: 16
Bitrate: 914 kbps
Codec: FLAC
================================================================================

[CUETools log; Date: 17.10.2017 13:39:00; Version: 2.1.5]
[CTDB TOCID: grDeen0O3PoCEjG9c6fHdKxSLrM-] disk not present in database.
[AccurateRip ID: 001958a6-011249d2-d90c2a0e] found.
Track [ CRC | V2 ] Status
01 [ac318334|c37c48fe] (0+1/1) Accurately ripped
02 [aae51629|b0154966] (0+1/1) Accurately ripped
03 [da30dca4|a819fa29] (0+1/1) Accurately ripped
04 [279e2805|c23ec5a5] (0+1/1) Accurately ripped
05 [daa732de|a05eacb5] (0+1/1) Accurately ripped
06 [1cc33e44|20d552c1] (0+1/1) Accurately ripped
07 [5d4fc197|d101fd2c] (0+1/1) Accurately ripped
08 [165f13ab|6c452e53] (0+1/1) Accurately ripped
09 [8c09dd8b|5743cf25] (0+1/1) Accurately ripped
10 [86ebca1d|0b080a11] (0+1/1) Accurately ripped
11 [8f6c7c9c|7c7b49af] (0+1/1) Accurately ripped
12 [6c737c6e|e19c55f6] (0+1/1) Accurately ripped
13 [00fdd8a8|cfba8a87] (0+1/1) Accurately ripped
14 [9501a64d|19ce9838] (0+1/1) Accurately ripped

Track Peak [ CRC32 ] [W/O NULL] [ LOG ]
– 99,6 [779BBA4D] [3DEAE9B8] CRC32
01 99,5 [824F856B] [4D6A67E3]
02 99,5 [2B087042] [FFBB2579]
03 99,3 [758540AE] [404C454E]
04 99,1 [5B00BCFF] [07411E30]
05 99,5 [75C2372B] [3D5C424B]
06 99,6 [B238F787] [01913406]
07 99,1 [794E3C87] [3670695F]
08 99,2 [66DAF4F2] [4BC31F2E]
09 99,3 [C86A8D09] [914BD33E]
10 99,5 [CE815466] [C4A88A70]
11 99,3 [93459786] [8021ECD9]
12 99,6 [06E2B2AD] [591D9C3C]
13 99,2 [88F4351E] [87C1DD09]
14 99,5 [699392C1] [2D803982]

Tito & Tarantula - Andalucia (2002) {2017, Remastered}


All thanks go to RD

>>> Tito & Tarantula in my Blog <<<

DOWNLOAD: