Subcategories
Tags
Language
Tags

Todd Rundgren - Runt (1970) + Runt. The Ballad Of Todd Rundgren (1971) 2CD Expanded Remastered 2011 [Re-Up]

Posted By: Designol
Todd Rundgren - Runt (1970) + Runt. The Ballad Of Todd Rundgren (1971) 2CD Expanded Remastered 2011 [Re-Up]

Todd Rundgren - Runt (1970) + Runt. The Ballad Of Todd Rundgren (1971)
2CD Expanded Remastered Reissue 2011

EAC | FLAC | Tracks (Cue&Log) ~ 755 Mb | Mp3 (CBR320) ~ 310 Mb | Scans included
Classic Rock, Soft Rock, Power Pop | Label: Edsel Records | # EDSD 2121 | Time: 02:10:21

Digitally remastered two CD set containing expanded editions of a pair of albums from the singer, songwriter and producer. His first album, Runt (1970), features the hit single 'We Gotta Get You a Woman' as well as the nine-minute Rock epic 'Birthday Carol'. This edition features, for the first time ever on CD, all the different mixes, performances and exclusive songs from the November 1970 mis-pressing of the album. The Ballad of Todd Rundgren (1971) features more of Todd's Laura Nyro-inspired Soul/Pop ballads, and another hit in 'Long Flowing Robe'. The four bonus tracks are all radio performances from this era. The package contains ephemera and rare photos, all the lyrics, and extensive notes by Paul Myers, extracted from his recent definitive book on Todd Rundgren.

Of all of Edsel’s 2011 Todd Rundgren reissues, their double-disc set of Runt and The Ballad of Todd Rundgren has the most enticing bonus material. Ballad is expanded by four live tracks – “Broke Down and Busted” live from Carnegie Hall in 1972, then “Believe in Me,” “Be Nice to Me,” and “Hold Me Tight” from a live broadcast in June 1971 – but the real news is the first reissue of a scrapped alternate version of Runt that briefly appeared in 1970. This version contains significantly different, not necessarily better, mixes of “Believe in Me,” “We Gotta Get You a Woman,” “Devil’s Bite,” and “Birthday Carol,” a version of “Broke Down and Busted” with “There Are No Words” used as an introduction, a full-length version of “Baby Let’s Swing,” an early version of “Hope I’m Around” that’s considerably more forceful than what wound up on Ballad, and, finally, the abandoned “Say No More.” While nothing here eclipses what was on the finished Runt – all the finished mixes are better than the ones here – it’s nevertheless necessary for Todd fanatics, particularly for the slightly awkward “Hope I’m Around,” the extended “Baby Let’s Swing,” and “Say No More,” even if it's easy to see why the latter was cut from Runt.

Review by Stephen Thomas Erlewine, Allmusic.com

Todd Rundgren - Runt (1970) + Runt. The Ballad Of Todd Rundgren (1971) 2CD Expanded Remastered 2011 [Re-Up]



Tracklist:

CD1:

Runt (June 1970):

01. Broke Down And Busted (04:36)
02. Believe In Me (02:04)
03. We Gotta Get You A Woman (03:09)
04. Who's That Man? (03:02)
05. Once Burned (02:09)
06. Devil's Bite (03:54)
07. I'm In The Clique (04:58)
08. There Are No Words (02:12)
09. Baby Let's Swing / The Last Thing You Said / Don't Tie My Hands (05:28)
10. Birthday Carol (09:16)

Runt - Alternate Version (November 1970):

11. Broke Down And Busted (intro: There Are No Words) (04:59)
12. Believe In Me (alternate mix) (02:01)
13. We Gotta Get You A Woman (alternate mix) (03:07)
14. Hope I'm Around (early version) (04:28)
15. Devil's Bite (alternate mix) (03:58)
16. Baby Let's Swing (full length version) (03:25)
17. Say No More (03:08)
18. Birthday Carol (alternate mix) (09:11)

CD2:

Runt. The Ballad Of Todd Rundgren (May 1971):

01. Long Flowing Robe (03:27)
02. The Ballad (Denny & Jean) (03:06)
03. Bleeding (03:59)
04. Wailing Wall (03:06)
05. The Range War (02:38)
06. Chain Letter (05:04)
07. A Long Time, A Long Way To Go (02:14)
08. Boat On The Charles (04:27)
09. Be Nice To Me (03:25)
10. Hope I'm Around (04:54)
11. Parole (04:20)
12. Remember Me (00:54)

Bonus Tracks:

13. Broke Down And Busted (Live At Carnegie Hall, 8th June 1972) (04:58)
14. Believe In Me (Live Broadcast On WMMR-FM, 30th June 1971) (02:20)
15. Be Nice To Me (Live Broadcast On WMMR-FM, 30th June 1971) (03:31)
16. Hold Me Tight (Live Broadcast On WMMR-FM, 30th June 1971) (02:37)


Exact Audio Copy V1.1 from 23. June 2015

EAC extraction logfile from 27. February 2016, 5:21

Todd Rundgren / Runt / The Ballad of Todd Rundgren

Used drive : TSSTcorpCDDVDW SH-224FB Adapter: 1 ID: 0

Read mode : Secure
Utilize accurate stream : Yes
Defeat audio cache : No
Make use of C2 pointers : Yes

Read offset correction : 6
Overread into Lead-In and Lead-Out : No
Fill up missing offset samples with silence : Yes
Delete leading and trailing silent blocks : No
Null samples used in CRC calculations : Yes
Used interface : Native Win32 interface for Win NT & 2000
Gap handling : Appended to previous track

Used output format : User Defined Encoder
Selected bitrate : 896 kBit/s
Quality : High
Add ID3 tag : No
Command line compressor : C:\Program Files (x86)\Exact Audio Copy\FLAC\FLAC.EXE
Additional command line options : -8 -V -T "ARTIST=%artist%" -T "TITLE=%title%" -T "ALBUM=%albumtitle%" -T "DATE=%year%" -T "TRACKNUMBER=%tracknr%" -T "GENRE=%genre%" -T "COMMENT=%comment%" -T "BAND=%albuminterpret%" -T "ALBUMARTIST=%albuminterpret%" -T "COMPOSER=%composer%" %haslyrics%–tag-from-file=LYRICS="%lyricsfile%"%haslyrics% -T "DISCNUMBER=%cdnumber%" -T "TOTALDISCS=%totalcds%" -T "TOTALTRACKS=%numtracks%" %hascover%–picture="%coverfile%"%hascover% %source% -o %dest%


TOC of the extracted CD

Track | Start | Length | Start sector | End sector
––––––––––––––––––––––––––––-
1 | 0:00.00 | 4:35.74 | 0 | 20698
2 | 4:35.74 | 2:04.31 | 20699 | 30029
3 | 6:40.30 | 3:09.36 | 30030 | 44240
4 | 9:49.66 | 3:02.43 | 44241 | 57933
5 | 12:52.34 | 2:09.52 | 57934 | 67660
6 | 15:02.11 | 3:54.60 | 67661 | 85270
7 | 18:56.71 | 4:58.34 | 85271 | 107654
8 | 23:55.30 | 2:12.35 | 107655 | 117589
9 | 26:07.65 | 5:28.49 | 117590 | 142238
10 | 31:36.39 | 9:16.01 | 142239 | 183939
11 | 40:52.40 | 4:59.01 | 183940 | 206365
12 | 45:51.41 | 2:01.49 | 206366 | 215489
13 | 47:53.15 | 3:07.49 | 215490 | 229563
14 | 51:00.64 | 4:28.50 | 229564 | 249713
15 | 55:29.39 | 3:58.50 | 249714 | 267613
16 | 59:28.14 | 3:25.67 | 267614 | 283055
17 | 62:54.06 | 3:08.38 | 283056 | 297193
18 | 66:02.44 | 9:11.04 | 297194 | 338522


Track 1

Filename D:\Downloads\shared\Todd Rundgren - Runt - The Ballad of Todd Rundgren\01 Broke Down And Busted.wav

Pre-gap length 0:00:02.00

Peak level 98.7 %
Extraction speed 13.5 X
Track quality 100.0 %
Test CRC 3DE2E997
Copy CRC 3DE2E997
Accurately ripped (confidence 24) [F645ABC7] (AR v2)
Copy OK

Track 2

Filename D:\Downloads\shared\Todd Rundgren - Runt - The Ballad of Todd Rundgren\02 Believe In Me.wav

Pre-gap length 0:00:02.41

Peak level 74.8 %
Extraction speed 14.2 X
Track quality 100.0 %
Test CRC B5499121
Copy CRC B5499121
Accurately ripped (confidence 23) [71A2F895] (AR v2)
Copy OK

Track 3

Filename D:\Downloads\shared\Todd Rundgren - Runt - The Ballad of Todd Rundgren\03 We Gotta Get You A Woman.wav

Pre-gap length 0:00:02.41

Peak level 98.7 %
Extraction speed 14.9 X
Track quality 100.0 %
Test CRC 169C843D
Copy CRC 169C843D
Accurately ripped (confidence 24) [B9747B7B] (AR v2)
Copy OK

Track 4

Filename D:\Downloads\shared\Todd Rundgren - Runt - The Ballad of Todd Rundgren\04 Who's That Man.wav

Pre-gap length 0:00:02.41

Peak level 98.7 %
Extraction speed 12.6 X
Track quality 99.8 %
Test CRC C01422C3
Copy CRC C01422C3
Accurately ripped (confidence 24) [15F61410] (AR v2)
Copy OK

Track 5

Filename D:\Downloads\shared\Todd Rundgren - Runt - The Ballad of Todd Rundgren\05 Once Burned.wav

Pre-gap length 0:00:02.41

Peak level 98.7 %
Extraction speed 11.6 X
Track quality 99.8 %
Test CRC F1794690
Copy CRC F1794690
Accurately ripped (confidence 24) [CC3A86CA] (AR v2)
Copy OK

Track 6

Filename D:\Downloads\shared\Todd Rundgren - Runt - The Ballad of Todd Rundgren\06 Devil's Bite.wav

Pre-gap length 0:00:02.41

Peak level 98.7 %
Extraction speed 16.9 X
Track quality 100.0 %
Test CRC 12BD8E61
Copy CRC 12BD8E61
Accurately ripped (confidence 23) [EC147858] (AR v2)
Copy OK

Track 7

Filename D:\Downloads\shared\Todd Rundgren - Runt - The Ballad of Todd Rundgren\07 I'm In The Clique.wav

Pre-gap length 0:00:02.41

Peak level 98.7 %
Extraction speed 17.9 X
Track quality 100.0 %
Test CRC 84B00AD9
Copy CRC 84B00AD9
Accurately ripped (confidence 24) [3ADFD2B7] (AR v2)
Copy OK

Track 8

Filename D:\Downloads\shared\Todd Rundgren - Runt - The Ballad of Todd Rundgren\08 There Are No Words.wav

Pre-gap length 0:00:02.41

Peak level 62.3 %
Extraction speed 17.2 X
Track quality 100.0 %
Test CRC C61F73AB
Copy CRC C61F73AB
Accurately ripped (confidence 24) [0D44742D] (AR v2)
Copy OK

Track 9

Filename D:\Downloads\shared\Todd Rundgren - Runt - The Ballad of Todd Rundgren\09 Baby Let's Swing - The Last Thing You Said - Don't Tie My Hands.wav

Pre-gap length 0:00:02.41

Peak level 98.6 %
Extraction speed 19.5 X
Track quality 100.0 %
Test CRC 2FA4E0A0
Copy CRC 2FA4E0A0
Accurately ripped (confidence 23) [32C4C2C3] (AR v2)
Copy OK

Track 10

Filename D:\Downloads\shared\Todd Rundgren - Runt - The Ballad of Todd Rundgren\10 Birthday Carol.wav

Pre-gap length 0:00:02.41

Peak level 98.7 %
Extraction speed 20.6 X
Track quality 100.0 %
Test CRC 4666CDE5
Copy CRC 4666CDE5
Accurately ripped (confidence 23) [5AECB888] (AR v2)
Copy OK

Track 11

Filename D:\Downloads\shared\Todd Rundgren - Runt - The Ballad of Todd Rundgren\11 Broke Down And Busted (intro- There Are No Words).wav

Pre-gap length 0:00:03.41

Peak level 98.7 %
Extraction speed 21.3 X
Track quality 100.0 %
Test CRC 332517BF
Copy CRC 332517BF
Accurately ripped (confidence 24) [B7EBD4A8] (AR v2)
Copy OK

Track 12

Filename D:\Downloads\shared\Todd Rundgren - Runt - The Ballad of Todd Rundgren\12 Believe In Me (alternate mix).wav

Pre-gap length 0:00:02.41

Peak level 85.1 %
Extraction speed 20.4 X
Track quality 100.0 %
Test CRC 253E2141
Copy CRC 253E2141
Accurately ripped (confidence 24) [B79364FC] (AR v2)
Copy OK

Track 13

Filename D:\Downloads\shared\Todd Rundgren - Runt - The Ballad of Todd Rundgren\13 We Gotta Get You A Woman (alternate mix).wav

Pre-gap length 0:00:02.41

Peak level 98.7 %
Extraction speed 21.2 X
Track quality 100.0 %
Test CRC 45299878
Copy CRC 45299878
Accurately ripped (confidence 24) [D5B7BB8C] (AR v2)
Copy OK

Track 14

Filename D:\Downloads\shared\Todd Rundgren - Runt - The Ballad of Todd Rundgren\14 Hope I'm Around (early version).wav

Pre-gap length 0:00:02.41

Peak level 98.7 %
Extraction speed 22.2 X
Track quality 100.0 %
Test CRC 673C2322
Copy CRC 673C2322
Accurately ripped (confidence 24) [8715FABD] (AR v2)
Copy OK

Track 15

Filename D:\Downloads\shared\Todd Rundgren - Runt - The Ballad of Todd Rundgren\15 Devil's Bite (alternate mix).wav

Pre-gap length 0:00:02.41

Peak level 98.7 %
Extraction speed 17.6 X
Track quality 99.9 %
Test CRC 76FF3710
Copy CRC 76FF3710
Accurately ripped (confidence 24) [B95DEA7C] (AR v2)
Copy OK

Track 16

Filename D:\Downloads\shared\Todd Rundgren - Runt - The Ballad of Todd Rundgren\16 Baby Let's Swing (full length version).wav

Pre-gap length 0:00:02.41

Peak level 89.0 %
Extraction speed 21.9 X
Track quality 100.0 %
Test CRC 61E188DD
Copy CRC 61E188DD
Accurately ripped (confidence 24) [7799E288] (AR v2)
Copy OK

Track 17

Filename D:\Downloads\shared\Todd Rundgren - Runt - The Ballad of Todd Rundgren\17 Say No More.wav

Pre-gap length 0:00:02.41

Peak level 79.3 %
Extraction speed 23.9 X
Track quality 100.0 %
Test CRC 7C823E59
Copy CRC 7C823E59
Accurately ripped (confidence 24) [33783EEB] (AR v2)
Copy OK

Track 18

Filename D:\Downloads\shared\Todd Rundgren - Runt - The Ballad of Todd Rundgren\18 Birthday Carol (alternate mix).wav

Pre-gap length 0:00:02.41

Peak level 98.7 %
Extraction speed 23.8 X
Track quality 100.0 %
Test CRC C6FFD44F
Copy CRC C6FFD44F
Accurately ripped (confidence 22) [DFB5227B] (AR v2)
Copy OK


All tracks accurately ripped

No errors occurred

End of status report

–– CUETools DB Plugin V2.1.6

[CTDB TOCID: MwkfE7X85Y8oAOBBFRxfRebiCD4-] found
Submit result: MwkfE7X85Y8oAOBBFRxfRebiCD4- has been confirmed
Track | CTDB Status
1 | (9/9) Accurately ripped
2 | (9/9) Accurately ripped
3 | (9/9) Accurately ripped
4 | (9/9) Accurately ripped
5 | (9/9) Accurately ripped
6 | (9/9) Accurately ripped
7 | (9/9) Accurately ripped
8 | (9/9) Accurately ripped
9 | (9/9) Accurately ripped
10 | (9/9) Accurately ripped
11 | (9/9) Accurately ripped
12 | (9/9) Accurately ripped
13 | (9/9) Accurately ripped
14 | (9/9) Accurately ripped
15 | (9/9) Accurately ripped
16 | (9/9) Accurately ripped
17 | (9/9) Accurately ripped
18 | (9/9) Accurately ripped


==== Log checksum 25CA2E71EE92FED1650E0BFF9D2E10DE70764C89BF5C16092B5348F9C5C8B9E0 ====

foobar2000 1.2 / Dynamic Range Meter 1.1.1
log date: 2016-03-14 18:40:33

––––––––––––––––––––––––––––––––––––––––
Analyzed: Todd Rundgren / Runt / The Ballad of Todd Rundgren
––––––––––––––––––––––––––––––––––––––––

DR Peak RMS Duration Track
––––––––––––––––––––––––––––––––––––––––
DR11 -0.11 dB -12.61 dB 4:36 01-Broke Down And Busted
DR11 -2.51 dB -17.33 dB 2:04 02-Believe In Me
DR11 -0.11 dB -14.41 dB 3:09 03-We Gotta Get You A Woman
DR11 -0.11 dB -13.08 dB 3:03 04-Who's That Man?
DR12 -0.11 dB -15.06 dB 2:10 05-Once Burned
DR10 -0.11 dB -12.84 dB 3:55 06-Devil's Bite
DR11 -0.11 dB -14.18 dB 4:58 07-I'm In The Clique
DR10 -4.11 dB -18.56 dB 2:12 08-There Are No Words
DR11 -0.12 dB -13.44 dB 5:29 09-Baby Let's Swing / The Last Thing You Said / Don't Tie My Hands
DR11 -0.11 dB -13.83 dB 9:16 10-Birthday Carol
DR12 -0.11 dB -14.43 dB 4:59 11-Broke Down And Busted (intro: There Are No Words)
DR12 -1.40 dB -17.62 dB 2:02 12-Believe In Me (alternate mix)
DR13 -0.11 dB -15.04 dB 3:08 13-We Gotta Get You A Woman (alternate mix)
DR12 -0.11 dB -14.31 dB 4:29 14-Hope I'm Around (early version)
DR12 -0.11 dB -14.50 dB 3:59 15-Devil's Bite (alternate mix)
DR12 -1.01 dB -16.16 dB 3:26 16-Baby Let's Swing (full length version)
DR15 -2.01 dB -24.72 dB 3:09 17-Say No More
DR13 -0.11 dB -17.44 dB 9:11 18-Birthday Carol (alternate mix)
––––––––––––––––––––––––––––––––––––––––

Number of tracks: 18
Official DR value: DR12

Samplerate: 44100 Hz
Channels: 2
Bits per sample: 16
Bitrate: 696 kbps
Codec: FLAC
================================================================================


Exact Audio Copy V1.1 from 23. June 2015

EAC extraction logfile from 27. February 2016, 5:57

Todd Rundgren / Runt / The Ballad of Todd Rundgren

Used drive : TSSTcorpCDDVDW SH-224FB Adapter: 1 ID: 0

Read mode : Secure
Utilize accurate stream : Yes
Defeat audio cache : No
Make use of C2 pointers : Yes

Read offset correction : 6
Overread into Lead-In and Lead-Out : No
Fill up missing offset samples with silence : Yes
Delete leading and trailing silent blocks : No
Null samples used in CRC calculations : Yes
Used interface : Native Win32 interface for Win NT & 2000
Gap handling : Appended to previous track

Used output format : User Defined Encoder
Selected bitrate : 896 kBit/s
Quality : High
Add ID3 tag : No
Command line compressor : C:\Program Files (x86)\Exact Audio Copy\FLAC\FLAC.EXE
Additional command line options : -8 -V -T "ARTIST=%artist%" -T "TITLE=%title%" -T "ALBUM=%albumtitle%" -T "DATE=%year%" -T "TRACKNUMBER=%tracknr%" -T "GENRE=%genre%" -T "COMMENT=%comment%" -T "BAND=%albuminterpret%" -T "ALBUMARTIST=%albuminterpret%" -T "COMPOSER=%composer%" %haslyrics%–tag-from-file=LYRICS="%lyricsfile%"%haslyrics% -T "DISCNUMBER=%cdnumber%" -T "TOTALDISCS=%totalcds%" -T "TOTALTRACKS=%numtracks%" %hascover%–picture="%coverfile%"%hascover% %source% -o %dest%


TOC of the extracted CD

Track | Start | Length | Start sector | End sector
––––––––––––––––––––––––––––-
1 | 0:00.00 | 3:27.35 | 0 | 15559
2 | 3:27.35 | 3:06.52 | 15560 | 29561
3 | 6:34.12 | 3:59.28 | 29562 | 47514
4 | 10:33.40 | 3:06.21 | 47515 | 61485
5 | 13:39.61 | 2:38.46 | 61486 | 73381
6 | 16:18.32 | 5:04.06 | 73382 | 96187
7 | 21:22.38 | 2:14.01 | 96188 | 106238
8 | 23:36.39 | 4:27.50 | 106239 | 126313
9 | 28:04.14 | 3:25.31 | 126314 | 141719
10 | 31:29.45 | 4:54.09 | 141720 | 163778
11 | 36:23.54 | 4:20.21 | 163779 | 183299
12 | 40:44.00 | 0:54.44 | 183300 | 187393
13 | 41:38.44 | 4:58.66 | 187394 | 209809
14 | 46:37.35 | 2:20.46 | 209810 | 220355
15 | 48:58.06 | 3:31.37 | 220356 | 236217
16 | 52:29.43 | 2:37.39 | 236218 | 248031


Track 1

Filename D:\Downloads\shared\Todd Rundgren - Runt - The Ballad of Todd Rundgren\01 Long Flowing Robe.wav

Pre-gap length 0:00:02.00

Peak level 98.7 %
Extraction speed 10.9 X
Track quality 99.8 %
Test CRC C83A69F1
Copy CRC C83A69F1
Accurately ripped (confidence 25) [C588B9B9] (AR v2)
Copy OK

Track 2

Filename D:\Downloads\shared\Todd Rundgren - Runt - The Ballad of Todd Rundgren\02 The Ballad (Denny & Jean).wav

Pre-gap length 0:00:02.41

Peak level 74.7 %
Extraction speed 13.6 X
Track quality 100.0 %
Test CRC 2BB2EC97
Copy CRC 2BB2EC97
Accurately ripped (confidence 24) [A84C0D04] (AR v2)
Copy OK

Track 3

Filename D:\Downloads\shared\Todd Rundgren - Runt - The Ballad of Todd Rundgren\03 Bleeding.wav

Pre-gap length 0:00:02.41

Peak level 93.2 %
Extraction speed 14.9 X
Track quality 100.0 %
Test CRC 7FB76A75
Copy CRC 7FB76A75
Accurately ripped (confidence 24) [87670440] (AR v2)
Copy OK

Track 4

Filename D:\Downloads\shared\Todd Rundgren - Runt - The Ballad of Todd Rundgren\04 Wailing Wall.wav

Pre-gap length 0:00:02.41

Peak level 61.6 %
Extraction speed 15.7 X
Track quality 100.0 %
Test CRC 55DE2D0D
Copy CRC 55DE2D0D
Accurately ripped (confidence 24) [F3D0A77B] (AR v2)
Copy OK

Track 5

Filename D:\Downloads\shared\Todd Rundgren - Runt - The Ballad of Todd Rundgren\05 The Range War.wav

Pre-gap length 0:00:02.41

Peak level 73.6 %
Extraction speed 16.0 X
Track quality 100.0 %
Test CRC A09C4028
Copy CRC A09C4028
Accurately ripped (confidence 24) [CC726AED] (AR v2)
Copy OK

Track 6

Filename D:\Downloads\shared\Todd Rundgren - Runt - The Ballad of Todd Rundgren\06 Chain Letter.wav

Pre-gap length 0:00:02.41

Peak level 87.6 %
Extraction speed 17.0 X
Track quality 100.0 %
Test CRC 7AA7DC95
Copy CRC 7AA7DC95
Accurately ripped (confidence 24) [DFC02289] (AR v2)
Copy OK

Track 7

Filename D:\Downloads\shared\Todd Rundgren - Runt - The Ballad of Todd Rundgren\07 A Long Time, A Long Way To Go.wav

Pre-gap length 0:00:02.41

Peak level 88.6 %
Extraction speed 16.8 X
Track quality 100.0 %
Test CRC 39C5E641
Copy CRC 39C5E641
Accurately ripped (confidence 24) [90C689A7] (AR v2)
Copy OK

Track 8

Filename D:\Downloads\shared\Todd Rundgren - Runt - The Ballad of Todd Rundgren\08 Boat On The Charles.wav

Pre-gap length 0:00:02.41

Peak level 90.0 %
Extraction speed 15.5 X
Track quality 99.9 %
Test CRC 60ACDA0F
Copy CRC 60ACDA0F
Accurately ripped (confidence 24) [0BB07E4B] (AR v2)
Copy OK

Track 9

Filename D:\Downloads\shared\Todd Rundgren - Runt - The Ballad of Todd Rundgren\09 Be Nice To Me.wav

Pre-gap length 0:00:02.41

Peak level 71.6 %
Extraction speed 18.6 X
Track quality 100.0 %
Test CRC 147AF5F0
Copy CRC 147AF5F0
Accurately ripped (confidence 24) [D36660F3] (AR v2)
Copy OK

Track 10

Filename D:\Downloads\shared\Todd Rundgren - Runt - The Ballad of Todd Rundgren\10 Hope I'm Around.wav

Pre-gap length 0:00:02.41

Peak level 87.7 %
Extraction speed 16.5 X
Track quality 99.9 %
Test CRC FF9FD311
Copy CRC FF9FD311
Accurately ripped (confidence 25) [A0ED98E2] (AR v2)
Copy OK

Track 11

Filename D:\Downloads\shared\Todd Rundgren - Runt - The Ballad of Todd Rundgren\11 Parole.wav

Pre-gap length 0:00:02.41

Peak level 84.4 %
Extraction speed 20.0 X
Track quality 100.0 %
Test CRC F8BEF51E
Copy CRC F8BEF51E
Accurately ripped (confidence 24) [2B4B5B1A] (AR v2)
Copy OK

Track 12

Filename D:\Downloads\shared\Todd Rundgren - Runt - The Ballad of Todd Rundgren\12 Remember Me.wav

Pre-gap length 0:00:02.41

Peak level 57.5 %
Extraction speed 18.4 X
Track quality 100.0 %
Test CRC 3299586B
Copy CRC 3299586B
Accurately ripped (confidence 24) [16C95C55] (AR v2)
Copy OK

Track 13

Filename D:\Downloads\shared\Todd Rundgren - Runt - The Ballad of Todd Rundgren\13 Broke Down And Busted (live at Carnegie Hall 6-8-72).wav

Pre-gap length 0:00:03.41

Peak level 66.8 %
Extraction speed 20.7 X
Track quality 100.0 %
Test CRC 66843DAC
Copy CRC 66843DAC
Accurately ripped (confidence 24) [4976CB4B] (AR v2)
Copy OK

Track 14

Filename D:\Downloads\shared\Todd Rundgren - Runt - The Ballad of Todd Rundgren\14 Believe In Me (live WMMR-FM 6-30-71).wav

Pre-gap length 0:00:00.29

Peak level 74.9 %
Extraction speed 20.4 X
Track quality 100.0 %
Test CRC 310E5D56
Copy CRC 310E5D56
Accurately ripped (confidence 24) [0ECFAFDD] (AR v2)
Copy OK

Track 15

Filename D:\Downloads\shared\Todd Rundgren - Runt - The Ballad of Todd Rundgren\15 Be Nice To Me (live WMMR-FM 6-30-71).wav

Pre-gap length 0:00:00.08

Peak level 74.9 %
Extraction speed 21.0 X
Track quality 100.0 %
Test CRC 7DD11E6C
Copy CRC 7DD11E6C
Accurately ripped (confidence 24) [6D4339B4] (AR v2)
Copy OK

Track 16

Filename D:\Downloads\shared\Todd Rundgren - Runt - The Ballad of Todd Rundgren\16 Hold Me Tight (live WMMR-FM 6-30-71).wav

Pre-gap length 0:00:00.26

Peak level 66.8 %
Extraction speed 21.2 X
Track quality 100.0 %
Test CRC DB2368E6
Copy CRC DB2368E6
Accurately ripped (confidence 24) [38465479] (AR v2)
Copy OK


All tracks accurately ripped

No errors occurred

End of status report

–– CUETools DB Plugin V2.1.6

[CTDB TOCID: n21vaSQqSAiENbr1KBWtaTlAADw-] found
Submit result: n21vaSQqSAiENbr1KBWtaTlAADw- has been confirmed
Track | CTDB Status
1 | (10/10) Accurately ripped
2 | (10/10) Accurately ripped
3 | (10/10) Accurately ripped
4 | (10/10) Accurately ripped
5 | (10/10) Accurately ripped
6 | (10/10) Accurately ripped
7 | (10/10) Accurately ripped
8 | (10/10) Accurately ripped
9 | (10/10) Accurately ripped
10 | (10/10) Accurately ripped
11 | (10/10) Accurately ripped
12 | (10/10) Accurately ripped
13 | (10/10) Accurately ripped
14 | (10/10) Accurately ripped
15 | (10/10) Accurately ripped
16 | (10/10) Accurately ripped


==== Log checksum 378086E5D3BFF04C9EC67C70923A7DC74D7CAD617D3D48538D2BD719929842AD ====

foobar2000 1.2 / Dynamic Range Meter 1.1.1
log date: 2016-03-14 18:40:48

––––––––––––––––––––––––––––––––––––––––
Analyzed: Todd Rundgren / Runt / The Ballad of Todd Rundgren
––––––––––––––––––––––––––––––––––––––––

DR Peak RMS Duration Track
––––––––––––––––––––––––––––––––––––––––
DR13 -0.11 dB -15.40 dB 3:27 01-Long Flowing Robe
DR12 -2.53 dB -16.92 dB 3:07 02-The Ballad (Denny & Jean)
DR12 -0.61 dB -15.32 dB 3:59 03-Bleeding
DR11 -4.20 dB -19.49 dB 3:06 04-Wailing Wall
DR11 -2.66 dB -16.78 dB 2:39 05-The Range War
DR11 -1.15 dB -14.90 dB 5:04 06-Chain Letter
DR10 -1.05 dB -15.15 dB 2:14 07-A Long Time, A Long Way To Go
DR12 -0.91 dB -17.28 dB 4:28 08-Boat On The Charles
DR12 -2.90 dB -18.57 dB 3:25 09-Be Nice To Me
DR13 -1.14 dB -17.76 dB 4:54 10-Hope I'm Around
DR11 -1.47 dB -13.98 dB 4:20 11-Parole
DR12 -4.80 dB -22.95 dB 0:55 12-Remember Me
DR7 -3.50 dB -11.13 dB 4:59 13-Broke Down And Busted (live at Carnegie Hall 6/8/72)
DR11 -2.50 dB -15.04 dB 2:21 14-Believe In Me (live WMMR-FM 6/30/71)
DR10 -2.50 dB -15.14 dB 3:31 15-Be Nice To Me (live WMMR-FM 6/30/71)
DR7 -3.50 dB -11.81 dB 2:38 16-Hold Me Tight (live WMMR-FM 6/30/71)
––––––––––––––––––––––––––––––––––––––––

Number of tracks: 16
Official DR value: DR11

Samplerate: 44100 Hz
Channels: 2
Bits per sample: 16
Bitrate: 976 kbps
Codec: FLAC
================================================================================

Todd Rundgren - Runt (1970) + Runt. The Ballad Of Todd Rundgren (1971) 2CD Expanded Remastered 2011 [Re-Up]

Todd Rundgren - Runt (1970) + Runt. The Ballad Of Todd Rundgren (1971) 2CD Expanded Remastered 2011 [Re-Up]

All thanks to original releaser - drkmvs

More interesting music in My Blog