Subcategories

Tony Ashton & Jon Lord - First Of The Big Bands (1974) {2016, Reissue}

Posted By: popsakov
Tony Ashton & Jon Lord - First Of The Big Bands (1974) {2016, Reissue}

Tony Ashton & Jon Lord - First Of The Big Bands (1974) {2016, Reissue}
EAC Rip | FLAC (Img) + Cue + Log ~ 231 Mb | MP3 CBR320 ~ 108 Mb
Full Scans | 00:37:48 | RAR 5% Recovery
Line Records #LICD9-0119 O | Unofficial Release
Jazz Rock / Progressive Rock / Classic Rock

First of the Big Bands is a studio album by Tony Ashton of Ashton, Gardner and Dyke and Jon Lord of Deep Purple, released in April 1974 by Purple Records in the UK and Europe and Warner Bros. Records in the US. The project was Ashton's and Lord's brainchild and continuation of their working relationship after Ashton Gardner & Dyke helped out on Jon Lord's soundtrack album The Last Rebel from 1971. Stylistically, First of the Big Bands was the precursor to Paice Ashton Lord's Malice in Wonderland album from 1977. Most of the album was recorded at Air and Apple Studios, London, with additional work being completed at De Lane Lea and Island.

***************

Tony Ashton & Jon Lord - First Of The Big Bands (1974) {2016, Reissue}

Tony Ashton & Jon Lord - First Of The Big Bands (1974) {2016, Reissue}

Track List:

01. We're Gonna Make It [4:00]
02. Downside Upside Down [4:03]
03. Band Of The Salvation Army Band [3:59]
04. Silly Boy [3:27]
05. Surrender Me [3:52]
06. Celebration [4:35]
07. I Been Lonely [4:00]
08. Shut Up [3:40]
09. Ballad Of Mr. Giver [6:11]

Personnel:
Tony Ashton - Hammond organ, piano, vocals
Jon Lord - Hammond organ, piano
Carmine Appice - Drums
Cozy Powell - Drums
Terry Cox - Drums
Ian Paice - Drums
Frank Ricotti - Percussion, vibraphone
Jim Cregan - Guitar
Jerry Donahue - Guitar
Peter Frampton - Guitar
Pat Donaldson - Bass guitar
Dave Caswell - Trumpet
Mike Davis - Trumpet
John Mumford - Trombone
Dick Parry - Saxophone
Howie Casey - Saxophone
Madeline Bell - Backup vocals
Tony Ferguson - Backing vocals
Jimmy Helms - Backing vocals
Kenny Rowe - Backing vocals
Graham White - Backing vocals
Jo Ann Williams - Backing vocals
Roger Willis - Backing vocals

Exact Audio Copy V1.1 from 23. June 2015

EAC extraction logfile from 5. November 2016, 20:18

Tony Ashton & Jon Lord / First Of The Big Bands

Used drive : PIONEER BD-RW BDR-209D Adapter: 0 ID: 5

Read mode : Secure
Utilize accurate stream : Yes
Defeat audio cache : Yes
Make use of C2 pointers : No

Read offset correction : 667
Overread into Lead-In and Lead-Out : No
Fill up missing offset samples with silence : Yes
Delete leading and trailing silent blocks : No
Null samples used in CRC calculations : Yes
Used interface : Installed external ASPI interface

Used output format : User Defined Encoder
Selected bitrate : 768 kBit/s
Quality : High
Add ID3 tag : No
Command line compressor : C:\Program Files (x86)\Exact Audio Copy\FLAC\FLAC.EXE
Additional command line options : -6 -V -T "ARTIST=%artist%" -T "TITLE=%title%" -T "ALBUM=%albumtitle%" -T "DATE=%year%" -T "TRACKNUMBER=%tracknr%" -T "GENRE=%genre%" -T "COMMENT=%comment%" -T "BAND=%albuminterpret%" -T "ALBUMARTIST=%albuminterpret%" -T "COMPOSER=%composer%" %haslyrics%–tag-from-file=LYRICS="%lyricsfile%"%haslyrics% -T "DISCNUMBER=%cdnumber%" -T "TOTALDISCS=%totalcds%" -T "TOTALTRACKS=%numtracks%" %hascover%–picture="%coverfile%"%hascover% %source% -o %dest%


TOC of the extracted CD

Track | Start | Length | Start sector | End sector
––––––––––––––––––––––––––––-
1 | 0:00.00 | 4:00.25 | 0 | 18024
2 | 4:00.25 | 4:03.25 | 18025 | 36274
3 | 8:03.50 | 3:59.25 | 36275 | 54224
4 | 12:03.00 | 3:27.00 | 54225 | 69749
5 | 15:30.00 | 3:52.25 | 69750 | 87174
6 | 19:22.25 | 4:34.50 | 87175 | 107774
7 | 23:57.00 | 3:59.62 | 107775 | 125761
8 | 27:56.62 | 3:40.13 | 125762 | 142274
9 | 31:37.00 | 6:11.00 | 142275 | 170099


Range status and errors

Selected range

Filename E:\MUSIC\Tony Ashton & Jon Lord - First Of The Big Bands.wav

Peak level 98.7 %
Extraction speed 7.3 X
Range quality 100.0 %
Test CRC 514D8C2C
Copy CRC 514D8C2C
Copy OK

No errors occurred


AccurateRip summary

Track 1 cannot be verified as accurate (confidence 2) [FA9DEE0F], AccurateRip returned [7C15E92E] (AR v2)
Track 2 cannot be verified as accurate (confidence 2) [DCA99FC2], AccurateRip returned [2E5DB3EE] (AR v2)
Track 3 cannot be verified as accurate (confidence 2) [749EC8AD], AccurateRip returned [36D64665] (AR v2)
Track 4 cannot be verified as accurate (confidence 2) [91F007AE], AccurateRip returned [BB6F8099] (AR v2)
Track 5 cannot be verified as accurate (confidence 2) [74524A24], AccurateRip returned [58E5925D] (AR v2)
Track 6 cannot be verified as accurate (confidence 2) [C4C2740C], AccurateRip returned [0712C174] (AR v2)
Track 7 cannot be verified as accurate (confidence 2) [30A0921D], AccurateRip returned [8AEEA62A] (AR v2)
Track 8 cannot be verified as accurate (confidence 2) [25CFFBDB], AccurateRip returned [A21FCCF2] (AR v2)
Track 9 cannot be verified as accurate (confidence 2) [26EF7BB9], AccurateRip returned [249CC7AC] (AR v2)

No tracks could be verified as accurate
You may have a different pressing from the one(s) in the database

End of status report

==== Log checksum B1F487CA8561FC7CDEEC9215539DBE3B257D0C3ACDCF01BDFA5C26736334B216 ====

[CUETools log; Date: 13.11.2016 3:46:59; Version: 2.1.5]
[CTDB TOCID: i_ji__9NWIRqJEuwP62OTZbIBxQ-] found.
Track | CTDB Status
1 | (8/8) Accurately ripped
2 | (8/8) Accurately ripped
3 | (8/8) Accurately ripped
4 | (8/8) Accurately ripped
5 | (8/8) Accurately ripped
6 | (7/8) Accurately ripped
7 | (8/8) Accurately ripped
8 | (8/8) Accurately ripped
9 | (7/8) Accurately ripped
[AccurateRip ID: 000c6162-005b2e14-8508dc09] found.
Track [ CRC | V2 ] Status
01 [a8c4ca3b|fa9dee0f] (0+0/6) No match
02 [5193b590|dca99fc2] (0+0/6) No match
03 [177a25d6|749ec8ad] (0+0/6) No match
04 [1b591261|91f007ae] (0+0/6) No match
05 [bdd9dd76|74524a24] (0+0/6) No match
06 [9ad052c7|c4c2740c] (0+0/6) No match
07 [08d796df|30a0921d] (0+0/6) No match
08 [8c124bbb|25cffbdb] (0+0/6) No match
09 [bf386f35|26ef7bb9] (0+0/6) No match
Offsetted by 169:
01 [7c15e92e] (2/6) Accurately ripped
02 [2e5db3ee] (2/6) Accurately ripped
03 [36d64665] (2/6) Accurately ripped
04 [bb6f8099] (2/6) Accurately ripped
05 [58e5925d] (2/6) Accurately ripped
06 [0712c174] (2/6) Accurately ripped
07 [8aeea62a] (2/6) Accurately ripped
08 [a21fccf2] (2/6) Accurately ripped
09 [249cc7ac] (2/6) Accurately ripped
Offsetted by 1852:
01 [fc810eba] (2/6) Accurately ripped
02 [2cdea348] (2/6) Accurately ripped
03 [aae0bc64] (2/6) Accurately ripped
04 [47013c12] (2/6) Accurately ripped
05 [24a3bc25] (2/6) Accurately ripped
06 [287def82] (2/6) Accurately ripped
07 [4d374c94] (2/6) Accurately ripped
08 [8d174a23] (2/6) Accurately ripped
09 [0f943c47] (2/6) Accurately ripped

Track Peak [ CRC32 ] [W/O NULL] [ LOG ]
– 98,7 [514D8C2C] [18678EB6] CRC32
01 80,2 [E0F4F657] [898B83A2]
02 98,7 [BEC0CDBB] [26907A46]
03 91,0 [4508D582] [C50A285E]
04 77,2 [A2307DC6] [A478BBD9]
05 78,9 [49D000AB] [083A990C]
06 76,9 [6CF54132] [19267A1E]
07 92,7 [85375640] [18A98B68]
08 90,9 [554BE026] [8B761564]
09 71,2 [CFD1796F] [FD743AB6]

Tony Ashton & Jon Lord - First Of The Big Bands (1974) {2016, Reissue}


All thanks go to RD

>>> My Blog <<<

DOWNLOAD: