Subcategories

Tony Joe White - Uncovered (2006)

Posted By: Designol
Tony Joe White - Uncovered (2006)

Tony Joe White - Uncovered (2006)
EAC | FLAC | Image (Cue&Log) ~ 318 Mb (incl 5%) | Mp3 (CBR320) ~ 128 Mb (incl 5%) | Scans ~ 167 Mb
Genre: Singer/Songwriter, Blues, Swamp Blues, Country Rock | Label: Swamp Records | # 7707243-2 | Time: 00:53:28

Tony Joe White says he always saw the friends he invited to play on his new album–Eric Clapton, Mark Knopfler, J.J. Cale, Michael McDonald, and the late Waylon Jennings–as "keepers of the fire." They're also premier custodians of loneliness and despair, the two emotions that lie at the heart of this hypnotic submersion into country/swamp blues. From the kickoff track, "Run for Cover," with Wayne Jackson of the Memphis Horns, these meditations on mourning–lost lovers, spiritual struggles, anxiety that knows no name and no bottom–grab the listener fast and pull him down into swirling dark waters. For that reason, there's a numbing sameness–on occasion, two songs back-to-back seem to simply be extensions of each other. But while Jennings's effort is more a portrait of the artist testing his chops after suffering a stroke, other collaborations stick in the mind. The dour Knopfler shows up on the most optimistic song, "Not One Bad Thought," but his vocals still sound like the barely uttered words of a depressive on a bad down. Clapton's voice remains characteristically modest on "Did Somebody Make a Fool Out of You," yet his guitar work–measured and full of emotion–proves what you don't play is as important as what you do. Still, the best pairing is that with Michael McDonald on "Baby, Don't Look Down." When White's smoky rumble meets McDonald's bruised, angelic tenor, you'll know why God made music.

Review by Alanna Nash, Amazon.com

Swamp Fox indeed. At this juncture, Tony Joe White should be called the Swamp Monster because on Uncovered he takes it to the limit. There are seven new cuts on Uncovered, and reworked versions of "Rainy Night in Georgia," "Taking the Midnight Train," and "Did Somebody Make a Fool Out of You." White has been making records for a long time, though not many in the U.S. noticed after the late '70s. Since late in the last century, White has been kicking them out from his home studio in Nash Vegas. The sound is trademark, slow-burning, and growling. It's sultry as a late August night in the bayou. There are also, as is becoming de rigueur for legends these days, some surprise guest appearances. White has used them before and recently, on his killer Heroines set, where he played and sang with Shelby Lynne, Lucinda Williams, and Emmylou Harris. This time out he's got some great partners. He cut "Not One Bad Thought," with Mark Knopfler. The skittering interplay between them is worth the disc price to be sure. The pair apparently got together around a campfire with some food and beer and played the tune there first; they cut it in the studio shortly thereafter. Michael McDonald – yep, that one – guests on piano and vocals on "Don't Look Down," and it works like a charm, surprisingly. But the biggest news here is "Shakin' the Blues" with the late Waylon Jennings. It's one of the last performances he ever wrote or laid down on tape, and the pair feel like the old friends they are. White can sing or play with anybody, which is why his music translated so well to other performers – primarily soul and R&B artists – but when collaborating, that guitar and slow, drawling menace are so sinister, there's no mistake about whose tune it is. Only on "Shakin the Blues" does that feel different, because of the sheer strength of Jennings' enigma. On other tracks, such as "Louvelda," J.J. Cale contributed from Oklahoma, and wrote and sang two new verses for the song. Eric Clapton recorded his additions to "Did Somebody Make a Fool Out of You" from London and sent them – ahhhh – via digital technology. The whispering, funky blues of "Rebellion" when White lets it rip is another high point, and his band is perfectly suited to his pace and tension dynamic. "Rainy Night in Georgia," suffers not a bit from having been re-recorded. It's still one of the most beautiful songs to come out of the Deep South. The disc ends on an evil note with "Keeper of the Fire," with its fuzzed-out blues simmer and soulful backing vocals by Odessa Settles, and a horn section featuring Wayne Jackson on trumpet. White never needs to raise his voice because the power in its nearly whispered restraint has all the power of a slow-burning fire that becomes a blaze. For those who didn't already know, White is back – with a vengeance.

Review by Thom Jurek, Allmusic.com

Tony Joe White - Uncovered (2006)



Tracklist:

01. Run for Cover (04:42)
02. Not One Bad Thought [w. Mark Knopfler] (05:35)
03. Did Somebody Make a Fool Out of You [w. Eric Clapton] (04:50)
04. Louvelda [w. J.J. Cale] (07:33)
05. Rebellion (05:24)
06. Shakin' the Blues [w. Waylon Jennings] (05:19)
07. Rainy Night in Georgia (05:48)
08. Baby Don't Look Down [w. Michael McDonald] (04:48)
09. Taking the Midnight Train (04:34)
10. Keeper of the Fire (04:50)


Exact Audio Copy V1.0 beta 3 from 29. August 2011

EAC extraction logfile from 2. June 2014, 19:09

Tony Joe White / Uncovered

Used drive : PLEXTOR DVDR PX-891SA Adapter: 0 ID: 2

Read mode : Secure
Utilize accurate stream : Yes
Defeat audio cache : Yes
Make use of C2 pointers : No

Read offset correction : 6
Overread into Lead-In and Lead-Out : No
Fill up missing offset samples with silence : Yes
Delete leading and trailing silent blocks : No
Null samples used in CRC calculations : Yes
Used interface : Installed external ASPI interface

Used output format : User Defined Encoder
Selected bitrate : 320 kBit/s
Quality : High
Add ID3 tag : No
Command line compressor : C:\Program Files\Exact Audio Copy 1.0\Flac\flac.exe
Additional command line options : -V -8 -T "Date=%year%" -T "Genre=%genre%" %source%


TOC of the extracted CD

Track | Start | Length | Start sector | End sector
––––––––––––––––––––––––––––-
1 | 0:00.00 | 4:42.08 | 0 | 21157
2 | 4:42.08 | 5:35.36 | 21158 | 46318
3 | 10:17.44 | 4:50.06 | 46319 | 68074
4 | 15:07.50 | 7:33.39 | 68075 | 102088
5 | 22:41.14 | 5:24.48 | 102089 | 126436
6 | 28:05.62 | 5:19.30 | 126437 | 150391
7 | 33:25.17 | 5:49.00 | 150392 | 176566
8 | 39:14.17 | 4:48.41 | 176567 | 198207
9 | 44:02.58 | 4:34.54 | 198208 | 218811
10 | 48:37.37 | 4:50.34 | 218812 | 240595


Range status and errors

Selected range

Filename K:\Lossless Temp\Tony Joe White\Tony Joe White - Uncovered - 2006 (2006 Swamp Records LLC, 7707243-2, USA)\Tony Joe White - Uncovered.wav

Peak level 98.8 %
Extraction speed 6.1 X
Range quality 100.0 %
Test CRC E5B69AD8
Copy CRC E5B69AD8
Copy OK

No errors occurred


AccurateRip summary

Track 1 accurately ripped (confidence 11) [E74918D4] (AR v2)
Track 2 accurately ripped (confidence 11) [7F7FBA6F] (AR v2)
Track 3 accurately ripped (confidence 11) [EDF98B54] (AR v2)
Track 4 accurately ripped (confidence 11) [562EC527] (AR v2)
Track 5 accurately ripped (confidence 11) [0D64CCF9] (AR v2)
Track 6 accurately ripped (confidence 11) [41E3B2FA] (AR v2)
Track 7 accurately ripped (confidence 11) [13FBC594] (AR v2)
Track 8 accurately ripped (confidence 11) [EDE51BBA] (AR v2)
Track 9 accurately ripped (confidence 11) [6BCD355B] (AR v2)
Track 10 accurately ripped (confidence 9) [77A44FEC] (AR v2)

All tracks accurately ripped

End of status report

==== Log checksum AEEE0C709E381B3A3468F6E62DCFAE0446F720B3DAF4BF18B8472BC312FAEFEA ====

foobar2000 1.2 / Dynamic Range Meter 1.1.1
log date: 2015-09-03 13:30:13

––––––––––––––––––––––––––––––––––––––––
Analyzed: Tony Joe White / Uncovered
––––––––––––––––––––––––––––––––––––––––

DR Peak RMS Duration Track
––––––––––––––––––––––––––––––––––––––––
DR10 -0.10 dB -12.71 dB 4:42 01-Run for Cover
DR12 -0.10 dB -13.13 dB 5:35 02-Not One Bad Thought [w. Mark Knopfler]
DR14 -0.10 dB -16.96 dB 4:50 03-Did Somebody Make a Fool Out of You [w. Eric Clapton]
DR13 -0.10 dB -14.68 dB 7:34 04-Louvelda [w. J.J. Cale]
DR12 -0.10 dB -13.91 dB 5:25 05-Rebellion
DR11 -0.10 dB -12.92 dB 5:19 06-Shakin' the Blues [w. Waylon Jennings]
DR9 -0.10 dB -11.98 dB 5:49 07-Rainy Night in Georgia
DR12 -0.10 dB -13.71 dB 4:49 08-Baby Don't Look Down [w. Michael McDonald]
DR13 -0.10 dB -15.22 dB 4:35 09-Taking the Midnight Train
DR12 -0.10 dB -13.81 dB 4:50 10-Keeper of the Fire
––––––––––––––––––––––––––––––––––––––––

Number of tracks: 10
Official DR value: DR12

Samplerate: 44100 Hz
Channels: 2
Bits per sample: 16
Bitrate: 793 kbps
Codec: FLAC
================================================================================

Tony Joe White - Uncovered (2006)

Tony Joe White - Uncovered (2006)