Tags
Language
Tags

Townes Van Zandt - For The Sake Of The Song (1968) + Our Mother the Mountain (1969) 2CD Set, Remastered 2014

Posted By: Designol
Townes Van Zandt - For The Sake Of The Song (1968) + Our Mother the Mountain (1969) 2CD Set, Remastered 2014

Townes Van Zandt - For The Sake Of The Song (1968) + Our Mother the Mountain (1969) 2CDs
EAC | FLAC | Image (Cue&Log) ~ 382 Mb | Mp3 (CBR320) ~ 166 Mb | Scans ~ 517 Mb
Singer/Songwriter, Country, Country-Folk, Country-Rock | Charly | # CHARLY X 674 | 01:17:21

Townes Van Zandt was a one-of-a-kind artist who blazed a new trail for singer/songwriters, conjuring a sound that combined elements of country and folk with his own artful melodic sensibility, matched with lyrics that were personal, poetic, and impressionistic while remaining firmly down to earth. A new breed of Texas singer/songwriters followed Van Zandt's example, and it's all but impossible to imagine artists like Guy Clark, Jimmie Dale Gilmore, or Steve Earle finding their voice without his guiding influence. This two-disc set features Van Zandt's first two albums, 1968's For the Sake of the Song and 1969's Our Mother the Mountain. While both albums suffer from production that's somewhat intrusive, featuring tricked-up arrangements that take away more than they add to the songs, they feature some of Van Zandt's signature songs, including "Tecumseh Valley," "(Quicksilver Dreams Of) Maria," "I'll Be There in the Morning," "Kathleen," "Be Here to Love Me," and "My Proud Mountains," and Van Zandt's own performances are strong and compelling; while a number of great artists have covered his songs, Van Zandt always remained the canniest interpreter of his own material. These two albums don't represent Van Zandt's best recorded work, but they capture the young artist when he was fresh to recording and eager to present his work to the world; these albums are essential to anyone interested in Van Zandt's work, making this a wise purchase for those introducing themselves to his songs.

Review by Mark Deming, Allmusic.com

Townes Van Zandt - For The Sake Of The Song (1968) + Our Mother the Mountain (1969) 2CD Set, Remastered 2014



Tracklist:

CD1 - For The Sake Of The Song (1968):

01. For the Sake of the Song (04:47)
02. Tecumseh Valley (02:43)
03. Many A Fine Lady (03:53)
04. Quicksilver Daydreams of Maria (03:41)
05. Waitin' Around to Die (02:25)
06. I'll Be There in the Morning (02:47)
07. Sad Cinderella (04:42)
08. The Velvet Voices (03:15)
09. Talkin' Karate Blues (02:59)
10. All Your Young Servants (03:07)
11. Sixteen Summers, Fifteen Falls (02:35)

CD2 - Our Mother the Mountain (1969):

01. Be Here To Love Me (02:38)
02. Kathleen (02:47)
03. She Came And She Touched Me (04:03)
04. Like A Summer Thursday (03:04)
05. Our Mother The Mountain (04:22)
06. Second Lovers Song (02:16)
07. St. John The Gambler (03:06)
08. Tecumseh Valley (04:55)
09. Snake Mountain Blues (02:39)
10. My Proud Mountains (05:04)
11. Why She`s Acting This Way (05:23)


Exact Audio Copy V1.0 beta 6 from 9. April 2015

EAC extraction logfile from 12. May 2016, 16:29

Townes Van Zandt / For the sake of the song

Used drive : PLEXTOR DVDR PX-891SA Adapter: 0 ID: 2

Read mode : Secure
Utilize accurate stream : Yes
Defeat audio cache : Yes
Make use of C2 pointers : No

Read offset correction : 6
Overread into Lead-In and Lead-Out : No
Fill up missing offset samples with silence : Yes
Delete leading and trailing silent blocks : No
Null samples used in CRC calculations : Yes
Used interface : Installed external ASPI interface

Used output format : User Defined Encoder
Selected bitrate : 320 kBit/s
Quality : High
Add ID3 tag : No
Command line compressor : C:\Program Files\Exact Audio Copy 1.0 b6\Exact Audio Copy\Flac\flac.exe
Additional command line options : -V -8 -T "Date=%year%" -T "Genre=%genre%" %source%


TOC of the extracted CD

Track | Start | Length | Start sector | End sector
––––––––––––––––––––––––––––-
1 | 0:00.00 | 4:47.05 | 0 | 21529
2 | 4:47.05 | 2:43.12 | 21530 | 33766
3 | 7:30.17 | 3:53.30 | 33767 | 51271
4 | 11:23.47 | 3:41.58 | 51272 | 67904
5 | 15:05.30 | 2:25.48 | 67905 | 78827
6 | 17:31.03 | 2:47.06 | 78828 | 91358
7 | 20:18.09 | 4:42.73 | 91359 | 112581
8 | 25:01.07 | 3:15.21 | 112582 | 127227
9 | 28:16.28 | 2:59.24 | 127228 | 140676
10 | 31:15.52 | 3:07.61 | 140677 | 154762
11 | 34:23.38 | 2:35.23 | 154763 | 166410


Range status and errors

Selected range

Filename L:\Lossless Temp\Townes Van Zandt\2014. Townes Van Zandt - For The Sake Of The Song & Our Mother The Mountain (2014 Charly, CHARLY X 674, Poland)\Disc One - For The Sake Of The Song\Townes Van Zandt - For the sake of the song.wav

Peak level 92.2 %
Extraction speed 7.4 X
Range quality 100.0 %
Test CRC 8ABBDB40
Copy CRC 8ABBDB40
Copy OK

No errors occurred


AccurateRip summary

Track 1 accurately ripped (confidence 1) [64C311EC] (AR v1)
Track 2 accurately ripped (confidence 1) [066BDC90] (AR v1)
Track 3 accurately ripped (confidence 1) [156862D7] (AR v1)
Track 4 accurately ripped (confidence 1) [75BAD23A] (AR v1)
Track 5 accurately ripped (confidence 1) [D63E547D] (AR v1)
Track 6 accurately ripped (confidence 1) [0DE484B0] (AR v1)
Track 7 accurately ripped (confidence 1) [D725382E] (AR v1)
Track 8 accurately ripped (confidence 1) [AC5E1647] (AR v1)
Track 9 accurately ripped (confidence 1) [63E81E21] (AR v1)
Track 10 accurately ripped (confidence 1) [5B9CCF27] (AR v1)
Track 11 accurately ripped (confidence 1) [042375EF] (AR v1)

All tracks accurately ripped

End of status report

==== Log checksum EE9D2D7BCE2E585A136CA515B3BF1AC99F35C68E83B8E67B71FE9AF87A7BC822 ====

foobar2000 1.2 / Dynamic Range Meter 1.1.1
log date: 2016-09-30 16:50:10

––––––––––––––––––––––––––––––––––––––––
Analyzed: Townes Van Zandt / For the sake of the song
––––––––––––––––––––––––––––––––––––––––

DR Peak RMS Duration Track
––––––––––––––––––––––––––––––––––––––––
DR12 -0.70 dB -14.62 dB 4:47 01-For the Sake of the Song
DR12 -2.21 dB -16.80 dB 2:43 02-Tecumseh Valley
DR12 -0.70 dB -15.25 dB 3:53 03-Many A Fine Lady
DR11 -1.87 dB -15.41 dB 3:42 04-Quicksilver Daydreams of Maria
DR11 -0.70 dB -13.60 dB 2:26 05-Waitin' Around to Die
DR11 -0.70 dB -14.80 dB 2:47 06-I'll Be There in the Morning
DR10 -1.76 dB -14.46 dB 4:43 07-Sad Cinderella
DR11 -0.70 dB -13.11 dB 3:15 08-The Velvet Voices
DR11 -0.70 dB -12.77 dB 2:59 09-Talkin' Karate Blues
DR12 -2.87 dB -17.08 dB 3:08 10-All Your Young Servants
DR11 -0.70 dB -14.01 dB 2:35 11-Sixteen Summers, Fifteen Falls
––––––––––––––––––––––––––––––––––––––––

Number of tracks: 11
Official DR value: DR11

Samplerate: 44100 Hz
Channels: 2
Bits per sample: 16
Bitrate: 675 kbps
Codec: FLAC
================================================================================


Exact Audio Copy V1.0 beta 6 from 9. April 2015

EAC extraction logfile from 12. May 2016, 18:00

Townes Van Zandt / Our Mother The Mountain

Used drive : PLEXTOR DVDR PX-891SA Adapter: 0 ID: 2

Read mode : Secure
Utilize accurate stream : Yes
Defeat audio cache : Yes
Make use of C2 pointers : No

Read offset correction : 6
Overread into Lead-In and Lead-Out : No
Fill up missing offset samples with silence : Yes
Delete leading and trailing silent blocks : No
Null samples used in CRC calculations : Yes
Used interface : Installed external ASPI interface

Used output format : User Defined Encoder
Selected bitrate : 320 kBit/s
Quality : High
Add ID3 tag : No
Command line compressor : C:\Program Files\Exact Audio Copy 1.0 b6\Exact Audio Copy\Flac\flac.exe
Additional command line options : -V -8 -T "Date=%year%" -T "Genre=%genre%" %source%


TOC of the extracted CD

Track | Start | Length | Start sector | End sector
––––––––––––––––––––––––––––-
1 | 0:00.00 | 2:38.59 | 0 | 11908
2 | 2:38.59 | 2:47.60 | 11909 | 24493
3 | 5:26.44 | 4:03.54 | 24494 | 42772
4 | 9:30.23 | 3:04.21 | 42773 | 56593
5 | 12:34.44 | 4:22.39 | 56594 | 76282
6 | 16:57.08 | 2:16.57 | 76283 | 86539
7 | 19:13.65 | 3:06.21 | 86540 | 100510
8 | 22:20.11 | 4:55.34 | 100511 | 122669
9 | 27:15.45 | 2:39.47 | 122670 | 134641
10 | 29:55.17 | 5:04.42 | 134642 | 157483
11 | 34:59.59 | 5:23.08 | 157484 | 181716


Range status and errors

Selected range

Filename L:\Lossless Temp\Townes Van Zandt\2014. Townes Van Zandt - For The Sake Of The Song & Our Mother The Mountain (2014 Charly, CHARLY X 674, Poland)\Disc Two - Our Mother The Mountain - 1969\Townes Van Zandt - Our Mother The Mountain.wav

Peak level 92.2 %
Extraction speed 7.5 X
Range quality 100.0 %
Test CRC 5D31B51B
Copy CRC 5D31B51B
Copy OK

No errors occurred


AccurateRip summary

Track 1 accurately ripped (confidence 1) [38354768] (AR v1)
Track 2 accurately ripped (confidence 1) [0577A6FE] (AR v1)
Track 3 accurately ripped (confidence 1) [96101BB7] (AR v1)
Track 4 accurately ripped (confidence 1) [E0AAF573] (AR v1)
Track 5 accurately ripped (confidence 1) [7BC5EBB1] (AR v1)
Track 6 accurately ripped (confidence 1) [8EE4C8C2] (AR v1)
Track 7 accurately ripped (confidence 1) [3DC633A0] (AR v1)
Track 8 accurately ripped (confidence 1) [53FABA25] (AR v1)
Track 9 accurately ripped (confidence 1) [33C4EE90] (AR v1)
Track 10 accurately ripped (confidence 1) [D90787DD] (AR v1)
Track 11 accurately ripped (confidence 1) [7C9CECD5] (AR v1)

All tracks accurately ripped

End of status report

==== Log checksum C00814C071949B4CCA08AAEA411F91A546B3824D3FBE8C36EDEC39041F3D02DB ====

foobar2000 1.2 / Dynamic Range Meter 1.1.1
log date: 2016-09-30 16:50:24

––––––––––––––––––––––––––––––––––––––––
Analyzed: Townes Van Zandt / Our Mother The Mountain
––––––––––––––––––––––––––––––––––––––––

DR Peak RMS Duration Track
––––––––––––––––––––––––––––––––––––––––
DR11 -2.90 dB -16.01 dB 2:39 01-Be Here To Love Me
DR12 -4.34 dB -20.04 dB 2:48 02-Kathleen
DR11 -3.63 dB -15.55 dB 4:04 03-She Came And She Touched Me
DR12 -3.23 dB -18.26 dB 3:04 04-Like A Summer Thursday
DR12 -0.70 dB -15.48 dB 4:23 05-Our Mother The Mountain
DR11 -3.04 dB -17.22 dB 2:17 06-Second Lovers Song
DR11 -2.65 dB -16.07 dB 3:06 07-St. John The Gambler
DR11 -2.39 dB -16.86 dB 4:55 08-Tecumseh Valley
DR11 -3.00 dB -15.65 dB 2:40 09-Snake Mountain Blues
DR11 -4.41 dB -19.74 dB 5:05 10-My Proud Mountains
DR11 -2.71 dB -16.13 dB 5:23 11-Why She`s Acting This Way
––––––––––––––––––––––––––––––––––––––––

Number of tracks: 11
Official DR value: DR11

Samplerate: 44100 Hz
Channels: 2
Bits per sample: 16
Bitrate: 706 kbps
Codec: FLAC
================================================================================

Townes Van Zandt - For The Sake Of The Song (1968) + Our Mother the Mountain (1969) 2CD Set, Remastered 2014

Townes Van Zandt - For The Sake Of The Song (1968) + Our Mother the Mountain (1969) 2CD Set, Remastered 2014

All thanks to original releaser - Swamp Fox

More interesting music in My Blog