Tags
Language
Tags

Tracy Chapman - Collection (2001) [Re-Up]

Posted By: Designol
Tracy Chapman - Collection (2001) [Re-Up]

Tracy Chapman - Collection (2001)
EAC | FLAC | Image (Cue&Log) ~ 454 Mb | Mp3 (CBR320) ~ 194 Mb
Label: Elektra | # 7559-62700-2 | Scans included | 01:12:54
Singer/Songwriter, Folk, Alternative Folk, Folk Rock

Collection is a greatest hits album by Tracy Chapman, it features tracks from her first five studio albums. The tracks include her two U.S. Top Tens, "Fast Car" and "Give Me One Reason". Other charted singles on this album include "Talkin' 'bout a Revolution", "Crossroads", "Telling Stories", and "Baby Can I Hold You".

The 2001 Collection is the first compilation to round up Tracy Chapman's key tracks, and it succeeds on every level. All the hits (and almost-hits) are here, beginning with her two U.S. Top Tens – the legendary "Fast Car" and the bluesy comeback hit "Give Me One Reason." Other charted singles on this album include the fiery, politically charged "Talkin' Bout a Revolution," the ghostly, self-determined "Crossroads," the 2000 single "Telling Stories," and "Baby Can I Hold You," arguably one of the most stirring and beautiful songs ever recorded. In fact, this set features tracks from all five of Chapman's albums, but, since her musical output has been so consistent, several favorites, such as "Freedom Now" from Crossroads, were left off, and Matters of the Heart is represented only by two tracks. Regardless, every song on this collection is a gem, but, in reality, nothing compares to the modern masterpieces she created with the emotional car wreck that is "Fast Car" and the touching, desperate love plea that is "Baby Can I Hold You." A wonderful collection, representing some of the finest work from one of the latter 20th century's most celebrated American artists.

Review by Jose F. Promis, Allmusic.com

Tracy Chapman - Collection (2001) [Re-Up]



Tracklist:

01. Fast Car (04:58)
02. Subcity (05:12)
03. Baby Can I Hold You (03:14)
04. The Promise (05:28)
05. I'm Ready (04:56)
06. Crossroads (04:13)
07. Bang Bang Bang (04:22)
08. Telling Stories (03:58)
09. Smoke And Ashes (06:39)
10. Speak the Word (04:13)
11. Wedding Song (04:36)
12. Open Arms (04:34)
13. Give Me One Reason (04:29)
14. Talkin' Bout A Revolution (02:40)
15. She's Got Her Ticket (03:56)
16. All That You Have Is Your Soul (05:18)


Exact Audio Copy V0.99 prebeta 3 from 28. July 2007

EAC extraction logfile from 23. January 2008, 11:29

Tracy Chapman / Collection

Used drive : _NEC DVD_RW ND-3550A Adapter: 5 ID: 0

Read mode : Secure
Utilize accurate stream : Yes
Defeat audio cache : Yes
Make use of C2 pointers : No

Read offset correction : 48
Overread into Lead-In and Lead-Out : No
Fill up missing offset samples with silence : Yes
Delete leading and trailing silent blocks : No
Null samples used in CRC calculations : No
Used interface : Installed external ASPI interface

Used output format : User Defined Encoder
Selected bitrate : 768 kBit/s
Quality : High
Add ID3 tag : No
Command line compressor : C:\Programmi\Exact Audio Copy\FLAC\FLAC.EXE
Additional command line options : -6 -V -T "ARTIST=%a" -T "TITLE=%t" -T "ALBUM=%g" -T "DATE=%y" -T "TRACKNUMBER=%n" -T "GENRE=%m" -T "COMMENT=%e" %s -o %d


TOC of the extracted CD

Track | Start | Length | Start sector | End sector
––––––––––––––––––––––––––––-
1 | 0:00.00 | 4:58.70 | 0 | 22419
2 | 4:58.70 | 5:12.42 | 22420 | 45861
3 | 10:11.37 | 3:14.38 | 45862 | 60449
4 | 13:26.00 | 5:28.05 | 60450 | 85054
5 | 18:54.05 | 4:56.20 | 85055 | 107274
6 | 23:50.25 | 4:13.05 | 107275 | 126254
7 | 28:03.30 | 4:22.42 | 126255 | 145946
8 | 32:25.72 | 3:58.63 | 145947 | 163859
9 | 36:24.60 | 6:39.15 | 163860 | 193799
10 | 43:04.00 | 4:13.25 | 193800 | 212799
11 | 47:17.25 | 4:36.45 | 212800 | 233544
12 | 51:53.70 | 4:34.62 | 233545 | 254156
13 | 56:28.57 | 4:29.63 | 254157 | 274394
14 | 60:58.45 | 2:40.42 | 274395 | 286436
15 | 63:39.12 | 3:56.43 | 286437 | 304179
16 | 67:35.55 | 5:18.05 | 304180 | 328034


Range status and errors

Selected range

Filename D:\Documents and Settings\salvo.SN116508160310\Documenti\Tracy Chapman - Collection.wav

Peak level 99.9 %
Range quality 100.0 %
Test CRC 79B834F4
Copy CRC 79B834F4
Copy OK

No errors occurred


AccurateRip summary

Track 1 accurately ripped (confidence 11) [A7695438]
Track 2 accurately ripped (confidence 11) [960CBBDD]
Track 3 accurately ripped (confidence 11) [5C61C5DD]
Track 4 accurately ripped (confidence 12) [C174E4A6]
Track 5 accurately ripped (confidence 11) [3A2CFA31]
Track 6 accurately ripped (confidence 12) [2AB63DBE]
Track 7 accurately ripped (confidence 11) [F3F730EF]
Track 8 accurately ripped (confidence 11) [CB120FCA]
Track 9 accurately ripped (confidence 11) [A9D56911]
Track 10 accurately ripped (confidence 11) [F2C87B43]
Track 11 accurately ripped (confidence 11) [6ED165D6]
Track 12 accurately ripped (confidence 11) [543A8CB3]
Track 13 accurately ripped (confidence 11) [CF360577]
Track 14 accurately ripped (confidence 11) [E259F91C]
Track 15 accurately ripped (confidence 11) [B0B5F5FD]
Track 16 accurately ripped (confidence 11) [72225FFF]

All tracks accurately ripped

End of status report

foobar2000 1.2 / Dynamic Range Meter 1.1.1
log date: 2014-03-13 18:19:23

––––––––––––––––––––––––––––––––––––––––
Analyzed: Tracy Chapman / Collection
––––––––––––––––––––––––––––––––––––––––

DR Peak RMS Duration Track
––––––––––––––––––––––––––––––––––––––––
DR15 0.00 dB -18.43 dB 4:59 01-Fast Car
DR15 -0.54 dB -17.26 dB 5:13 02-Subcity
DR15 0.00 dB -17.23 dB 3:15 03-Baby Can I Hold You
DR12 -2.20 dB -16.76 dB 5:28 04-The Promise
DR11 -0.44 dB -13.27 dB 4:56 05-I'm Ready
DR12 -1.02 dB -14.86 dB 4:13 06-Crossroads
DR11 -0.08 dB -12.37 dB 4:23 07-Bang Bang Bang
DR11 -0.07 dB -12.84 dB 3:59 08-Telling Stories
DR11 -0.37 dB -13.48 dB 6:39 09-Smoke And Ashes
DR11 -0.60 dB -12.74 dB 4:13 10-Speak the Word
DR11 -0.38 dB -13.43 dB 4:37 11-Wedding Song
DR10 -1.47 dB -13.20 dB 4:35 12-Open Arms
DR11 -0.50 dB -13.33 dB 4:30 13-Give Me One Reason
DR13 -0.01 dB -14.89 dB 2:41 14-Talkin' Bout A Revolution
DR15 0.00 dB -17.54 dB 3:57 15-She's Got Her Ticket
DR14 -2.65 dB -20.30 dB 5:18 16-All That You Have Is Your Soul
––––––––––––––––––––––––––––––––––––––––

Number of tracks: 16
Official DR value: DR12

Samplerate: 44100 Hz
Channels: 2
Bits per sample: 16
Bitrate: 819 kbps
Codec: FLAC
================================================================================

Tracy Chapman - Collection (2001) [Re-Up]

Tracy Chapman - Collection (2001) [Re-Up]