Tags
Language
Tags

Trevor Pinnock, The English Concert - Gloria: Vivaldi, Corelli, A. Scarlatti (1993)

Posted By: ArlegZ
Trevor Pinnock, The English Concert - Gloria: Vivaldi, Corelli, A. Scarlatti (1993)

Trevor Pinnock, The English Concert - Gloria: Vivaldi, Corelli, A. Scarlatti (1993)
EAC | FLAC | Image (Cue & Log) ~ 291 Mb | Total time: 60:55 | Scans included
Classical | Label: Archiv Produktion | # 437 834-2 | Recorded: 1992

This DG Archiv compilation, subtitled “Christmas in Rome” was recorded by English forces directed by Trevor Pinnock a quarter of a century ago in the resonant acoustic of the magnificent church of Santa Maria Maggiore and has worn very well. It comprises three festive works from contemporaneous, Italian baroque composers, although the Scarlatti item is certainly less familiar or celebrated than the other two. Nonetheless, it is worthy to stand alongside them, sweetly and elegantly sung by Nancy Argenta’s silvery (sic) soprano. The forces employed throughout are not large but the performers are robust and energetic, without being frantic, and the astringent original instruments are well tuned.

Performer:
Nancy Argenta, soprano
Jennifer Smith, soprano
Catherine Wyn-Rogers, contralto
Choir of the English Concert
The English Concert
Trevor Pinnock, conductor

Track List:
Alessandro Scarlatti (1660-1725)
O di Betlemme altera
01. 1. Introduzione
02. 2. Recitativo: O di Betlemme altera - 3. Aria: Dal bel seno d'una stella
03. 4. Recitativo: Presa d'uomo la forma - 5. Aria: L'autor d'ogni mio bene
04. 6. Recitativo: Fortunati, fortunati pastori! - 7. Pastorale: Tocco la prima sorte a voi, pastori
Arcangelo Corelli (1653-1713)
Concerto grosso Op. 6 No. 8 in G minor 'Fatto per la notte di Natale'
05. 1. Vivace - Grave
06. 2. Allegro
07. 3. Adagio - Allegro - Adagio
08. 4. Vivace
09. 5. Allegro
10. 6. Pastorale: Largo
Antonio Vivaldi (1678-1741)
Gloria RV589
11. Allegro: Gloria in excelsis
12. Andante: Et in terra pax
13. Allegro: Laudamus te
14. Adagio: Gratias agimus tibi
15. Propter magnum gloriam
16. Largo: Domine Deus, Rex Coelestis
17. Allegro: Domini fili unigenite
18. Adagio: Domine Deus, Agnus Dei
19. Adagio - Allegro: Qui tollis peccata mundi
20. Allegro: Qui sedes ad dexteram patris
21. Allegro: Quoniam tu solus sanctus
22. Allegro: Cum Sancto Spiritu


Exact Audio Copy V1.6 from 23. October 2020

EAC extraction logfile from 17. June 2021, 1:14

Vivaldi, Corelli, Scarlatti - S. O di Betlemme altera, C. Concerto grosso G-Moll Christmas Concerto, V. Gloria - The English Con / The English Concert & Choir

Used drive : ASUS DRW-24B1ST j Adapter: 1 ID: 0

Read mode : Secure
Utilize accurate stream : Yes
Defeat audio cache : Yes
Make use of C2 pointers : No

Read offset correction : 6
Overread into Lead-In and Lead-Out : No
Fill up missing offset samples with silence : Yes
Delete leading and trailing silent blocks : No
Null samples used in CRC calculations : Yes
Used interface : Native Win32 interface for Win NT & 2000

Used output format : User Defined Encoder
Selected bitrate : 896 kBit/s
Quality : High
Add ID3 tag : Yes
Command line compressor : C:\Program Files (x86)\Exact Audio Copy\FLAC\FLAC.EXE
Additional command line options : -6 -V -T "ARTIST=%artist%" -T "TITLE=%title%" -T "ALBUM=%albumtitle%" -T "DATE=%year%" -T "TRACKNUMBER=%tracknr%" -T "GENRE=%genre%" -T "COMMENT=%comment%" -T "BAND=%albuminterpret%" -T "ALBUMARTIST=%albuminterpret%" -T "COMPOSER=%composer%" %haslyrics%–tag-from-file=LYRICS="%lyricsfile%"%haslyrics% -T "DISCNUMBER=%cdnumber%" -T "TOTALDISCS=%totalcds%" -T "TOTALTRACKS=%numtracks%" %hascover%–picture="%coverfile%"%hascover% %source% -o %dest%


TOC of the extracted CD

Track | Start | Length | Start sector | End sector
––––––––––––––––––––––––––––-
1 | 0:00.32 | 1:53.38 | 32 | 8544
2 | 1:53.70 | 2:34.72 | 8545 | 20166
3 | 4:28.67 | 5:03.48 | 20167 | 42939
4 | 9:32.40 | 6:51.67 | 42940 | 73831
5 | 16:24.32 | 1:28.43 | 73832 | 80474
6 | 17:53.00 | 2:04.20 | 80475 | 89794
7 | 19:57.20 | 3:34.12 | 89795 | 105856
8 | 23:31.32 | 0:59.38 | 105857 | 110319
9 | 24:30.70 | 2:04.60 | 110320 | 119679
10 | 26:35.55 | 3:53.52 | 119680 | 137206
11 | 30:29.32 | 2:21.38 | 137207 | 147819
12 | 32:50.70 | 5:17.37 | 147820 | 171631
13 | 38:08.32 | 2:16.00 | 171632 | 181831
14 | 40:24.32 | 0:31.60 | 181832 | 184216
15 | 40:56.17 | 0:52.15 | 184217 | 188131
16 | 41:48.32 | 4:36.00 | 188132 | 208831
17 | 46:24.32 | 2:09.00 | 208832 | 218506
18 | 48:33.32 | 4:53.00 | 218507 | 240481
19 | 53:26.32 | 1:21.00 | 240482 | 246556
20 | 54:47.32 | 2:27.00 | 246557 | 257581
21 | 57:14.32 | 0:47.68 | 257582 | 261174
22 | 58:02.25 | 2:55.07 | 261175 | 274306


Range status and errors

Selected range

Filename K:\Tubarec rips\Vivaldi - Corelli - Scarlatti - Gloria - Pinnock\Vivaldi, Corelli, Scarlatti - S. O di Betlemme altera, C. Concerto grosso G-Moll Christmas Concerto, V. Gloria - The English Con - The English Concert & Choir.wav

Peak level 95.1 %
Extraction speed 3.2 X
Range quality 100.0 %
Test CRC F0DBE6D1
Copy CRC F0DBE6D1
Copy OK

No errors occurred


AccurateRip summary

Track 1 accurately ripped (confidence 16) [7C001400] (AR v2)
Track 2 accurately ripped (confidence 16) [7FFDE9AB] (AR v2)
Track 3 accurately ripped (confidence 15) [9A6704A2] (AR v2)
Track 4 accurately ripped (confidence 15) [C7711A4E] (AR v2)
Track 5 accurately ripped (confidence 14) [3C96EA66] (AR v2)
Track 6 accurately ripped (confidence 16) [72D61A84] (AR v2)
Track 7 accurately ripped (confidence 16) [860B724B] (AR v2)
Track 8 accurately ripped (confidence 15) [0968CA7D] (AR v2)
Track 9 accurately ripped (confidence 16) [92C43FA0] (AR v2)
Track 10 accurately ripped (confidence 15) [5E2A3066] (AR v2)
Track 11 accurately ripped (confidence 17) [6C40F770] (AR v2)
Track 12 accurately ripped (confidence 15) [5A1363AE] (AR v2)
Track 13 accurately ripped (confidence 16) [E4F83A50] (AR v2)
Track 14 accurately ripped (confidence 15) [C3E80695] (AR v2)
Track 15 accurately ripped (confidence 16) [4675BB09] (AR v2)
Track 16 accurately ripped (confidence 16) [766EA4B8] (AR v2)
Track 17 accurately ripped (confidence 16) [726A023F] (AR v2)
Track 18 accurately ripped (confidence 14) [E72813B3] (AR v2)
Track 19 accurately ripped (confidence 16) [98E1CD6A] (AR v2)
Track 20 accurately ripped (confidence 16) [5C6757DF] (AR v2)
Track 21 accurately ripped (confidence 16) [6F42B318] (AR v2)
Track 22 accurately ripped (confidence 14) [746228E4] (AR v2)

All tracks accurately ripped

End of status report

–– CUETools DB Plugin V2.1.6

[CTDB TOCID: GnZz2qNxoA8CPU8ofEOyeeXvrQ0-] found
Submit result: GnZz2qNxoA8CPU8ofEOyeeXvrQ0- has been confirmed
Track | CTDB Status
1 | (31/31) Accurately ripped
2 | (30/31) Accurately ripped
3 | (31/31) Accurately ripped
4 | (31/31) Accurately ripped
5 | (31/31) Accurately ripped
6 | (31/31) Accurately ripped
7 | (31/31) Accurately ripped
8 | (31/31) Accurately ripped
9 | (31/31) Accurately ripped
10 | (31/31) Accurately ripped
11 | (30/31) Accurately ripped
12 | (30/31) Accurately ripped
13 | (30/31) Accurately ripped
14 | (31/31) Accurately ripped
15 | (30/31) Accurately ripped
16 | (30/31) Accurately ripped
17 | (30/31) Accurately ripped
18 | (30/31) Accurately ripped
19 | (30/31) Accurately ripped
20 | (31/31) Accurately ripped
21 | (31/31) Accurately ripped
22 | (31/31) Accurately ripped


==== Log checksum 098F364ADCD46F9F60AC51B48210655471C1EAB3B3019E0CE7A968219577A991 ====

Trevor Pinnock, The English Concert - Gloria: Vivaldi, Corelli, A. Scarlatti (1993)

Thanks to the original releaser