Tags
Language
Tags
February 2023
Su Mo Tu We Th Fr Sa
29 30 31 1 2 3 4
5 6 7 8 9 10 11
12 13 14 15 16 17 18
19 20 21 22 23 24 25
26 27 28 1 2 3 4

Turin Brakes - LateNightTales: Turin Brakes (2004)

Posted By: JET 1
Turin Brakes - LateNightTales: Turin Brakes (2004)

Turin Brakes - LateNightTales: Turin Brakes (2004)
EAC Rip | FLAC (Tracks) +CUE, LOG | 401 MB | No Scans
Genre: Folk Rock, Country, Smooth Jazz | Label: LateNightTales | Catalog Number: ALNCD11

A "here's-some-music-that's-influenced-us" mix, the 11th entry in the LATE NIGHT TALES series is an eclectic album compiled by the English folk-pop duo Turin Brakes. There's a mellow, downtempo vibe here, and a good bit of variety, with the likes of Chris Whitley and Gillian Welch sequenced alongside Talk Talk, Grant Green, J.J. Cale, and Silver Jews. Turin Brakes make a musical appearance with a cover of the Rolling Stones' "Moonlight Mile," which fits nicely into this blissfully low-key 17-song set.
Turin Brakes' compilation is no exception, and its piece de resistance is the final track: a cover from the Turin Brakes lads of the Rolling Stones' "Moonlight Mile".
Whilst the trend of previous Late-Night Talescompilations appeared to be distinctly funky, Turin Brakes take us in another direction: Blues.
The CD opens with Nicolai Dunger's "Last Night I Dreamt of Mississippi", and immediately the influence on the Turin Brakes sound becomes apparent. This is followed by John Barry's "Midnight Cowboy". As outlined in the sleeve notes, "It has an immediate and reflective effect that always made me…stare into the distance, as if pining the Wild West… and that's even if you don't know the film".Quite. The sloping harmonica sounding out the clip clopping of a tired old mare sets the scene for the following tracks - calm, which often spills over into sadness.
Dave Palmer's "Speed Trials" is a piece for solo piano, simple and naïve, written by the pianist that worked with the Brakes on the optimist LP.
To break up the Blues flavour, they throw in Les Barons featuring Henri Gaobi, with "Lagos Soundsystem". Armed with trumpets and congas,they keep things up-tempo, but this is an exception to the rule, and melancholy prevails.
All in all, this is a more than a simple compilation to listen to after hours. It allows the listener to absorb the influences of the band, and it's an education in the story of blues. But, please listen to it with friends, rather than alone: there's a risk that you could go down the blues trail, never to return.



Exact Audio Copy V0.99 prebeta 5 from 4. May 2009

EAC extraction logfile from 18. January 2011, 18:30

Various / LateNightTales: Turin Brakes

Used drive : Optiarc DVDRWBD BC-5600S Adapter: 1 ID: 0

Read mode : Secure
Utilize accurate stream : Yes
Defeat audio cache : Yes
Make use of C2 pointers : No

Read offset correction : 48
Overread into Lead-In and Lead-Out : No
Fill up missing offset samples with silence : Yes
Delete leading and trailing silent blocks : No
Null samples used in CRC calculations : Yes
Used interface : Native Win32 interface for Win NT & 2000
Gap handling : Appended to previous track

Used output format : User Defined Encoder
Selected bitrate : 192 kBit/s
Quality : High
Add ID3 tag : No
Command line compressor : C:\Program Files (x86)\JamTrAX\flac-1.2.1b.exe
Additional command line options : -8 -V -T "artist=%a" -T "title=%t" -T "album=%g" -T "date=%y" -T "tracknumber=%n" -T "genre=%m" %s


TOC of the extracted CD

Track | Start | Length | Start sector | End sector
––––––––––––––––––––––––––––-
1 | 0:00.00 | 6:47.22 | 0 | 30546
2 | 6:47.22 | 2:45.10 | 30547 | 42931
3 | 9:32.32 | 5:07.25 | 42932 | 65981
4 | 14:39.57 | 6:12.56 | 65982 | 93937
5 | 20:52.38 | 6:45.60 | 93938 | 124372
6 | 27:38.23 | 4:02.43 | 124373 | 142565
7 | 31:40.66 | 3:46.50 | 142566 | 159565
8 | 35:27.41 | 3:12.57 | 159566 | 174022
9 | 38:40.23 | 3:37.17 | 174023 | 190314
10 | 42:17.40 | 3:24.38 | 190315 | 205652
11 | 45:42.03 | 3:35.42 | 205653 | 221819
12 | 49:17.45 | 5:38.16 | 221820 | 247185
13 | 54:55.61 | 3:35.10 | 247186 | 263320
14 | 58:30.71 | 5:28.35 | 263321 | 287955
15 | 63:59.31 | 3:33.58 | 287956 | 303988
16 | 67:33.14 | 4:02.29 | 303989 | 322167
17 | 71:35.43 | 4:05.24 | 322168 | 340566


Track 1

Filename C:\Users\Jake\Desktop\VA - LateNightTales- Turin Brakes\01 - Nicolai Dunger - Last Night I Dreamt Of Mississippi.wav

Pre-gap length 0:00:02.00

Peak level 74.9 %
Track quality 100.0 %
Test CRC 5557CE3F
Copy CRC 5557CE3F
Cannot be verified as accurate (confidence 18) [7A9C52D2], AccurateRip returned [4E06C24B]
Copy OK

Track 2

Filename C:\Users\Jake\Desktop\VA - LateNightTales- Turin Brakes\02 - John Barry - Midnight Cowboy.wav

Peak level 95.4 %
Track quality 100.0 %
Test CRC 03FA7C0D
Copy CRC 03FA7C0D
Cannot be verified as accurate (confidence 18) [519D3CB2], AccurateRip returned [D777AAC8]
Copy OK

Track 3

Filename C:\Users\Jake\Desktop\VA - LateNightTales- Turin Brakes\03 - Silver Jews - Send In The Clouds.wav

Peak level 79.4 %
Track quality 100.0 %
Test CRC 3DB4A6BE
Copy CRC 3DB4A6BE
Cannot be verified as accurate (confidence 18) [1A22247C], AccurateRip returned [D0CE5800]
Copy OK

Track 4

Filename C:\Users\Jake\Desktop\VA - LateNightTales- Turin Brakes\04 - Les Barons - Lagos Soundsystem.wav

Peak level 69.1 %
Track quality 100.0 %
Test CRC 0D6B9C9C
Copy CRC 0D6B9C9C
Cannot be verified as accurate (confidence 18) [E1154330], AccurateRip returned [75ECA260]
Copy OK

Track 5

Filename C:\Users\Jake\Desktop\VA - LateNightTales- Turin Brakes\05 - Grant Green - A Walk In The Night.wav

Peak level 95.5 %
Track quality 100.0 %
Test CRC 5D470E1D
Copy CRC 5D470E1D
Cannot be verified as accurate (confidence 18) [703A2BBA], AccurateRip returned [044141B3]
Copy OK

Track 6

Filename C:\Users\Jake\Desktop\VA - LateNightTales- Turin Brakes\06 - G. Love & Special Sauce - Blues Music (Album Version).wav

Peak level 95.5 %
Track quality 100.0 %
Test CRC 60B850BF
Copy CRC 60B850BF
Cannot be verified as accurate (confidence 18) [9D60BFDB], AccurateRip returned [E0AB09F4]
Copy OK

Track 7

Filename C:\Users\Jake\Desktop\VA - LateNightTales- Turin Brakes\07 - John Hammond - Dreamy Eyed Girl.wav

Peak level 95.5 %
Track quality 100.0 %
Test CRC 4E6C1E8C
Copy CRC 4E6C1E8C
Cannot be verified as accurate (confidence 18) [C837328A], AccurateRip returned [0A21E668]
Copy OK

Track 8

Filename C:\Users\Jake\Desktop\VA - LateNightTales- Turin Brakes\08 - Chris Whitley - Breaking Your Fall.wav

Peak level 77.9 %
Track quality 100.0 %
Test CRC D03AC316
Copy CRC D03AC316
Cannot be verified as accurate (confidence 18) [1E748FFD], AccurateRip returned [D6653017]
Copy OK

Track 9

Filename C:\Users\Jake\Desktop\VA - LateNightTales- Turin Brakes\09 - Dave Palmer - Speed Trials.wav

Peak level 75.0 %
Track quality 100.0 %
Test CRC FF121D22
Copy CRC FF121D22
Cannot be verified as accurate (confidence 18) [DF10BB42], AccurateRip returned [F8E0C865]
Copy OK

Track 10

Filename C:\Users\Jake\Desktop\VA - LateNightTales- Turin Brakes\10 - J.J. Cale - Magnolia.wav

Peak level 95.5 %
Track quality 100.0 %
Test CRC E4D6F937
Copy CRC E4D6F937
Cannot be verified as accurate (confidence 18) [3CBC2109], AccurateRip returned [93886B55]
Copy OK

Track 11

Filename C:\Users\Jake\Desktop\VA - LateNightTales- Turin Brakes\11 - Talk Talk - I Believe In You.wav

Peak level 94.5 %
Track quality 100.0 %
Test CRC 8D3CC716
Copy CRC 8D3CC716
Cannot be verified as accurate (confidence 18) [164A0B14], AccurateRip returned [C773829F]
Copy OK

Track 12

Filename C:\Users\Jake\Desktop\VA - LateNightTales- Turin Brakes\12 - Al Di Meola (Feat. John McLaughlin) - Short Tales Of The Black Forest.wav

Peak level 95.5 %
Track quality 100.0 %
Test CRC 69C062B2
Copy CRC 69C062B2
Cannot be verified as accurate (confidence 18) [511BA15E], AccurateRip returned [33136AF7]
Copy OK

Track 13

Filename C:\Users\Jake\Desktop\VA - LateNightTales- Turin Brakes\13 - Smog - Cold Blooded Old Times.wav

Peak level 83.2 %
Track quality 100.0 %
Test CRC E1298AB4
Copy CRC E1298AB4
Cannot be verified as accurate (confidence 18) [25BDA298], AccurateRip returned [9BD88AC5]
Copy OK

Track 14

Filename C:\Users\Jake\Desktop\VA - LateNightTales- Turin Brakes\14 - Gillian Welch - One And Only.wav

Peak level 59.9 %
Track quality 100.0 %
Test CRC 8E6C2257
Copy CRC 8E6C2257
Cannot be verified as accurate (confidence 18) [56153688], AccurateRip returned [DFF879C2]
Copy OK

Track 15

Filename C:\Users\Jake\Desktop\VA - LateNightTales- Turin Brakes\15 - Jessica Lauren - A Pearl For Iona.wav

Peak level 95.4 %
Track quality 100.0 %
Test CRC C22C4E37
Copy CRC C22C4E37
Cannot be verified as accurate (confidence 18) [EEDF4C44], AccurateRip returned [B0EB8E94]
Copy OK

Track 16

Filename C:\Users\Jake\Desktop\VA - LateNightTales- Turin Brakes\16 - Turin Brakes - Moonlight Mile.wav

Peak level 95.5 %
Track quality 99.9 %
Test CRC 668A0E0B
Copy CRC 668A0E0B
Cannot be verified as accurate (confidence 18) [9184E1B9], AccurateRip returned [3614EFB8]
Copy OK

Track 17

Filename C:\Users\Jake\Desktop\VA - LateNightTales- Turin Brakes\17 - Written By Patrick Neate, Read By Brian Blessed - The White City Part 4.wav

Peak level 71.7 %
Track quality 100.0 %
Test CRC 0194B67A
Copy CRC 0194B67A
Cannot be verified as accurate (confidence 16) [9E9729BE], AccurateRip returned [1DE4C678]
Copy OK


No tracks could be verified as accurate
You may have a different pressing from the one(s) in the database

No errors occurred

End of status report


Tracklist:
01. Nicolai Dunger - Last Night I Dreamt Of Mississippi (6:47)
02. John Barry - Midnight Cowboy (2:45)
03. Silver Jews - Send In The Clouds (5:07)
04. Les Barons - Lagos Soundsystem (6:13)
05. Grant Green - A Walk In The Night (6:46)
06. G. Love & Special Sauce - Blues Music [Album Version] (4:03)
07. John Hammond - Dreamy Eyed Girl (3:47)
08. Chris Whitley - Breaking Your Fall (3:13)
09. Dave Palmer - Speed Trials (3:37)
10. J.J. Cale - Magnolia (3:25)
11. Talk Talk - I Believe In You (3:36)
12. Al Di Meola ft. John McLaughlin - Short Tales Of The Black Forest (5:38)
13. Smog - Cold Blooded Old Times (3:35)
14. Gillian Welch - One And Only (5:28)
15. Jessica Lauren - A Pearl For Iona (3:34)
16. Turin Brakes - Moonlight Mile (4:02)
17. Written By Patrick Neate, Read By Brian Blessed - The White City Part 4 (4:05)