Subcategories

U-Nam - The Love Vault (Future Love Part 2) (2019)

Posted By: popsakov
U-Nam - The Love Vault (Future Love Part 2) (2019)

U-Nam - The Love Vault (Future Love Part 2) (2019)
EAC Rip | FLAC (Img) + Cue + Log ~ 422 Mb | MP3 CBR320 ~ 134 Mb
Full Scan | 00:54:00 | RAR 5% Recovery
Smooth Jazz, Funk, Jazz Fusion, Neo-Soul, R&B | Skytown Records #STR016

Fabulously funky. Hypnotically rhythmic. Soulfully Sophisticated. Those six powerful words alone could be the entire overview of this album. But that would be an injustice to the newest project from the genius guitarist, composer and producer U-Nam. Soaring from the success of his previous Billboard number 8 Smooth Jazz album Future Love, U-Nam picks up where he left off and continues the unfinished work of this album’s predecessor.

The Love Vault, due to be released October 11 on this own Skytown Records label, was born out of U-Nam’s vast collection of previously unpolished, unrecorded or archived songs in the musician’s extensive arsenal of music.

Amid his infectious guitar licks lies a hip and rich sound that is heavy on throwback funk influences. Sexy Fresh, the albums premiere release, emits a romance drenched vibe that is funky and alluring. Love Potion is an intoxicating concoction of guitar, unrelenting rhythm, and one of U-Nam’s signature arrangement sounds, synthesized string accompaniment, yet another trademark of the retro dance groove.

Applying the innovative technology of talk box and vocoder, U-Nam implements ‘vocals on a couple of tracks, including Back Seat Lover ( previously recorded by Mayer Hawthorne). Uptempo, happy and addictively appealing, this particular track rates among my favourite on The Love Vault, and the backing vocals of Gennine Francis-Jackson infuse some soulful dynamics and depth.

In what is an glaring tribute to the sound of soul music’s legendary love walrus, Barry White, Hear, My Dear draws from the title of Marvin Gaye’s late 70s hit Here My Dear. The amazingly talented saxophonist Magdalena Chovaancova fo the Euro jazz trio Threestyle lends her talent on this swagger filled groove accompanied by lush string arrangement and additional horn backing. Into The Night delivers an afterhours, fast moving cool drive down the strip on a summer night.

Among the many admirable techniques of U-Nam’s music is the meticulous arrangement and production expertise, and if my memory is correct, he ranks as the only artist I know that consistently employs strings and horn backing that delivers a multi layered and dimensional sound to his natural artistic brilliance. The Love Vault is unlocked and fully unleashed with a sublimely polished groove, and a sound that is contagious and uncontainable.

~ Stu Berketo, On-air host, Wave.FM

***************

U-Nam - The Love Vault (Future Love Part 2) (2019)

Track List:

01. Love Potion [4:57]
02. Back Seat Lover [4:19]
03. Sexy Fresh [4:35]
04. You And Me [4:44]
05. Sharlee [4:46]
06. Soul Walkin' [5:08]
07. Into The Night [4:50]
08. Sunset Groove [3:41]
09. Celebrate Your Body [Featuring J.D.'s Time Machine] [4:04]
10. Hear,My Dear [Featuring Magdalena Chovancova] [4:09]
11. Love Potion (Dub Playalong Mix) [4:57]
12. Sexy Fresh (Radio Edit) [3:51]

Exact Audio Copy V1.3 from 2. September 2016

Отчёт EAC об извлечении, выполненном 13. ноября 2019, 12:47

U-Nam / The Love Vault (Future Love Part 2)

Дисковод: HL-DT-STDVD+-RW GH82N Adapter: 1 ID: 0

Режим чтения : Достоверность
Использование точного потока : Да
Отключение кэша аудио : Да
Использование указателей C2 : Нет

Коррекция смещения при чтении : 667
Способность читать области Lead-in и Lead-out : Нет
Заполнение пропущенных сэмплов тишиной : Да
Удаление блоков с тишиной в начале и конце : Нет
При вычислениях CRC использовались нулевые сэмплы : Да
Интерфейс : Встроенный Win32-интерфейс для Win NT/2000

Выходной формат : Пользовательский кодировщик
Выбранный битрейт : 1024 kBit/s
Качество : Высокий
Добавление ID3-тега : Нет
Утилита сжатия : C:\Program Files (x86)\Exact Audio Copy\FLAC\FLAC.EXE
Дополнительные параметры : -8 -V -T "ARTIST=%artist%" -T "ALBUM=%albumtitle%" -T "DATE=%year%" -T "GENRE=%genre%" -T "COMMENT=ripped by izia1956" %source%


TOC извлечённого CD

Трек | Старт | Длительность | Начальный сектор | Конечный сектор
––––––––––––––––––––––––––––––––––-
1 | 0:00.00 | 4:56.39 | 0 | 22238
2 | 4:56.39 | 4:18.50 | 22239 | 41638
3 | 9:15.14 | 4:34.68 | 41639 | 62256
4 | 13:50.07 | 4:44.33 | 62257 | 83589
5 | 18:34.40 | 4:45.40 | 83590 | 105004
6 | 23:20.05 | 5:07.62 | 105005 | 128091
7 | 28:27.67 | 4:50.35 | 128092 | 149876
8 | 33:18.27 | 3:41.33 | 149877 | 166484
9 | 36:59.60 | 4:03.46 | 166485 | 184755
10 | 41:03.31 | 4:09.00 | 184756 | 203430
11 | 45:12.31 | 4:56.50 | 203431 | 225680
12 | 50:09.06 | 3:50.47 | 225681 | 242977


Характеристики диапазона извлечения и сообщения об ошибках

Выбранный диапазон

Имя файла E:\BitComet\U-Nam (flac)\2019 - The Love Vault (Future Love Part 2)\U-Nam - The Love Vault (Future Love Part 2).wav

Пиковый уровень 100.0 %
Скорость извлечения 7.1 X
Качество диапазона 99.9 %
CRC теста 9610F74E
CRC копии 9610F74E
Копирование… OK

Ошибок не произошло


AccurateRip: сводка

Трек 1 отсутствует в базе данных
Трек 2 отсутствует в базе данных
Трек 3 отсутствует в базе данных
Трек 4 отсутствует в базе данных
Трек 5 отсутствует в базе данных
Трек 6 отсутствует в базе данных
Трек 7 отсутствует в базе данных
Трек 8 отсутствует в базе данных
Трек 9 отсутствует в базе данных
Трек 10 отсутствует в базе данных
Трек 11 отсутствует в базе данных
Трек 12 отсутствует в базе данных

Ни одного трека нет в базе AccurateRip

Конец отчёта

==== Контрольная сумма отчёта CD0934B2BFAD80718CB9327D6FBC9DE584114E87C6213ABC909E4A90AA751B0B ====

U-Nam - The Love Vault (Future Love Part 2) (2019)


All thanks go to izia1956

>>> "U-Nam" in my Blog <<<

DOWNLOAD: