Subcategories

U2: Singles Collection. Part 01 (1981 - 1989) Re-up

Posted By: v3122
U2: Singles Collection. Part 01 (1981 - 1989) Re-up

U2: Singles Collection. Part 01 (1981 - 1989)
EAC, XLD | Flac(Image) + Cue + Log & MP3 CBR 320Kbps
12CD | Label: Various | ~ 1194 or 520 Mb | Artwork(png) -> 258 Mb
Post Punk, New Wave, Rock

U2 are an Irish rock band from Dublin formed in 1976. The group consists of Bono (lead vocals and rhythm guitar), the Edge (lead guitar, keyboards, and backing vocals), Adam Clayton (bass guitar), and Larry Mullen Jr. (drums and percussion). Initially rooted in post-punk, U2's musical style has evolved throughout their career, yet has maintained an anthemic sound built on Bono's expressive vocals and the Edge's effects-based guitar textures. Their lyrics, often embellished with spiritual imagery, focus on personal and sociopolitical themes. Popular for their live performances, the group have staged several ambitious and elaborate tours over their career.

The band formed as teenagers while attending Mount Temple Comprehensive School, when they had limited musical proficiency. Within four years, they signed with Island Records and released their debut album, Boy (1980). Subsequent work such as their first UK number-one album, War (1983), and the singles "Sunday Bloody Sunday" and "Pride (In the Name of Love)" helped establish U2's reputation as a politically and socially conscious group. By the mid-1980s, they had become renowned globally for their live act, highlighted by their performance at Live Aid in 1985. The group's fifth album, The Joshua Tree (1987), made them international superstars and was their greatest critical and commercial success. Topping music charts around the world, it produced their only number-one singles in the US, "With or Without You" and "I Still Haven't Found What I'm Looking For".

Facing creative stagnation and a backlash following their documentary/double album, Rattle and Hum (1988), U2 reinvented themselves in the 1990s through a new musical direction and public image. Beginning with their acclaimed seventh album, Achtung Baby (1991), and the multimedia-intensive Zoo TV Tour, the band integrated influences from alternative rock, electronic dance music, and industrial music into their sound, and embraced a more ironic, flippant image. This experimentation continued through their ninth album, Pop (1997), and the PopMart Tour, which were mixed successes. U2 regained critical and commercial favour with the records All That You Can't Leave Behind (2000) and How to Dismantle an Atomic Bomb (2004), which established a more conventional, mainstream sound for the group. Their U2 360° Tour of 2009–2011 is the highest-attended and highest-grossing concert tour in history. The group most recently released the companion albums Songs of Innocence (2014) and Songs of Experience (2017), the former of which received criticism for its pervasive, no-cost release through the iTunes Store.

U2 have released 14 studio albums and are one of the world's best-selling music artists in history, having sold more than 170 million records worldwide. They have won 22 Grammy Awards, more than any other band, and in 2005, they were inducted into the Rock and Roll Hall of Fame in their first year of eligibility. Rolling Stone ranked U2 at number 22 on its list of the "100 Greatest Artists of All Time". Throughout their career, as a band and as individuals, they have campaigned for human rights and social justice causes, including Amnesty International, Jubilee 2000, the ONE/DATA campaigns, Product Red, War Child, and Music Rising…

~ wiki
U2: Singles Collection. Part 01 (1981 - 1989) Re-up

U2: Singles Collection. Part 01 (1981 - 1989):

U2: Singles Collection. Part 01 (1981 - 1989) Re-up

Tracklist CD01 - 1981 - R.O.K. (Fire) (1991) [Austria, Island 664 972]:

01.Fire (3:45)
02.J. Swallow (2:19)
03.11 O'Clock Tick Tock (Live) (4:53)
04.The Ocean (Live) (2:12)

Exact Audio Copy V1.3 from 2. September 2016

EAC extraction logfile from 14. February 2018, 15:52

U2 / Fire

Used drive : PLEXTOR DVDR PX-760A Adapter: 1 ID: 0

Read mode : Secure
Utilize accurate stream : Yes
Defeat audio cache : Yes
Make use of C2 pointers : No

Read offset correction : 30
Overread into Lead-In and Lead-Out : No
Fill up missing offset samples with silence : Yes
Delete leading and trailing silent blocks : No
Null samples used in CRC calculations : Yes
Used interface : Native Win32 interface for Win NT & 2000
Gap handling : Appended to previous track

Used output format : User Defined Encoder
Selected bitrate : 896 kBit/s
Quality : High
Add ID3 tag : No
Command line compressor : C:\Program Files (x86)\Exact Audio Copy\Flac\flac.exe
Additional command line options : -V -8 -T "Genre=%genre%" -T "Artist=%artist%" -T "Title=%title%" -T "Album=%albumtitle%" -T "Date=%year%" -T "Tracknumber=%tracknr%" -T "Comment=%comment%" %source%


TOC of the extracted CD

Track | Start | Length | Start sector | End sector
––––––––––––––––––––––––––––-
1 | 0:00.32 | 3:45.10 | 32 | 16916
2 | 3:45.42 | 2:18.63 | 16917 | 27329
3 | 6:04.30 | 4:53.05 | 27330 | 49309
4 | 10:57.35 | 2:11.72 | 49310 | 59206


Track 1

Filename D:\EAC_rips\01 - Fire.wav

Pre-gap length 0:00:02.32

Peak level 99.0 %
Extraction speed 4.0 X
Track quality 100.0 %
Test CRC 27D3B879
Copy CRC 27D3B879
Accurately ripped (confidence 29) [E3E72A86] (AR v2)
Copy OK

Track 2

Filename D:\EAC_rips\02 - J. Swallow.wav

Pre-gap length 0:00:01.25

Peak level 88.2 %
Extraction speed 4.0 X
Track quality 100.0 %
Test CRC 7254B4BD
Copy CRC 7254B4BD
Accurately ripped (confidence 29) [0C494F2E] (AR v2)
Copy OK

Track 3

Filename D:\EAC_rips\03 - 11 O'Clock Tick Tock (live).wav

Pre-gap length 0:00:02.00

Peak level 88.2 %
Extraction speed 4.8 X
Track quality 100.0 %
Test CRC 8B140DAC
Copy CRC 8B140DAC
Accurately ripped (confidence 29) [91020426] (AR v2)
Copy OK

Track 4

Filename D:\EAC_rips\04 - The Ocean (live).wav

Peak level 88.2 %
Extraction speed 4.4 X
Track quality 100.0 %
Test CRC A0D6B0C7
Copy CRC A0D6B0C7
Accurately ripped (confidence 29) [0CC2ED44] (AR v2)
Copy OK


All tracks accurately ripped

No errors occurred

End of status report

–– CUETools DB Plugin V2.1.6

[CTDB TOCID: 7Ebtst85BiiheWoQA75VDo77eWI-] found
Submit result: 7Ebtst85BiiheWoQA75VDo77eWI- has been confirmed
Track | CTDB Status
1 | (26/26) Accurately ripped
2 | (26/26) Accurately ripped
3 | (26/26) Accurately ripped
4 | (26/26) Accurately ripped


==== Log checksum A3438134B5AD41952C6F9BDDC698C2EA522F4969620CC99C4F486DFF5235D7A3 ====


U2: Singles Collection. Part 01 (1981 - 1989) Re-up

Tracklist CD02 - 1982 - New Year's Day (1991) [Austria, Island 664 973]:

01.New Year's Day (Long Version) (5:37)
02.Treasure (Whatever Happened To Pete The Chop) (3:25)
03.Fire (Live) (3:45)
04.I Threw A Brick Trough A Window - A Day Without Me (Live) (6:59)

X Lossless Decoder version 20080926 (93.3)

XLD extraction logfile from 2008-12-01 16:39:11 +0100

U2 / New Year's Day

Used drive : PIONEER DVD-RW DVR-115D (revision 1.06)

Use cdparanoia mode : YES (CDParanoia III 10.2 engine)
Disable audio cache : OK for the drive with cache less than 2750KB
Make use of C2 pointers : NO
Read offset correction : 48
Max retry count : 100

TOC of the extracted CD
Track | Start | Length | Start sector | End sector
––––––––––––––––––––––––––––-
1 | 00:00:32 | 05:36:48 | 32 | 25279
2 | 05:37:05 | 03:24:62 | 25280 | 40641
3 | 09:01:67 | 03:45:18 | 40642 | 57534
4 | 12:47:10 | 06:58:60 | 57535 | 88944


All Tracks
Album gain : -3.56 dB
Peak : 0.999969
Track 01
Filename : /Volumes/Nebucadnezzar/00 Music rip and upload/U2 - New Year's Day (1982) [FLAC]/01 - New Year's Day (Long Version).flac

Track gain : -3.70 dB
Peak : 0.999969
CRC32 hash (test run) : 835B7820
CRC32 hash : 835B7820
CRC32 hash (skip zero) : D07E3A4F
AccurateRip signature : 6B8AD58F
->Accurately ripped! (confidence 5)
Statistics
Read error : 0
Skipped (treated as error) : 0
Edge jitter error (maybe fixed) : 0
Atom jitter error (maybe fixed) : 0
Drift error (maybe fixed) : 0
Dropped bytes error (maybe fixed) : 0
Duplicated bytes error (maybe fixed) : 0
Inconsistency in error sectors : 0

Track 02
Filename : /Volumes/Nebucadnezzar/00 Music rip and upload/U2 - New Year's Day (1982) [FLAC]/02 - Treasure (Whatever Happened To Pete The Chop).flac

Track gain : -3.63 dB
Peak : 0.883972
CRC32 hash (test run) : 007C635B
CRC32 hash : 007C635B
CRC32 hash (skip zero) : AA0C2D7C
AccurateRip signature : 6A0346CD
->Accurately ripped! (confidence 5)
Statistics
Read error : 0
Skipped (treated as error) : 0
Edge jitter error (maybe fixed) : 0
Atom jitter error (maybe fixed) : 0
Drift error (maybe fixed) : 0
Dropped bytes error (maybe fixed) : 0
Duplicated bytes error (maybe fixed) : 0
Inconsistency in error sectors : 0

Track 03
Filename : /Volumes/Nebucadnezzar/00 Music rip and upload/U2 - New Year's Day (1982) [FLAC]/03 - Fire (Live).flac

Track gain : -2.91 dB
Peak : 0.929047
CRC32 hash (test run) : 2A09128A
CRC32 hash : 2A09128A
CRC32 hash (skip zero) : 8861F3C8
AccurateRip signature : D279CC9D
->Accurately ripped! (confidence 6)
Statistics
Read error : 0
Skipped (treated as error) : 0
Edge jitter error (maybe fixed) : 0
Atom jitter error (maybe fixed) : 0
Drift error (maybe fixed) : 0
Dropped bytes error (maybe fixed) : 0
Duplicated bytes error (maybe fixed) : 0
Inconsistency in error sectors : 0

Track 04
Filename : /Volumes/Nebucadnezzar/00 Music rip and upload/U2 - New Year's Day (1982) [FLAC]/04 - I Threw A Brick Trough A Window - A Day Without Me (Live).flac

Track gain : -3.67 dB
Peak : 0.991852
CRC32 hash (test run) : 586AE0AE
CRC32 hash : 586AE0AE
CRC32 hash (skip zero) : 8DC833E0
AccurateRip signature : D6F3B7AD
->Accurately ripped! (confidence 7)
Statistics
Read error : 0
Skipped (treated as error) : 0
Edge jitter error (maybe fixed) : 0
Atom jitter error (maybe fixed) : 0
Drift error (maybe fixed) : 0
Dropped bytes error (maybe fixed) : 0
Duplicated bytes error (maybe fixed) : 0
Inconsistency in error sectors : 0

No errors occurred

End of status report


U2: Singles Collection. Part 01 (1981 - 1989) Re-up

Tracklist CD03 - 1983 - Sunday Bloody Sunday (1991) [Austria, Island 664 971]:

01.Sunday Bloody Sunday (4:37)
02.Two Hearts Beat As One (US Remix) (5:42)
03.New Year's Day (US Remix) (4:28)

Exact Audio Copy V1.3 from 2. September 2016

EAC extraction logfile from 14. February 2018, 20:37

U2 / Sunday Bloody Sunday

Used drive : PLEXTOR DVDR PX-760A Adapter: 1 ID: 0

Read mode : Secure
Utilize accurate stream : Yes
Defeat audio cache : Yes
Make use of C2 pointers : No

Read offset correction : 30
Overread into Lead-In and Lead-Out : No
Fill up missing offset samples with silence : Yes
Delete leading and trailing silent blocks : No
Null samples used in CRC calculations : Yes
Used interface : Native Win32 interface for Win NT & 2000
Gap handling : Appended to previous track

Used output format : User Defined Encoder
Selected bitrate : 896 kBit/s
Quality : High
Add ID3 tag : No
Command line compressor : C:\Program Files (x86)\Exact Audio Copy\Flac\flac.exe
Additional command line options : -V -8 -T "Genre=%genre%" -T "Artist=%artist%" -T "Title=%title%" -T "Album=%albumtitle%" -T "Date=%year%" -T "Tracknumber=%tracknr%" -T "Comment=%comment%" %source%


TOC of the extracted CD

Track | Start | Length | Start sector | End sector
––––––––––––––––––––––––––––-
1 | 0:00.32 | 4:37.20 | 32 | 20826
2 | 4:37.52 | 5:41.58 | 20827 | 46459
3 | 10:19.35 | 4:28.35 | 46460 | 66594


Track 1

Filename D:\EAC_rips\01 - Sunday Bloody Sunday.wav

Pre-gap length 0:00:02.32

Peak level 99.0 %
Extraction speed 4.2 X
Track quality 100.0 %
Test CRC 240B26BC
Copy CRC 240B26BC
Accurately ripped (confidence 18) [F59568EB] (AR v2)
Copy OK

Track 2

Filename D:\EAC_rips\02 - Two Hearts Beat As One (US Remix).wav

Pre-gap length 0:00:02.00

Peak level 99.0 %
Extraction speed 4.8 X
Track quality 100.0 %
Test CRC 46EA6AE1
Copy CRC 46EA6AE1
Accurately ripped (confidence 18) [A1F2A552] (AR v2)
Copy OK

Track 3

Filename D:\EAC_rips\03 - New Year's Day (US Remix).wav

Pre-gap length 0:00:02.00

Peak level 98.8 %
Extraction speed 5.1 X
Track quality 100.0 %
Test CRC D448AE27
Copy CRC D448AE27
Accurately ripped (confidence 18) [A40FF0DE] (AR v2)
Copy OK


All tracks accurately ripped

No errors occurred

End of status report

–– CUETools DB Plugin V2.1.6

[CTDB TOCID: lEh5.rEzuWUuhSJffDnDtNj4xPo-] found
Submit result: lEh5.rEzuWUuhSJffDnDtNj4xPo- has been confirmed
Track | CTDB Status
1 | (14/14) Accurately ripped
2 | (14/14) Accurately ripped
3 | (14/14) Accurately ripped


==== Log checksum 15A03CE6C0CE7F6CDE88C9F41CA220C0987EC3042231E8BEC425483874433F69 ====


U2: Singles Collection. Part 01 (1981 - 1989) Re-up

Tracklist CD04 - 1984 - Pride (In The Name Of Love) (1991) [Austria, Island 664 975]:

01.Pride (In The Name Of Love) (4:43)
02.Boomerang I (Instrumental) (2:48)
03.Boomerang II (Vocal) (4:51)
04.4th Of July (2:25)

X Lossless Decoder version 20080926 (93.3)

XLD extraction logfile from 2008-12-01 16:22:38 +0100

U2 / Pride (In The Name Of Love)

Used drive : PIONEER DVD-RW DVR-115D (revision 1.06)

Use cdparanoia mode : YES (CDParanoia III 10.2 engine)
Disable audio cache : OK for the drive with cache less than 2750KB
Make use of C2 pointers : NO
Read offset correction : 48
Max retry count : 100

TOC of the extracted CD
Track | Start | Length | Start sector | End sector
––––––––––––––––––––––––––––-
1 | 00:00:32 | 04:42:73 | 32 | 21254
2 | 04:43:30 | 02:47:45 | 21255 | 33824
3 | 07:31:00 | 04:50:67 | 33825 | 55641
4 | 12:21:67 | 02:24:40 | 55642 | 66481

List of alternate offset correction values
# | Absolute | Relative | Confidence
–––––––––––––––––––––
1 | 906 | 858 | 6

All Tracks
Album gain : -4.90 dB
Peak : 0.990265
Track 01
Filename : /Volumes/Nebucadnezzar/00 Music rip and upload/U2 - Pride (1988) [FLAC]/01 - Pride (In The Name Of Love).flac

Track gain : -5.69 dB
Peak : 0.990265
CRC32 hash (test run) : 9A307B7A
CRC32 hash : 9A307B7A
CRC32 hash (skip zero) : E6DF8052
AccurateRip signature : DA5FF92F
->Accurately ripped! (confidence 6)
(matched with the different offset correction value;
calculated using an additional offset of 858;
the signature after correction is: 00A03F7F)
Statistics
Read error : 0
Skipped (treated as error) : 0
Edge jitter error (maybe fixed) : 0
Atom jitter error (maybe fixed) : 0
Drift error (maybe fixed) : 0
Dropped bytes error (maybe fixed) : 0
Duplicated bytes error (maybe fixed) : 0
Inconsistency in error sectors : 0

Track 02
Filename : /Volumes/Nebucadnezzar/00 Music rip and upload/U2 - Pride (1988) [FLAC]/02 - Boomerang I (Instrumental).flac

Track gain : -3.29 dB
Peak : 0.990265
CRC32 hash (test run) : E664CE59
CRC32 hash : E664CE59
CRC32 hash (skip zero) : DCEB8951
AccurateRip signature : 4CB229CE
->Accurately ripped! (confidence 6)
(matched with the different offset correction value;
calculated using an additional offset of 858;
the signature after correction is: A858B0CE)
Statistics
Read error : 0
Skipped (treated as error) : 0
Edge jitter error (maybe fixed) : 0
Atom jitter error (maybe fixed) : 0
Drift error (maybe fixed) : 0
Dropped bytes error (maybe fixed) : 0
Duplicated bytes error (maybe fixed) : 0
Inconsistency in error sectors : 0

Track 03
Filename : /Volumes/Nebucadnezzar/00 Music rip and upload/U2 - Pride (1988) [FLAC]/03 - Boomerang II (Vocal).flac

Track gain : -3.78 dB
Peak : 0.990204
CRC32 hash (test run) : C667C328
CRC32 hash : C667C328
CRC32 hash (skip zero) : 29BAFA52
AccurateRip signature : 20BD18A2
->Accurately ripped! (confidence 6)
(matched with the different offset correction value;
calculated using an additional offset of 858;
the signature after correction is: 7FCA6A5C)
Statistics
Read error : 0
Skipped (treated as error) : 0
Edge jitter error (maybe fixed) : 0
Atom jitter error (maybe fixed) : 0
Drift error (maybe fixed) : 0
Dropped bytes error (maybe fixed) : 0
Duplicated bytes error (maybe fixed) : 0
Inconsistency in error sectors : 0

Track 04
Filename : /Volumes/Nebucadnezzar/00 Music rip and upload/U2 - Pride (1988) [FLAC]/04 - 4th Of July.flac

Track gain : 1.34 dB
Peak : 0.638489
CRC32 hash (test run) : 8F2B166A
CRC32 hash : 8F2B166A
CRC32 hash (skip zero) : AFF5DE4E
AccurateRip signature : A5BA7FA6
->Rip may not be accurate.
Statistics
Read error : 0
Skipped (treated as error) : 0
Edge jitter error (maybe fixed) : 0
Atom jitter error (maybe fixed) : 0
Drift error (maybe fixed) : 0
Dropped bytes error (maybe fixed) : 0
Duplicated bytes error (maybe fixed) : 0
Inconsistency in error sectors : 0

No errors occurred

End of status report


U2: Singles Collection. Part 01 (1981 - 1989) Re-up

Tracklist CD05 - 1984 - The Unforgettable Fire (1991) [Austria, Island Island 664 974]:

01.The Three Sunrises (3:52)
02.The Unforgettable Fire (4:55)
03.A Sort Of Homecoming (Live) (4:06)
04.Love Comes Tumbling (4:44)
05.Bass Trap (5:14)

Exact Audio Copy V1.3 from 2. September 2016

EAC extraction logfile from 14. February 2018, 22:09

U2 / The Unforgettable Fire

Used drive : PLEXTOR DVDR PX-760A Adapter: 1 ID: 0

Read mode : Secure
Utilize accurate stream : Yes
Defeat audio cache : Yes
Make use of C2 pointers : No

Read offset correction : 30
Overread into Lead-In and Lead-Out : No
Fill up missing offset samples with silence : Yes
Delete leading and trailing silent blocks : No
Null samples used in CRC calculations : Yes
Used interface : Native Win32 interface for Win NT & 2000
Gap handling : Appended to previous track

Used output format : User Defined Encoder
Selected bitrate : 896 kBit/s
Quality : High
Add ID3 tag : No
Command line compressor : C:\Program Files (x86)\Exact Audio Copy\Flac\flac.exe
Additional command line options : -V -8 -T "Genre=%genre%" -T "Artist=%artist%" -T "Title=%title%" -T "Album=%albumtitle%" -T "Date=%year%" -T "Tracknumber=%tracknr%" -T "Comment=%comment%" %source%


TOC of the extracted CD

Track | Start | Length | Start sector | End sector
––––––––––––––––––––––––––––-
1 | 0:00.32 | 3:51.58 | 32 | 17414
2 | 3:52.15 | 4:55.20 | 17415 | 39559
3 | 8:47.35 | 4:05.55 | 39560 | 57989
4 | 12:53.15 | 4:44.17 | 57990 | 79306
5 | 17:37.32 | 5:14.00 | 79307 | 102856


Track 1

Filename D:\EAC_rips\01 - The Three Sunrises.wav

Pre-gap length 0:00:02.32

Peak level 99.0 %
Extraction speed 4.1 X
Track quality 100.0 %
Test CRC 33391892
Copy CRC 33391892
Accurately ripped (confidence 31) [52BD2680] (AR v2)
Copy OK

Track 2

Filename D:\EAC_rips\02 - The Unforgettable Fire.wav

Pre-gap length 0:00:03.00

Peak level 99.0 %
Extraction speed 4.6 X
Track quality 100.0 %
Test CRC F7B38FC8
Copy CRC F7B38FC8
Accurately ripped (confidence 31) [2E0E4B8C] (AR v2)
Copy OK

Track 3

Filename D:\EAC_rips\03 - A Sort Of Homecoming (Live).wav

Pre-gap length 0:00:03.00

Peak level 88.2 %
Extraction speed 4.9 X
Track quality 100.0 %
Test CRC 95BDAD15
Copy CRC 95BDAD15
Accurately ripped (confidence 32) [40CD3AAF] (AR v2)
Copy OK

Track 4

Filename D:\EAC_rips\04 - Love Comes Tumbling.wav

Pre-gap length 0:00:03.00

Peak level 92.7 %
Extraction speed 5.3 X
Track quality 100.0 %
Test CRC CAB449E0
Copy CRC CAB449E0
Accurately ripped (confidence 31) [12B399AE] (AR v2)
Copy OK

Track 5

Filename D:\EAC_rips\05 - Bass Trap.wav

Pre-gap length 0:00:01.00

Peak level 75.9 %
Extraction speed 5.8 X
Track quality 100.0 %
Test CRC CC8D4C34
Copy CRC CC8D4C34
Accurately ripped (confidence 31) [79FC5DEA] (AR v2)
Copy OK


All tracks accurately ripped

No errors occurred

End of status report

–– CUETools DB Plugin V2.1.6

[CTDB TOCID: GkWEPTtKjcHDC7zytCWl3NEyI5g-] found
Submit result: GkWEPTtKjcHDC7zytCWl3NEyI5g- has been confirmed
Track | CTDB Status
1 | (26/26) Accurately ripped
2 | (26/26) Accurately ripped
3 | (26/26) Accurately ripped
4 | (26/26) Accurately ripped
5 | (26/26) Accurately ripped


==== Log checksum CE6CCD7D424AE40270A27486AFAAC9EA740F42CAFA7028CFF99C9140D8C7B695 ====


U2: Singles Collection. Part 01 (1981 - 1989) Re-up

Tracklist CD06 - 1987 - I Still Haven't Found What I'm Looking For (1991) [Austria, Island 664 987]:

01.I Still Haven't Found What I'm Looking For (4:38)
02.Spanish Eyes (3:16)
03.Deep In The Heart (4:31)

Exact Audio Copy V1.3 from 2. September 2016

EAC extraction logfile from 14. February 2018, 22:41

U2 / I Still Haven't Found What I'm Looking For

Used drive : PLEXTOR DVDR PX-760A Adapter: 1 ID: 0

Read mode : Secure
Utilize accurate stream : Yes
Defeat audio cache : Yes
Make use of C2 pointers : No

Read offset correction : 30
Overread into Lead-In and Lead-Out : No
Fill up missing offset samples with silence : Yes
Delete leading and trailing silent blocks : No
Null samples used in CRC calculations : Yes
Used interface : Native Win32 interface for Win NT & 2000
Gap handling : Appended to previous track

Used output format : User Defined Encoder
Selected bitrate : 896 kBit/s
Quality : High
Add ID3 tag : No
Command line compressor : C:\Program Files (x86)\Exact Audio Copy\Flac\flac.exe
Additional command line options : -V -8 -T "Genre=%genre%" -T "Artist=%artist%" -T "Title=%title%" -T "Album=%albumtitle%" -T "Date=%year%" -T "Tracknumber=%tracknr%" -T "Comment=%comment%" %source%


TOC of the extracted CD

Track | Start | Length | Start sector | End sector
––––––––––––––––––––––––––––-
1 | 0:00.00 | 4:37.72 | 0 | 20846
2 | 4:37.72 | 3:16.25 | 20847 | 35571
3 | 7:54.22 | 4:30.53 | 35572 | 55874


Track 1

Filename D:\EAC_rips\01 - I Still Haven't Found What I'm Looking For.wav

Pre-gap length 0:00:02.00

Peak level 85.5 %
Extraction speed 4.2 X
Track quality 100.0 %
Test CRC BD7B9898
Copy CRC BD7B9898
Accurately ripped (confidence 22) [9A795E83] (AR v2)
Copy OK

Track 2

Filename D:\EAC_rips\02 - Spanish Eyes.wav

Pre-gap length 0:00:01.10

Peak level 80.9 %
Extraction speed 4.4 X
Track quality 100.0 %
Test CRC CC4297E0
Copy CRC CC4297E0
Accurately ripped (confidence 23) [89DDABE4] (AR v2)
Copy OK

Track 3

Filename D:\EAC_rips\03 - Deep In The Heart.wav

Pre-gap length 0:00:01.60

Peak level 100.0 %
Extraction speed 4.9 X
Track quality 100.0 %
Test CRC F0C8043C
Copy CRC F0C8043C
Accurately ripped (confidence 23) [A89DCB4B] (AR v2)
Copy OK


All tracks accurately ripped

No errors occurred

End of status report

–– CUETools DB Plugin V2.1.6

[CTDB TOCID: n8aLuOP6bgYgTSSpg611EbpECZs-] found
Submit result: n8aLuOP6bgYgTSSpg611EbpECZs- has been confirmed
Track | CTDB Status
1 | (58/58) Accurately ripped
2 | (57/58) Accurately ripped
3 | (57/58) Accurately ripped


==== Log checksum 379650093549DB3658DDD7476ECF8950EF45BFA234FDFC46D6F5BCFB7F78689D ====


U2: Singles Collection. Part 01 (1981 - 1989) Re-up

Tracklist CD07 - 1987 - Where The Streets Have No Name (1991) [Austria, Island 664 988]:

01.Where The Streets Have No Name (4:48)
02.Race Against Time (4:04)
03.Silver And Gold (4:40)
04.Sweetest Thing (3:04)

Exact Audio Copy V1.3 from 2. September 2016

EAC extraction logfile from 15. February 2018, 4:01

U2 / Where the Streets Have No Name

Used drive : PLEXTOR DVDR PX-760A Adapter: 1 ID: 0

Read mode : Secure
Utilize accurate stream : Yes
Defeat audio cache : Yes
Make use of C2 pointers : No

Read offset correction : 30
Overread into Lead-In and Lead-Out : No
Fill up missing offset samples with silence : Yes
Delete leading and trailing silent blocks : No
Null samples used in CRC calculations : Yes
Used interface : Native Win32 interface for Win NT & 2000
Gap handling : Appended to previous track

Used output format : User Defined Encoder
Selected bitrate : 896 kBit/s
Quality : High
Add ID3 tag : No
Command line compressor : C:\Program Files (x86)\Exact Audio Copy\Flac\flac.exe
Additional command line options : -V -8 -T "Genre=%genre%" -T "Artist=%artist%" -T "Title=%title%" -T "Album=%albumtitle%" -T "Date=%year%" -T "Tracknumber=%tracknr%" -T "Comment=%comment%" %source%


TOC of the extracted CD

Track | Start | Length | Start sector | End sector
––––––––––––––––––––––––––––-
1 | 0:00.00 | 4:48.27 | 0 | 21626
2 | 4:48.27 | 4:04.15 | 21627 | 39941
3 | 8:52.42 | 4:39.48 | 39942 | 60914
4 | 13:32.15 | 3:03.50 | 60915 | 74689


Track 1

Filename D:\EAC_rips\01 - Where the Streets Have No Name.wav

Pre-gap length 0:00:02.00

Peak level 80.3 %
Extraction speed 4.2 X
Track quality 100.0 %
Test CRC A5E3B3E7
Copy CRC A5E3B3E7
Accurately ripped (confidence 23) [11D73830] (AR v2)
Copy OK

Track 2

Filename D:\EAC_rips\02 - Race Against Time.wav

Pre-gap length 0:00:01.40

Peak level 83.1 %
Extraction speed 4.6 X
Track quality 100.0 %
Test CRC AFB381E2
Copy CRC AFB381E2
Accurately ripped (confidence 25) [995A344F] (AR v2)
Copy OK

Track 3

Filename D:\EAC_rips\03 - Silver And Gold.wav

Pre-gap length 0:00:03.00

Peak level 94.7 %
Extraction speed 5.0 X
Track quality 100.0 %
Test CRC 3B94A8E1
Copy CRC 3B94A8E1
Accurately ripped (confidence 25) [E7F81176] (AR v2)
Copy OK

Track 4

Filename D:\EAC_rips\04 - Sweetest Thing.wav

Pre-gap length 0:00:01.70

Peak level 73.2 %
Extraction speed 5.0 X
Track quality 100.0 %
Test CRC DC0363CF
Copy CRC DC0363CF
Accurately ripped (confidence 26) [B67D8379] (AR v2)
Copy OK


All tracks accurately ripped

No errors occurred

End of status report

–– CUETools DB Plugin V2.1.6

[CTDB TOCID: ivSJv012y2jG2uVJ5q4ZBEgO9F0-] found
Submit result: ivSJv012y2jG2uVJ5q4ZBEgO9F0- has been confirmed
Track | CTDB Status
1 | (61/63) Accurately ripped
2 | (62/63) Accurately ripped
3 | (63/63) Accurately ripped
4 | (59/63) Accurately ripped, or (4/63) differs in 6491 samples @03:03:30-03:03:38


==== Log checksum C4230041FBCE7071046AE238F7D4D209DBDE661149FA9C9DD82C6340F33399B5 ====


U2: Singles Collection. Part 01 (1981 - 1989) Re-up

Tracklist CD08 - 1987 - With Or Without You (1991) [Austria, Island 664 986]:

01.With Or Without You (4:55)
02.Luminous Times (Hold On To Love) (4:34)
03.Walk To The Water (4:49)

Exact Audio Copy V1.3 from 2. September 2016

EAC extraction logfile from 15. February 2018, 7:26

U2 / With Or Without You

Used drive : PLEXTOR DVDR PX-760A Adapter: 1 ID: 0

Read mode : Secure
Utilize accurate stream : Yes
Defeat audio cache : Yes
Make use of C2 pointers : No

Read offset correction : 30
Overread into Lead-In and Lead-Out : No
Fill up missing offset samples with silence : Yes
Delete leading and trailing silent blocks : No
Null samples used in CRC calculations : Yes
Used interface : Native Win32 interface for Win NT & 2000
Gap handling : Appended to previous track

Used output format : User Defined Encoder
Selected bitrate : 896 kBit/s
Quality : High
Add ID3 tag : No
Command line compressor : C:\Program Files (x86)\Exact Audio Copy\Flac\flac.exe
Additional command line options : -V -8 -T "Genre=%genre%" -T "Artist=%artist%" -T "Title=%title%" -T "Album=%albumtitle%" -T "Date=%year%" -T "Tracknumber=%tracknr%" -T "Comment=%comment%" %source%


TOC of the extracted CD

Track | Start | Length | Start sector | End sector
––––––––––––––––––––––––––––-
1 | 0:00.00 | 4:55.37 | 0 | 22161
2 | 4:55.37 | 4:33.55 | 22162 | 42691
3 | 9:29.17 | 4:48.48 | 42692 | 64339


Track 1

Filename D:\EAC_rips\01 - With Or Without You.wav

Pre-gap length 0:00:02.00

Peak level 83.8 %
Extraction speed 3.9 X
Track quality 99.9 %
Test CRC D250C08A
Copy CRC D250C08A
Accurately ripped (confidence 27) [B15209B3] (AR v2)
Copy OK

Track 2

Filename D:\EAC_rips\02 - Luminous Times (Hold On To Love).wav

Pre-gap length 0:00:00.04

Peak level 60.6 %
Extraction speed 4.6 X
Track quality 100.0 %
Test CRC 9077D477
Copy CRC 9077D477
Accurately ripped (confidence 28) [FEB77089] (AR v2)
Copy OK

Track 3

Filename D:\EAC_rips\03 - Walk To The Water.wav

Pre-gap length 0:00:00.02

Peak level 70.5 %
Extraction speed 5.0 X
Track quality 100.0 %
Test CRC 61B2A86C
Copy CRC 61B2A86C
Accurately ripped (confidence 26) [0B516B3C] (AR v2)
Copy OK


All tracks accurately ripped

No errors occurred

End of status report

–– CUETools DB Plugin V2.1.6

[CTDB TOCID: bINOVb4d2So6Li4DDUCcVN4af_Y-] found
Submit result: bINOVb4d2So6Li4DDUCcVN4af_Y- has been confirmed
Track | CTDB Status
1 | (39/39) Accurately ripped
2 | (38/39) Accurately ripped
3 | (39/39) Accurately ripped


==== Log checksum E969CAB3C763B52379BB54D74DC7F70FA725495570B9A7AF256732FC17C8F5E7 ====


U2: Singles Collection. Part 01 (1981 - 1989) Re-up

Tracklist CD09 - 1988 - Angel Of Harlem [Germany, Island 661 920]:

01.Angel Of Harlem (3:48)
02.A Room At The Heartbreak Hotel (5:30)
03.Love Rescue Me (Live) (5:22)

X Lossless Decoder version 20080926 (93.3)

XLD extraction logfile from 2008-12-16 14:41:16 +0100

U2 / Angel Of Harlem

Used drive : PIONEER DVD-RW DVR-115D (revision 1.06)

Use cdparanoia mode : YES (CDParanoia III 10.2 engine)
Disable audio cache : OK for the drive with cache less than 2750KB
Make use of C2 pointers : NO
Read offset correction : 48
Max retry count : 100

TOC of the extracted CD
Track | Start | Length | Start sector | End sector
––––––––––––––––––––––––––––-
1 | 00:00:33 | 03:47:25 | 33 | 17082
2 | 03:47:58 | 05:30:15 | 17083 | 41847
3 | 09:17:73 | 05:22:25 | 41848 | 66022


All Tracks
Album gain : -4.97 dB
Peak : 0.999969
Track 01
Filename : /Volumes/Nebucadnezzar/00 Music rip and upload/U2 - Angel of Harlem (1988) [FLAC]/01 - Angel Of Harlem.flac

Track gain : -6.11 dB
Peak : 0.986877
CRC32 hash (test run) : 804CDEA1
CRC32 hash : 804CDEA1
CRC32 hash (skip zero) : E1ADECD4
AccurateRip signature : 94EA1BB2
->Accurately ripped! (confidence 7)
Statistics
Read error : 0
Skipped (treated as error) : 0
Edge jitter error (maybe fixed) : 0
Atom jitter error (maybe fixed) : 0
Drift error (maybe fixed) : 0
Dropped bytes error (maybe fixed) : 0
Duplicated bytes error (maybe fixed) : 0
Inconsistency in error sectors : 0

Track 02
Filename : /Volumes/Nebucadnezzar/00 Music rip and upload/U2 - Angel of Harlem (1988) [FLAC]/02 - A Room At The Heartbreak Hotel.flac

Track gain : -4.53 dB
Peak : 0.950684
CRC32 hash (test run) : C4939E2C
CRC32 hash : C4939E2C
CRC32 hash (skip zero) : 40636781
AccurateRip signature : CE664EA1
->Accurately ripped! (confidence 7)
Statistics
Read error : 0
Skipped (treated as error) : 0
Edge jitter error (maybe fixed) : 0
Atom jitter error (maybe fixed) : 0
Drift error (maybe fixed) : 0
Dropped bytes error (maybe fixed) : 0
Duplicated bytes error (maybe fixed) : 0
Inconsistency in error sectors : 0

Track 03
Filename : /Volumes/Nebucadnezzar/00 Music rip and upload/U2 - Angel of Harlem (1988) [FLAC]/03 - Love Rescue Me (Live).flac

Track gain : -3.84 dB
Peak : 0.999969
CRC32 hash (test run) : 73EA30D1
CRC32 hash : 73EA30D1
CRC32 hash (skip zero) : 7E0B4819
AccurateRip signature : FBE481C3
->Accurately ripped! (confidence 7)
Statistics
Read error : 0
Skipped (treated as error) : 0
Edge jitter error (maybe fixed) : 0
Atom jitter error (maybe fixed) : 0
Drift error (maybe fixed) : 0
Dropped bytes error (maybe fixed) : 0
Duplicated bytes error (maybe fixed) : 0
Inconsistency in error sectors : 0

No errors occurred

End of status report


U2: Singles Collection. Part 01 (1981 - 1989) Re-up

Tracklist CD10 - 1988 - Desire [Germany, Island 661 670]:

01.Desire (2:58)
02.Hallelujah Here She Comes (4:16)
03.Desire (Hollywood Remix) (5:23)

Exact Audio Copy V1.3 from 2. September 2016

EAC extraction logfile from 15. February 2018, 17:02

U2 / Desire

Used drive : PLEXTOR DVDR PX-760A Adapter: 1 ID: 0

Read mode : Secure
Utilize accurate stream : Yes
Defeat audio cache : Yes
Make use of C2 pointers : No

Read offset correction : 30
Overread into Lead-In and Lead-Out : No
Fill up missing offset samples with silence : Yes
Delete leading and trailing silent blocks : No
Null samples used in CRC calculations : Yes
Used interface : Native Win32 interface for Win NT & 2000
Gap handling : Appended to previous track

Used output format : User Defined Encoder
Selected bitrate : 896 kBit/s
Quality : High
Add ID3 tag : No
Command line compressor : C:\Program Files (x86)\Exact Audio Copy\Flac\flac.exe
Additional command line options : -V -8 -T "Genre=%genre%" -T "Artist=%artist%" -T "Title=%title%" -T "Album=%albumtitle%" -T "Date=%year%" -T "Tracknumber=%tracknr%" -T "Comment=%comment%" %source%


TOC of the extracted CD

Track | Start | Length | Start sector | End sector
––––––––––––––––––––––––––––-
1 | 0:00.33 | 2:57.65 | 33 | 13372
2 | 2:58.23 | 4:15.42 | 13373 | 32539
3 | 7:13.65 | 5:23.18 | 32540 | 56782


Track 1

Filename D:\EAC_rips\01 - Desire.wav

Pre-gap length 0:00:02.33

Peak level 80.0 %
Extraction speed 3.9 X
Track quality 100.0 %
Test CRC CDBF4747
Copy CRC CDBF4747
Accurately ripped (confidence 38) [06BDE2C1] (AR v2)
Copy OK

Track 2

Filename D:\EAC_rips\02 - Hallelujah Here She Comes.wav

Pre-gap length 0:00:03.02

Peak level 91.5 %
Extraction speed 4.4 X
Track quality 100.0 %
Test CRC AF4F7AD1
Copy CRC AF4F7AD1
Accurately ripped (confidence 39) [2E4F9468] (AR v2)
Copy OK

Track 3

Filename D:\EAC_rips\03 - Desire (Hollywood Remix).wav

Pre-gap length 0:00:00.35

Peak level 85.7 %
Extraction speed 5.0 X
Track quality 100.0 %
Test CRC 4F15100A
Copy CRC 4F15100A
Accurately ripped (confidence 40) [AAFC96DB] (AR v2)
Copy OK


All tracks accurately ripped

No errors occurred

End of status report

–– CUETools DB Plugin V2.1.6

[CTDB TOCID: hqxbaozUWvN7brCNnDHZpoMOdiY-] found
Submit result: hqxbaozUWvN7brCNnDHZpoMOdiY- has been confirmed
Track | CTDB Status
1 | (49/49) Accurately ripped
2 | (49/49) Accurately ripped
3 | (49/49) Accurately ripped


==== Log checksum 44B6069DDECB637559EF5C4EE927F9A1A399D7B3A54493F794FE7B0C5CBE9DB7 ====


U2: Singles Collection. Part 01 (1981 - 1989) Re-up

Tracklist CD11 - 1989 - All I Want Is You [Germany, Island 662 406]:

01.All I Want Is You (Single Edit) (4:16)
02.Unchained Melody (4:56)
03.Everlasting Love (3:21)
04.All I Want Is You (6:30)

X Lossless Decoder version 20080926 (93.3)

XLD extraction logfile from 2008-12-16 15:10:10 +0100

U2 / All I Want Is You

Used drive : PIONEER DVD-RW DVR-115D (revision 1.06)

Use cdparanoia mode : YES (CDParanoia III 10.2 engine)
Disable audio cache : OK for the drive with cache less than 2750KB
Make use of C2 pointers : NO
Read offset correction : 48
Max retry count : 100

TOC of the extracted CD
Track | Start | Length | Start sector | End sector
––––––––––––––––––––––––––––-
1 | 00:00:33 | 04:16:00 | 33 | 19232
2 | 04:16:33 | 04:55:57 | 19233 | 41414
3 | 09:12:15 | 03:21:28 | 41415 | 56517
4 | 12:33:43 | 06:29:52 | 56518 | 85744


All Tracks
Album gain : -3.89 dB
Peak : 0.999298
Track 01
Filename : /Volumes/Nebucadnezzar/00 Music rip and upload/U2 - All I Want is You (1989) [FLAC]/01 - All I Want Is You (Single Edit).flac

Track gain : -4.09 dB
Peak : 0.938293
CRC32 hash (test run) : AB9486FC
CRC32 hash : AB9486FC
CRC32 hash (skip zero) : 2CB6C812
AccurateRip signature : C38196ED
->Accurately ripped! (confidence 18)
Statistics
Read error : 0
Skipped (treated as error) : 0
Edge jitter error (maybe fixed) : 0
Atom jitter error (maybe fixed) : 0
Drift error (maybe fixed) : 0
Dropped bytes error (maybe fixed) : 0
Duplicated bytes error (maybe fixed) : 0
Inconsistency in error sectors : 0

Track 02
Filename : /Volumes/Nebucadnezzar/00 Music rip and upload/U2 - All I Want is You (1989) [FLAC]/02 - Unchained Melody.flac

Track gain : -3.80 dB
Peak : 0.992950
CRC32 hash (test run) : F054B2B9
CRC32 hash : F054B2B9
CRC32 hash (skip zero) : 715911DA
AccurateRip signature : 91D756AA
->Accurately ripped! (confidence 18)
Statistics
Read error : 0
Skipped (treated as error) : 0
Edge jitter error (maybe fixed) : 0
Atom jitter error (maybe fixed) : 0
Drift error (maybe fixed) : 0
Dropped bytes error (maybe fixed) : 0
Duplicated bytes error (maybe fixed) : 0
Inconsistency in error sectors : 0

Track 03
Filename : /Volumes/Nebucadnezzar/00 Music rip and upload/U2 - All I Want is You (1989) [FLAC]/03 - Everlasting Love.flac

Track gain : -3.47 dB
Peak : 0.999298
CRC32 hash (test run) : 00B69682
CRC32 hash : 00B69682
CRC32 hash (skip zero) : 4C1D237F
AccurateRip signature : F5C5FE73
->Accurately ripped! (confidence 15)
Statistics
Read error : 0
Skipped (treated as error) : 0
Edge jitter error (maybe fixed) : 0
Atom jitter error (maybe fixed) : 0
Drift error (maybe fixed) : 0
Dropped bytes error (maybe fixed) : 0
Duplicated bytes error (maybe fixed) : 0
Inconsistency in error sectors : 0

Track 04
Filename : /Volumes/Nebucadnezzar/00 Music rip and upload/U2 - All I Want is You (1989) [FLAC]/04 - All I Want Is You.flac

Track gain : -4.01 dB
Peak : 0.943176
CRC32 hash (test run) : 41049E17
CRC32 hash : 41049E17
CRC32 hash (skip zero) : 1D8C5EAE
AccurateRip signature : D0A25107
->Accurately ripped! (confidence 18)
Statistics
Read error : 0
Skipped (treated as error) : 0
Edge jitter error (maybe fixed) : 0
Atom jitter error (maybe fixed) : 0
Drift error (maybe fixed) : 0
Dropped bytes error (maybe fixed) : 0
Duplicated bytes error (maybe fixed) : 0
Inconsistency in error sectors : 0

No errors occurred

End of status report


U2: Singles Collection. Part 01 (1981 - 1989) Re-up

Tracklist CD12 - 1989 - U2 With B.B. King - When Love Comes To Town [Germany, Island 662 200]:

01.U2 feat. B.B. King - When Love Comes To Town (3:34)
02.U2 - Dancing Barefoot (4:14)
03.U2 feat. B.B. King - When Love Comes To Town (Live From The Kingdom Mix) (7:29)
04.U2 - God Part II (The Hard Metal Dance Mix) (4:46)

Exact Audio Copy V1.3 from 2. September 2016

EAC extraction logfile from 16. February 2018, 11:33

U2 / When Love Comes To Town

Used drive : PLEXTOR DVDR PX-760A Adapter: 1 ID: 0

Read mode : Secure
Utilize accurate stream : Yes
Defeat audio cache : Yes
Make use of C2 pointers : No

Read offset correction : 30
Overread into Lead-In and Lead-Out : No
Fill up missing offset samples with silence : Yes
Delete leading and trailing silent blocks : No
Null samples used in CRC calculations : Yes
Used interface : Native Win32 interface for Win NT & 2000
Gap handling : Appended to previous track

Used output format : User Defined Encoder
Selected bitrate : 896 kBit/s
Quality : High
Add ID3 tag : No
Command line compressor : C:\Program Files (x86)\Exact Audio Copy\Flac\flac.exe
Additional command line options : -V -8 -T "Genre=%genre%" -T "Artist=%artist%" -T "Title=%title%" -T "Album=%albumtitle%" -T "Date=%year%" -T "Tracknumber=%tracknr%" -T "Comment=%comment%" %source%


TOC of the extracted CD

Track | Start | Length | Start sector | End sector
––––––––––––––––––––––––––––-
1 | 0:00.33 | 3:33.47 | 33 | 16054
2 | 3:34.05 | 4:13.58 | 16055 | 35087
3 | 7:47.63 | 7:29.00 | 35088 | 68762
4 | 15:16.63 | 4:45.70 | 68763 | 90207


Track 1

Filename D:\EAC_rips\01 - U2 feat. B.B. King - When Love Comes To Town.wav

Pre-gap length 0:00:02.33

Peak level 94.0 %
Extraction speed 4.0 X
Track quality 100.0 %
Test CRC 8C6180F8
Copy CRC 8C6180F8
Accurately ripped (confidence 38) [3F69194B] (AR v2)
Copy OK

Track 2

Filename D:\EAC_rips\02 - U2 - Dancing Barefoot.wav

Pre-gap length 0:00:01.55

Peak level 89.0 %
Extraction speed 4.5 X
Track quality 100.0 %
Test CRC 0490A3B4
Copy CRC 0490A3B4
Accurately ripped (confidence 38) [A3697B18] (AR v2)
Copy OK

Track 3

Filename D:\EAC_rips\03 - U2 feat. B.B. King - When Love Comes To Town (Live From The Kingdom Mix).wav

Pre-gap length 0:00:00.28

Peak level 95.3 %
Extraction speed 5.3 X
Track quality 100.0 %
Test CRC 35EBF1B3
Copy CRC 35EBF1B3
Accurately ripped (confidence 38) [21F3DD8A] (AR v2)
Copy OK

Track 4

Filename D:\EAC_rips\04 - U2 - God Part II (The Hard Metal Dance Mix).wav

Pre-gap length 0:00:00.45

Peak level 86.7 %
Extraction speed 5.5 X
Track quality 100.0 %
Test CRC 55C75139
Copy CRC 55C75139
Accurately ripped (confidence 37) [B70763E8] (AR v2)
Copy OK


All tracks accurately ripped

No errors occurred

End of status report

–– CUETools DB Plugin V2.1.6

[CTDB TOCID: nVig_bGpUJxToR1WEA2WsuW4xcc-] found
Submit result: nVig_bGpUJxToR1WEA2WsuW4xcc- has been confirmed
Track | CTDB Status
1 | (37/38) Accurately ripped
2 | (37/38) Accurately ripped
3 | (37/38) Accurately ripped
4 | (36/38) Accurately ripped


==== Log checksum F399683FC159163A5D190E3C1D2D491D41537B908BF0F5771658CB2CAF51432A ====


All thanks go to the original releaser

U2 or U2 in my Blog

Download U2: Singles Collection. Part 01 (1981 - 1989):