Tags
Language
Tags

U2 - Songs Of Innocence (2014) [2CD, Deluxe Edition]

Posted By:
U2 - Songs Of Innocence (2014) [2CD, Deluxe Edition]

U2 - Songs Of Innocence (2014) [2CD, Deluxe Edition]
Rock, Pop Rock, Alternative Rock | EAC Rip | FLAC, Img+CUE+LOG+Scans (JPEG) | 01:35:14 | 735,98 Mb
Label: Island Records (EU) | Cat.# 4704894 | Released: 2014-10-13 (2014-09-09)
U2 - Songs Of Innocence (2014) [2CD, Deluxe Edition]

"Songs of Innocence" is the 13th studio album by Irish rock band U2. Released on 9 September 2014, it was produced by Danger Mouse, with additional production from Paul Epworth, Ryan Tedder, Declan Gaffney and Flood. The album was announced at an Apple Inc. product launch event and released the same day to all iTunes Store customers at no cost. It was exclusive to iTunes, iTunes Radio, and Beats Music until 13 October 2014, when it received a physical release on Island and Interscope Records. The digital release made the record available to over 500 million iTunes customers, for what Apple CEO Tim Cook marketed as "the largest album release of all time". After the relatively lukewarm commercial performance of their previous record, No Line on the Horizon (2009), lead singer Bono expressed uncertainty over how the band could remain musically relevant. During the five-and-a-half-year gestation period for Songs of Innocence - the longest gap between albums of their career the group reportedly worked on three separate projects with multiple producers, including an aborted companion to their previous record called Songs of Ascent. However, they struggled to complete an album to their satisfaction and continually delayed a release. After working with Danger Mouse for two years, the group collaborated with Flood, Epworth, and Tedder to complete the record. Thematically, it revisits the group members' youth in Ireland in the 1970s, touching on childhood memories, loves, and losses, while paying tribute to musical inspirations Ramones and the Clash. Bono described it as "the most personal album we've written". The album's lead single, "The Miracle (Of Joey Ramone)", was featured in an Apple television commercial as part of a promotional campaign for the band on which the company reportedly spent $100 million. Approximately 81 million iTunes users listened to the album in its first month of release, 26 million of whom downloaded the entire record. Songs of Innocence received mixed reviews and drew criticism for its digital release strategy; the album was automatically added to users' iTunes accounts, which for many, triggered an unprompted download to their devices. Upon its commercial release, Songs of Innocence sold just 101,000 copies in North America and charted for just six and eight weeks in the UK and US, respectively. The group's press tour for the album was interrupted after Bono was seriously injured in a bicycle accident. The record received a Grammy Award nomination for Best Rock Album. In 2015, U2 supported the album with the successful Innocence + Experience Tour.
~Wikipedia

U2 - Songs Of Innocence (2014) [2CD, Deluxe Edition]

U2 - Songs Of Innocence (2014) [2CD, Deluxe Edition]

U2 - Songs Of Innocence (2014) [2CD, Deluxe Edition]




Release of the album: 2014, September, 9 [11×File, AAC, Album, 256 kbps. Island Records]
Release of this 2CD-Set: 2014, October, 13 [CD Island Records (EU), Cat.# 4704894 / UPC: 602547048943]
Note: (Disc 1 Catalog #): 00602547048950, (Disc 2 Catalog #): 00602547048967.
℗&© 2014 Island Records a division of Universal Music Operations Limited for the world.

Credits:

Bass Guitar – Adam Clayton
Coordinator [Album] – Jesse Peters
Creative Director – Jefferson Hack
Design – Philipp Humm, Shaughn McGrath, Steve Averill, Xavier Encinas
Drums, Percussion – Larry Mullen Jr
Executive-Producer [At Large] – Jimmy Iovine
Guitar, Backing Vocals – The Edge
Lyrics By – Bono, The Edge
Management – Arthur Fogel, Brian Celler, Keryn Kaplan, Michael Rapino
Management [Manager] – Guy Oseary
Management [Studio Manager], Technician [Drum Tech] – Sam O'Sullivan
Management [Tehnical Manager] – Rab McAllister
Mastered By – Scott Sedillo
Music By – U2
Other [Catering] – Samantha Farrell
Other [Creative Agency] – Christina Hardy
Other [Creative Consultants] – Gavin Friday, Sharon Blankson
Photography By [Cover] – Glen Luchford
Photography By [Inside] – Paolo Pellegrin
Producer [Album] – Danger Mouse
Production Manager [Album] – Nadine King
Technician [Guitar Tech] – Dallas Schoo
Vocals – Bono


Tracklist:

Disc 1

01. The Miracle (Of Joey Ramone) (04:15)
(Bono / The Edge / U2)
02. Every Breaking Wave (04:12)
(Bono / The Edge / U2)
03. California (There Is No End To Love) (04:00)
(Bono / The Edge / U2)
04. Song For Someone (03:47)
(Bono / The Edge / U2)
05. Iris (Hold Me Close) (05:19)
(Bono / The Edge / U2)
06. Volcano (03:14)
(Bono / The Edge / U2)
07. Raised by Wolves (04:06)
(Bono / The Edge / U2)
08. Cedarwood Road [For Guggi] (04:25)
(Bono / The Edge / U2)
09. Sleep Like A Baby Tonight (05:02)
(Bono / The Edge / U2)
10. This Is Where You Can Reach Me Now (For Joe Strummer) (05:05)
(Bono / The Edge / U2)
11. The Troubles (04:46)
(Bono / The Edge / U2)

Disc 2

01. Lucifer's Hands (03:55)
(Bono / The Edge / U2)
02. The Crystal Ballroom (04:40)
(Bono / The Edge / U2)
03. Acoustic Sessions (22:49)
a) Every Breaking Wave
b) California (There Is No End To Love)
c) Raised By Wolves
d) Cedarwood Road
e) Song For Someone
f) The Miracle (Of Joey Ramone)

(Bono / The Edge / U2)
04. The Troubles [Alternative Version] (04:42)
(Bono / The Edge / U2)
[05.a] Sleep Like A Baby Tonight [Alternative Perspective Mix] (05:21)
(Bono / The Edge / U2)
[05.b] (Silence) (01:00)
[05.c] Invisible [Hidden Track] (04:44)
(Bono / The Edge / U2)

Exact Audio Copy V1.0 beta 6 from 9. April 2015

EAC extraction logfile from 25. June 2015, 2:24

U2 / Songs Of Innocence (Disc 1)

Used drive : ASUS DRW-24B3ST Adapter: 1 ID: 0

Read mode : Secure
Utilize accurate stream : Yes
Defeat audio cache : Yes
Make use of C2 pointers : No

Read offset correction : 6
Overread into Lead-In and Lead-Out : No
Fill up missing offset samples with silence : Yes
Delete leading and trailing silent blocks : No
Null samples used in CRC calculations : Yes
Used interface : Native Win32 interface for Win NT & 2000

Used output format : User Defined Encoder
Selected bitrate : 768 kBit/s
Quality : High
Add ID3 tag : No
Command line compressor : C:\Program Files (x86)\Exact Audio Copy\FLAC\FLAC.EXE
Additional command line options : -6 -V -T "ARTIST=%artist%" -T "TITLE=%title%" -T "ALBUM=%albumtitle%" -T "DATE=%year%" -T "TRACKNUMBER=%tracknr%" -T "GENRE=%genre%" -T "COMMENT=%comment%" -T "BAND=%albuminterpret%" -T "ALBUMARTIST=%albuminterpret%" -T "COMPOSER=%composer%" %haslyrics%–tag-from-file=LYRICS="%lyricsfile%"%haslyrics% -T "DISCNUMBER=%cdnumber%" -T "TOTALDISCS=%totalcds%" -T "TOTALTRACKS=%numtracks%" %hascover%–picture="%coverfile%"%hascover% %source% -o %dest%


TOC of the extracted CD

Track | Start | Length | Start sector | End sector
––––––––––––––––––––––––––––-
1 | 0:00.00 | 4:15.29 | 0 | 19153
2 | 4:15.29 | 4:12.12 | 19154 | 38065
3 | 8:27.41 | 3:59.64 | 38066 | 56054
4 | 12:27.30 | 3:46.57 | 56055 | 73061
5 | 16:14.12 | 5:19.34 | 73062 | 97020
6 | 21:33.46 | 3:14.09 | 97021 | 111579
7 | 24:47.55 | 4:05.45 | 111580 | 129999
8 | 28:53.25 | 4:25.29 | 130000 | 149903
9 | 33:18.54 | 5:01.39 | 149904 | 172517
10 | 38:20.18 | 5:05.10 | 172518 | 195402
11 | 43:25.28 | 4:45.63 | 195403 | 216840


Range status and errors

Selected range

Filename D:\U2 - Songs Of Innocence (Disc 1).wav

Peak level 100.0 %
Extraction speed 5.6 X
Range quality 100.0 %
Test CRC 595FFDEC
Copy CRC 595FFDEC
Copy OK

No errors occurred


AccurateRip summary

Track 1 accurately ripped (confidence 200) [217E4BE4] (AR v2)
Track 2 accurately ripped (confidence 199) [16449709] (AR v2)
Track 3 accurately ripped (confidence 199) [BBB2CC94] (AR v2)
Track 4 accurately ripped (confidence 199) [C36D7BC6] (AR v2)
Track 5 accurately ripped (confidence 198) [CB02A698] (AR v2)
Track 6 accurately ripped (confidence 200) [A84023FA] (AR v2)
Track 7 accurately ripped (confidence 198) [957ED909] (AR v2)
Track 8 accurately ripped (confidence 198) [8E066A52] (AR v2)
Track 9 accurately ripped (confidence 198) [1D2674AA] (AR v2)
Track 10 accurately ripped (confidence 196) [2DB2D431] (AR v2)
Track 11 accurately ripped (confidence 197) [80344AB6] (AR v2)

All tracks accurately ripped

End of status report

–– CUETools DB Plugin V2.1.6

[CTDB TOCID: EZVckum73_1K9njsQiX_Lor9Xkk-] found
Submit result: already submitted
Track | CTDB Status
1 | (561/564) Accurately ripped, or (2/564) differs in 179 samples @01:53:70
2 | (563/564) Accurately ripped
3 | (563/564) Accurately ripped
4 | (563/564) Accurately ripped
5 | (560/564) Accurately ripped, or (2/564) differs in 180 samples @04:38:72
6 | (563/564) Accurately ripped
7 | (561/564) Accurately ripped
8 | (560/564) Accurately ripped
9 | (561/564) Accurately ripped
10 | (559/564) Accurately ripped, or (2/564) differs in 180 samples @00:45:33
11 | (561/564) Accurately ripped


==== Log checksum B848F53745303AE66222E20ABBD5DB3FC59B23AFAAA8D1D19BD79E0783E5DA71 ====

Exact Audio Copy V1.0 beta 6 from 9. April 2015

EAC extraction logfile from 25. June 2015, 2:02

U2 / Songs Of Innocence (Disc 2)

Used drive : ASUS DRW-24B3ST Adapter: 1 ID: 0

Read mode : Secure
Utilize accurate stream : Yes
Defeat audio cache : Yes
Make use of C2 pointers : No

Read offset correction : 6
Overread into Lead-In and Lead-Out : No
Fill up missing offset samples with silence : Yes
Delete leading and trailing silent blocks : No
Null samples used in CRC calculations : Yes
Used interface : Native Win32 interface for Win NT & 2000

Used output format : User Defined Encoder
Selected bitrate : 768 kBit/s
Quality : High
Add ID3 tag : No
Command line compressor : C:\Program Files (x86)\Exact Audio Copy\FLAC\FLAC.EXE
Additional command line options : -6 -V -T "ARTIST=%artist%" -T "TITLE=%title%" -T "ALBUM=%albumtitle%" -T "DATE=%year%" -T "TRACKNUMBER=%tracknr%" -T "GENRE=%genre%" -T "COMMENT=%comment%" -T "BAND=%albuminterpret%" -T "ALBUMARTIST=%albuminterpret%" -T "COMPOSER=%composer%" %haslyrics%–tag-from-file=LYRICS="%lyricsfile%"%haslyrics% -T "DISCNUMBER=%cdnumber%" -T "TOTALDISCS=%totalcds%" -T "TOTALTRACKS=%numtracks%" %hascover%–picture="%coverfile%"%hascover% %source% -o %dest%


TOC of the extracted CD

Track | Start | Length | Start sector | End sector
––––––––––––––––––––––––––––-
1 | 0:00.00 | 3:55.08 | 0 | 17632
2 | 3:55.08 | 4:40.32 | 17633 | 38664
3 | 8:35.40 | 22:48.71 | 38665 | 141335
4 | 31:24.36 | 4:32.22 | 141336 | 161757
5 | 35:56.58 | 11:06.11 | 161758 | 211718


Range status and errors

Selected range

Filename D:\U2 - Songs Of Innocence (Disc 2).wav

Peak level 100.0 %
Extraction speed 5.5 X
Range quality 100.0 %
Test CRC 7A677AEF
Copy CRC 7A677AEF
Copy OK

No errors occurred


AccurateRip summary

Track 1 accurately ripped (confidence 111) [D3DD3BD7] (AR v2)
Track 2 accurately ripped (confidence 115) [A32F601B] (AR v2)
Track 3 accurately ripped (confidence 113) [5F241EC9] (AR v2)
Track 4 accurately ripped (confidence 112) [802CA4D2] (AR v2)
Track 5 accurately ripped (confidence 114) [97D43FAB] (AR v2)

All tracks accurately ripped

End of status report

–– CUETools DB Plugin V2.1.6

[CTDB TOCID: iyMJ8zHORxMEyEZX7AdY.O_fclw-] found
Submit result: already submitted
Track | CTDB Status
1 | (335/336) Accurately ripped
2 | (336/336) Accurately ripped
3 | (336/336) Accurately ripped
4 | (336/336) Accurately ripped
5 | (332/336) Accurately ripped


==== Log checksum 9B5D12739A910ED5ACFFDDBC2E832D7F6F4ADBA5F3BF3AB56C1DDAE050BF3CE9 ====

––––––––––––––––––––––––––––––––––––––––
Analyzed: U2 / Songs Of Innocence (Disc 1)
––––––––––––––––––––––––––––––––––––––––

DR Peak RMS Duration Track
––––––––––––––––––––––––––––––––––––––––
DR8 -0.20 dB -9.98 dB 4:15 01-The Miracle (Of Joey Ramone)
DR8 0.00 dB -10.16 dB 4:12 02-Every Breaking Wave
DR8 0.00 dB -9.65 dB 4:00 03-California (There Is No End To Love)
DR10 0.00 dB -12.87 dB 3:47 04-Song For Someone
DR9 0.00 dB -11.34 dB 5:19 05-Iris (Hold Me Close)
DR9 0.00 dB -10.68 dB 3:14 06-Volcano
DR9 -0.10 dB -11.82 dB 4:06 07-Raised By Wolves
DR4 -1.50 dB -7.62 dB 4:25 08-Cedarwood Road
DR10 0.00 dB -12.19 dB 5:02 09-Sleep Like A Baby Tonight
DR10 0.00 dB -11.97 dB 5:05 10-This Is Where You Can Reach Me Now
DR8 0.00 dB -9.97 dB 4:46 11-The Troubles
––––––––––––––––––––––––––––––––––––––––

Number of tracks: 11
Official DR value: DR8

Samplerate: 44100 Hz
Channels: 2
Bits per sample: 16
Bitrate: 878 kbps
Codec: FLAC
================================================================================

––––––––––––––––––––––––––––––––––––––––
Analyzed: U2 / Songs Of Innocence (Disc 2)
––––––––––––––––––––––––––––––––––––––––

DR Peak RMS Duration Track
––––––––––––––––––––––––––––––––––––––––
DR6 -2.22 dB -10.62 dB 3:55 01-Lucifer's Hands
DR8 0.00 dB -10.00 dB 4:40 02-The Crystal Ballroom
DR11 0.00 dB -14.35 dB 22:49 03-Acoustic Sessions
DR8 0.00 dB -9.92 dB 4:32 04-The Troubles (Alternative Version)
DR8 -0.23 dB -12.32 dB 11:06 05-Sleep Like A Baby Tonight (Alternative Perspective Mix By Tchad Blake)
––––––––––––––––––––––––––––––––––––––––

Number of tracks: 5
Official DR value: DR8

Samplerate: 44100 Hz
Channels: 2
Bits per sample: 16
Bitrate: 767 kbps
Codec: FLAC
================================================================================

Thanks to mekong

See also:
U2 - The Unforgettable Fire (1984) [1985, Japan]

♫~Welcome To My Blog~♫

password: BlondStyle