Tags
Language
Tags

UB40 - UB40 (1988) [Re-Up]

Posted By: Designol
UB40 - UB40 (1988) [Re-Up]

UB40 - UB40 (1988)
EAC | FLAC | Image (Cue&Log) ~ 397 Mb | Mp3 (CBR320) ~ 131 Mb | Scans included
Label: DEP International/Virgin | # DEPCD 13, 0777 7 86388 2 7 | Time: 00:42:57
Reggae-Pop, Pop/Rock

UB40 was the first indication that the band was abandoning the political inclinations of their earlier work and concentrating solely on pop-reggae. Of course, pop informed all of their albums since Labour of Love, but on UB40, the group concentrates solely on the grooves, from the instrumental "Dance with the Devil" to a sultry cover of "Breakfast in Bed," featuring Chrissie Hynde on vocals. Even though the album and all of its mellow grooves are thoroughly enjoyable, it's hard not to long for something a little deeper, whether it's the tributes of Labour of Love or the edgy Rat in the Kitchen.

Review by Stephen Thomas Erlewine, Allmusic.com

UB40 - UB40 (1988) [Re-Up]



Tracklist:

01. Dance With The Devil (05:46)
02. Come Out To Play (03:15)
03. Breakfast In Bed (03:20)
04. You're Always Pulling Me Down (04:02)
05. I Would Do For You (05:34)
06. 'Cause It Isn't True (02:57)
07. Where Did I Go Wrong (03:52)
08. Contaminated Minds (04:48)
09. Matter Of Time (03:17)
10. Music So Nice (03:41)
11. Dance With The Devil (Reprise) (02:18)


Exact Audio Copy V1.0 beta 4 from 7. December 2014

Отчёт EAC об извлечении, выполненном 21. марта 2015, 11:52

UB40 / UB40

Дисковод: SONY CD-RW CRX230ED Adapter: 1 ID: 0

Режим чтения : Достоверность
Использование точного потока : Да
Отключение кэша аудио : Да
Использование указателей C2 : Нет

Коррекция смещения при чтении : 6
Способность читать области Lead-in и Lead-out : Нет
Заполнение пропущенных сэмплов тишиной : Да
Удаление блоков с тишиной в начале и конце : Нет
При вычислениях CRC использовались нулевые сэмплы : Да
Интерфейс : Встроенный Win32-интерфейс для Win NT/2000

Выходной формат : Внутренние WAV-операции
Формат сэмплов : 44.100 Гц; 16 бит; стерео


TOC извлечённого CD

Трек | Старт | Длительность | Начальный сектор | Конечный сектор
––––––––––––––––––––––––––––––––––-
1 | 0:00.00 | 5:46.30 | 0 | 25979
2 | 5:46.30 | 3:15.40 | 25980 | 40644
3 | 9:01.70 | 3:20.70 | 40645 | 55714
4 | 12:22.65 | 4:02.62 | 55715 | 73926
5 | 16:25.52 | 5:34.18 | 73927 | 98994
6 | 21:59.70 | 2:57.72 | 98995 | 112341
7 | 24:57.67 | 3:52.70 | 112342 | 129811
8 | 28:50.62 | 4:48.45 | 129812 | 151456
9 | 33:39.32 | 3:17.60 | 151457 | 166291
10 | 36:57.17 | 3:41.35 | 166292 | 182901
11 | 40:38.52 | 2:18.05 | 182902 | 193256


Характеристики диапазона извлечения и сообщения об ошибках

Выбранный диапазон

Имя файла F:\MusicCD\Torrent\UB40 - UB40\UB40 - UB40.wav

Пиковый уровень 100.0 %
Скорость извлечения 7.0 X
Качество диапазона 100.0 %
CRC теста C34AE472
CRC копии C34AE472
Копирование… OK

Ошибок не произошло


AccurateRip: сводка

Трек 1 : извлечено точно (доверие 9) [26ABAE6E] (AR v2)
Трек 2 : извлечено точно (доверие 9) [B4BC4352] (AR v2)
Трек 3 : извлечено точно (доверие 9) [93776E4D] (AR v2)
Трек 4 : извлечено точно (доверие 9) [16C57621] (AR v2)
Трек 5 : извлечено точно (доверие 9) [979499FB] (AR v2)
Трек 6 : извлечено точно (доверие 9) [73DA11F8] (AR v2)
Трек 7 : извлечено точно (доверие 9) [EAF96665] (AR v2)
Трек 8 : извлечено точно (доверие 9) [0A08BC4F] (AR v2)
Трек 9 : извлечено точно (доверие 9) [796A6319] (AR v2)
Трек 10 : извлечено точно (доверие 9) [F3974E75] (AR v2)
Трек 11 : извлечено точно (доверие 9) [25611B8F] (AR v2)

Все треки извлечены точно

Конец отчёта

–– CUETools DB Plugin V2.1.4

[CTDB TOCID: 8IvS5r3pEzZeGfeUrjjRULDjqrU-] found
Submit result: 8IvS5r3pEzZeGfeUrjjRULDjqrU- has been confirmed
Track | CTDB Status
1 | (36/41) Accurately ripped
2 | (38/41) Accurately ripped
3 | (39/41) Accurately ripped
4 | (38/41) Accurately ripped
5 | (38/41) Accurately ripped
6 | (38/41) Accurately ripped
7 | (38/41) Accurately ripped
8 | (37/41) Accurately ripped
9 | (37/41) Accurately ripped
10 | (37/41) Accurately ripped
11 | (38/41) Accurately ripped


==== Контрольная сумма отчёта D43E546CD7B64E918448745336E9288A106740B19B2BE433DD1D4E55445DAAD8 ====

foobar2000 1.2 / Dynamic Range Meter 1.1.1
log date: 2015-03-27 14:40:41

––––––––––––––––––––––––––––––––––––––––
Analyzed: UB40 / UB40
––––––––––––––––––––––––––––––––––––––––

DR Peak RMS Duration Track
––––––––––––––––––––––––––––––––––––––––
DR13 -1.58 dB -17.64 dB 5:46 01-Dance With The Devil
DR12 -2.28 dB -16.72 dB 3:16 02-Come Out To Play
DR15 0.00 dB -16.50 dB 3:21 03-Breakfast In Bed
DR12 -3.28 dB -17.43 dB 4:03 04-You're Always Pulling Me Down
DR14 -2.64 dB -18.33 dB 5:34 05-I Would Do For You
DR14 -0.09 dB -16.37 dB 2:58 06-'Cause It Isn't True
DR14 0.00 dB -15.45 dB 3:53 07-Where Did I Go Wrong
DR13 -1.32 dB -16.09 dB 4:49 08-Contaminated Minds
DR14 0.00 dB -15.34 dB 3:18 09-Matter Of Time
DR14 0.00 dB -15.21 dB 3:41 10-Music So Nice
DR13 -2.62 dB -17.57 dB 2:18 11-Dance With The Devil (Reprise)
––––––––––––––––––––––––––––––––––––––––

Number of tracks: 11
Official DR value: DR14

Samplerate: 44100 Hz
Channels: 2
Bits per sample: 16
Bitrate: 855 kbps
Codec: FLAC
================================================================================

UB40 - UB40 (1988) [Re-Up]

UB40 - UB40 (1988) [Re-Up]

All thanks to original releaser - squirr

More interesting music in My Blog